  0
SECTION
  2
HEADER
  9
$ACADVER
  1
AC1014
  9
$ACADMAINTVER
 70
             0
  9
$DWGCODEPAGE
  3
ANSI_1252
  9
$INSBASE
 10
0.0
 20
0.0
 30
0.0
  9
$EXTMIN
 10
-80.858977626383
 20
-44.2884423749765
 30
0.0
  9
$EXTMAX
 10
76.1913128241615
 20
61.6326598104356
 30
0.0
  9
$LIMMIN
 10
0.0
 20
0.0
  9
$LIMMAX
 10
0.0
 20
0.0
  9
$ORTHOMODE
 70
             0
  9
$REGENMODE
 70
             1
  9
$FILLMODE
 70
             1
  9
$QTEXTMODE
 70
             0
  9
$MIRRTEXT
 70
             1
  9
$DRAGMODE
 70
             2
  9
$LTSCALE
 40
1.0
  9
$OSMODE
 70
             0
  9
$ATTMODE
 70
             1
  9
$TEXTSIZE
 40
0.2
  9
$TRACEWID
 40
0.05
  9
$TEXTSTYLE
  7
STANDARD
  9
$CLAYER
  8
0
  9
$CELTYPE
  6
CONTINUOUS
  9
$CECOLOR
 62
           256
  9
$CELTSCALE
 40
1.0
  9
$DELOBJ
 70
             1
  9
$DISPSILH
 70
             0
  9
$DIMSCALE
 40
1.0
  9
$DIMASZ
 40
0.18
  9
$DIMEXO
 40
0.0625
  9
$DIMDLI
 40
0.38
  9
$DIMRND
 40
0.0
  9
$DIMDLE
 40
0.0
  9
$DIMEXE
 40
0.18
  9
$DIMTP
 40
0.0
  9
$DIMTM
 40
0.0
  9
$DIMTXT
 40
0.18
  9
$DIMCEN
 40
0.09
  9
$DIMTSZ
 40
0.0
  9
$DIMTOL
 70
             0
  9
$DIMLIM
 70
             0
  9
$DIMTIH
 70
             1
  9
$DIMTOH
 70
             1
  9
$DIMSE1
 70
             0
  9
$DIMSE2
 70
             0
  9
$DIMTAD
 70
             0
  9
$DIMZIN
 70
             0
  9
$DIMBLK
  1

  9
$DIMASO
 70
             1
  9
$DIMSHO
 70
             1
  9
$DIMPOST
  1

  9
$DIMAPOST
  1

  9
$DIMALT
 70
             0
  9
$DIMALTD
 70
             2
  9
$DIMALTF
 40
25.4
  9
$DIMLFAC
 40
1.0
  9
$DIMTOFL
 70
             0
  9
$DIMTVP
 40
0.0
  9
$DIMTIX
 70
             0
  9
$DIMSOXD
 70
             0
  9
$DIMSAH
 70
             0
  9
$DIMBLK1
  1

  9
$DIMBLK2
  1

  9
$DIMSTYLE
  2
STANDARD
  9
$DIMCLRD
 70
             0
  9
$DIMCLRE
 70
             0
  9
$DIMCLRT
 70
             0
  9
$DIMTFAC
 40
1.0
  9
$DIMGAP
 40
0.09
  9
$DIMJUST
 70
             0
  9
$DIMSD1
 70
             0
  9
$DIMSD2
 70
             0
  9
$DIMTOLJ
 70
             1
  9
$DIMTZIN
 70
             0
  9
$DIMALTZ
 70
             0
  9
$DIMALTTZ
 70
             0
  9
$DIMFIT
 70
             3
  9
$DIMUPT
 70
             0
  9
$DIMUNIT
 70
             2
  9
$DIMDEC
 70
             4
  9
$DIMTDEC
 70
             4
  9
$DIMALTU
 70
             2
  9
$DIMALTTD
 70
             2
  9
$DIMTXSTY
  7
STANDARD
  9
$DIMAUNIT
 70
             0
  9
$LUNITS
 70
             2
  9
$LUPREC
 70
             4
  9
$SKETCHINC
 40
0.1
  9
$FILLETRAD
 40
0.0
  9
$AUNITS
 70
             0
  9
$AUPREC
 70
             0
  9
$MENU
  1
acad
  9
$ELEVATION
 40
0.0
  9
$PELEVATION
 40
0.0
  9
$THICKNESS
 40
0.0
  9
$LIMCHECK
 70
             0
  9
$BLIPMODE
 70
             1
  9
$CHAMFERA
 40
0.0
  9
$CHAMFERB
 40
0.0
  9
$CHAMFERC
 40
0.0
  9
$CHAMFERD
 40
0.0
  9
$SKPOLY
 70
             0
  9
$TDCREATE
 40
0.000000000
  9
$TDUPDATE
 40
0.000000000
  9
$TDINDWG
 40
0.0000000000
  9
$TDUSRTIMER
 40
0.0000000000
  9
$USRTIMER
 70
             1
  9
$ANGBASE
 50
0.0
  9
$ANGDIR
 70
             0
  9
$PDMODE
 70
             0
  9
$PDSIZE
 40
0.0
  9
$PLINEWID
 40
0.0
  9
$COORDS
 70
             0
  9
$SPLFRAME
 70
             0
  9
$SPLINETYPE
 70
             6
  9
$SPLINESEGS
 70
             8
  9
$ATTDIA
 70
             0
  9
$ATTREQ
 70
             1
  9
$HANDLING
 70
             1
  9
$HANDSEED
  5
15F
  9
$SURFTAB1
 70
             6
  9
$SURFTAB2
 70
             6
  9
$SURFTYPE
 70
             6
  9
$SURFU
 70
             6
  9
$SURFV
 70
             6
  9
$UCSNAME
  2

  9
$UCSORG
 10
0.0
 20
0.0
 30
0.0
  9
$UCSXDIR
 10
1.0
 20
0.0
 30
0.0
  9
$UCSYDIR
 10
0.0
 20
1.0
 30
0.0
  9
$PUCSNAME
  2

  9
$PUCSORG
 10
0.0
 20
0.0
 30
0.0
  9
$PUCSXDIR
 10
1.0
 20
0.0
 30
0.0
  9
$PUCSYDIR
 10
0.0
 20
1.0
 30
0.0
  9
$USERI1
 70
             0
  9
$USERI2
 70
             0
  9
$USERI3
 70
             0
  9
$USERI4
 70
             0
  9
$USERI5
 70
             0
  9
$USERR1
 40
12.01
  9
$USERR2
 40
0.0
  9
$USERR3
 40
0.0
  9
$USERR4
 40
0.0
  9
$USERR5
 40
0.0
  9
$WORLDVIEW
 70
             1
  9
$SHADEDGE
 70
             3
  9
$SHADEDIF
 70
            70
  9
$TILEMODE
 70
             1
  9
$MAXACTVP
 70
            16
  9
$PINSBASE
 10
0.0
 20
0.0
 30
0.0
  9
$PLIMCHECK
 70
             0
  9
$PEXTMIN
 10
1.00000000000000E+20
 20
1.00000000000000E+20
 30
1.00000000000000E+20
  9
$PEXTMAX
 10
-1.00000000000000E+20
 20
-1.00000000000000E+20
 30
-1.00000000000000E+20
  9
$PLIMMIN
 10
0.0
 20
0.0
  9
$PLIMMAX
 10
12.0
 20
9.0
  9
$UNITMODE
 70
             0
  9
$VISRETAIN
 70
             0
  9
$PLINEGEN
 70
             1
  9
$PSLTSCALE
 70
             0
  9
$TREEDEPTH
 70
          3020
  9
$PICKSTYLE
 70
             1
  9
$CMLSTYLE
  2
STANDARD
  9
$CMLJUST
 70
             0
  9
$CMLSCALE
 40
1.0
  9
$PROXYGRAPHICS
 70
             0
  9
$MEASUREMENT
 70
             1
  0
ENDSEC
  0
SECTION
  2
CLASSES
  0
CLASS
  1
LWPOLYLINE
  2
AcDbPolyline
  3
"AutoCAD"
 90
        0
280
             0
281
             1
  0
CLASS
  1
IMAGE
  2
AcDbRasterImage
  3
ISM
 90
      127
280
             0
281
             1
  0
CLASS
  1
OLE2FRAME
  2
AcDbOle2Frame
  3
""
 90
        0
280
             0
281
             1
  0
CLASS
  1
HATCH
  2
AcDbHatch
  3
"ACAD_SEDONA"
 90
        0
280
             0
281
             1
  0
CLASS
  1
DICTIONARYVAR
  2
AcDbDictionaryVar
  3
"AutoCAD"
 90
        0
280
             0
281
             0
  0
CLASS
  1
RASTERVARIABLES
  2
AcDbRasterVariables
  3
ISM
 90
        0
280
             0
281
             0
  0
CLASS
  1
IMAGEDEF
  2
AcDbRasterImageDef
  3
ISM
 90
        0
280
             0
281
             0
  0
CLASS
  1
IMAGEDEF_REACTOR
  2
AcDbRasterImageDefReactor
  3
ISM
 90
        1
280
             0
281
             0
  0
CLASS
  1
IDBUFFER
  2
AcDbIdBuffer
  3
"Acad"
 90
        0
280
             0
281
             0
  0
CLASS
  1
SPATIAL_FILTER
  2
AcDbSpatialFilter
  3
"Acad"
 90
        0
280
             0
281
             0
  0
CLASS
  1
XRECORD
  2
AcDbXrecord
  3
"<Built In>"
 90
        0
280
             0
281
             0
  0
CLASS
  1
SORTENTSTABLE
  2
AcDbSortentsTable
  3
"AutoCAD"
 90
        0
280
             0
281
             0
  0
CLASS
  1
LAYER_INDEX
  2
AcDbLayerIndex
  3
"Acad"
 90
        0
280
             0
281
             0
  0
CLASS
  1
SPATIAL_INDEX
  2
AcDbSpatialIndex
  3
"Acad"
 90
        0
280
             0
281
             0
  0
CLASS
  1
OBJECT_PTR
  2
CAseDLPNTableRecord
  3
"ASE-LPNTableRecord"
 90
        1
280
             0
281
             0
  0
CLASS
  1
LAYOUT
  2
AcDbLayout
  3
"AutoCAD 2000"
 90
        0
280
             0
281
             0
  0
CLASS
  1
PLOTSETTINGS
  2
AcDbPlotSettings
  3
"AutoCAD 2000"
 90
        0
280
             0
281
             0
  0
CLASS
  1
ACDBDICTIONARYWDFLT
  2
AcDbDictionaryWithDefault
  3
"AutoCAD 2000"
 90
        0
280
             0
281
             0
  0
CLASS
  1
ACDBPLACEHOLDER
  2
AcDbPlaceHolder
  3
"AutoCAD 2000"
 90
        0
280
             0
281
             0
  0
ENDSEC
  0
SECTION
  2
TABLES
  0
TABLE
  2
VPORT
  5
7
100
AcDbSymbolTable
 70
             1
  0
VPORT
  5
15
100
AcDbSymbolTableRecord
100
AcDbViewportTableRecord
  2
*ACTIVE
 70
             0
 10
0.0
 20
0.0
 11
1.0
 21
1.0
 12
-2.33383240111075
 22
8.67210871772955
 13
0.0
 23
0.0
 14
1.0
 24
1.0
 15
0.0
 25
0.0
 16
0.0
 26
0.0
 36
1.0
 17
0.0
 27
0.0
 37
0.0
 40
116.51321240395332
 41
1.60267857142857
 42
50.0
 43
0.0
 44
0.0
 50
0.0
 51
0.0
 71
             0
 72
           100
 73
             1
 74
             1
 75
             0
 76
             0
 77
             0
 78
             0
  0
ENDTAB
  0
TABLE
  2
LTYPE
  5
4
100
AcDbSymbolTable
 70
            10
  0
LTYPE
  5
11
100
AcDbSymbolTableRecord
100
AcDbLinetypeTableRecord
  2
BYBLOCK
 70
            64
  3

 72
            65
 73
             0
 40
0.0
  0
LTYPE
  5
12
100
AcDbSymbolTableRecord
100
AcDbLinetypeTableRecord
  2
BYLAYER
 70
            64
  3

 72
            65
 73
             0
 40
0.0
  0
LTYPE
  5
13
100
AcDbSymbolTableRecord
100
AcDbLinetypeTableRecord
  2
CONTINUOUS
 70
            64
  3
Solid line
 72
            65
 73
             0
 40
0.0
  0
LTYPE
  5
1D
100
AcDbSymbolTableRecord
100
AcDbLinetypeTableRecord
  2
DASHED
 70
            64
  3
Dashed
 72
            65
 73
             2
 40
15.0
 49
7.0
 74
             0
 49
-8.0
 74
             0
  0
LTYPE
  5
1E
100
AcDbSymbolTableRecord
100
AcDbLinetypeTableRecord
  2
DOTTED
 70
            64
  3
Dotted
 72
            65
 73
             2
 40
1.0
 49
0.0
 74
             0
 49
-1.0
 74
             0
  0
LTYPE
  5
1F
100
AcDbSymbolTableRecord
100
AcDbLinetypeTableRecord
  2
DOT_CENTER
 70
            64
  3
Dot_Center
 72
            65
 73
             4
 40
14.0
 49
12.0
 74
             0
 49
-1.0
 74
             0
 49
0.0
 74
             0
 49
-1.0
 74
             0
  0
LTYPE
  5
20
100
AcDbSymbolTableRecord
100
AcDbLinetypeTableRecord
  2
LONG_DASHED
 70
            64
  3
Long_Dashed
 72
            65
 73
             2
 40
15.0
 49
10.0
 74
             0
 49
-5.0
 74
             0
  0
LTYPE
  5
21
100
AcDbSymbolTableRecord
100
AcDbLinetypeTableRecord
  2
DASH_CENTER
 70
            64
  3
Dash_Center
 72
            65
 73
             4
 40
14.0
 49
11.0
 74
             0
 49
-1.0
 74
             0
 49
1.0
 74
             0
 49
-1.0
 74
             0
  0
LTYPE
  5
22
100
AcDbSymbolTableRecord
100
AcDbLinetypeTableRecord
  2
PHANTOM
 70
            64
  3
Phantom
 72
            65
 73
             6
 40
13.0
 49
10.0
 74
             0
 49
-1.0
 74
             0
 49
0.0
 74
             0
 49
-1.0
 74
             0
 49
0.0
 74
             0
 49
-1.0
 74
             0
  0
LTYPE
  5
23
100
AcDbSymbolTableRecord
100
AcDbLinetypeTableRecord
  2
CENTER_DASH_DASH
 70
            64
  3
Center_Dash_Dash
 72
            65
 73
             6
 40
14.0
 49
9.0
 74
             0
 49
-1.0
 74
             0
 49
1.0
 74
             0
 49
-1.0
 74
             0
 49
1.0
 74
             0
 49
-1.0
 74
             0
  0
ENDTAB
  0
TABLE
  2
LAYER
  5
2
100
AcDbSymbolTable
 70
             2
  0
LAYER
  5
14
100
AcDbSymbolTableRecord
100
AcDbLayerTableRecord
  2
0
 70
             0
 62
             7
  6
CONTINUOUS
  0
LAYER
  5
24
100
AcDbSymbolTableRecord
100
AcDbLayerTableRecord
  2
1
 70
             0
 62
             7
  6
CONTINUOUS
  0
ENDTAB
  0
TABLE
  2
STYLE
  5
3
100
AcDbSymbolTable
 70
             2
  0
STYLE
  5
17
100
AcDbSymbolTableRecord
100
AcDbTextStyleTableRecord
  2
STANDARD
 70
             0
 40
0.0
 41
1.0
 50
0.0
 71
             0
 42
0.0
  3
txt
  4

  0
STYLE
  5
122
100
AcDbSymbolTableRecord
100
AcDbTextStyleTableRecord
  2
CONVERTER_1
 70
             0
 40
0.0
 41
0.9
 50
0.0
 71
             0
 42
0.0
  3
txt.shx
  4

  0
ENDTAB
  0
TABLE
  2
VIEW
  5
5
100
AcDbSymbolTable
 70
             0
  0
ENDTAB
  0
TABLE
  2
UCS
  5
6
100
AcDbSymbolTable
 70
             0
  0
ENDTAB
  0
TABLE
  2
APPID
  5
8
100
AcDbSymbolTable
 70
             1
  0
APPID
  5
16
100
AcDbSymbolTableRecord
100
AcDbRegAppTableRecord
  2
ACAD
 70
             0
  0
ENDTAB
  0
TABLE
  2
DIMSTYLE
  5
9
100
AcDbSymbolTable
 70
             7
  0
DIMSTYLE
105
18
100
AcDbSymbolTableRecord
100
AcDbDimStyleTableRecord
  2
STANDARD
 70
             0
  3

  4

  5

  6

  7

 40
1.0
 41
0.18
 42
0.0625
 43
0.38
 44
0.18
 45
0.0
 46
0.0
 47
0.0
 48
0.0
 71
             0
 72
             0
 73
             1
 74
             1
 75
             0
 76
             0
 77
             0
 78
             0
140
0.18
141
0.09
142
0.0
143
25.4
144
1.0
145
0.0
146
1.0
147
0.09
170
             0
171
             2
172
             0
173
             0
174
             0
175
             0
176
             0
177
             0
178
             0
270
             2
271
             4
272
             4
273
             2
274
             2
275
             0
280
             0
281
             0
282
             0
283
             1
284
             0
285
             0
286
             0
287
             3
288
             0
340
17
  0
DIMSTYLE
105
125
100
AcDbSymbolTableRecord
100
AcDbDimStyleTableRecord
  2
ME10_DIM_0
 70
             0
  3

  4

  5

  6

  7

 40
1.0
 41
7.0
 42
0.0
 43
0.38
 44
2.0
 45
0.0
 46
0.0
 47
0.0
 48
0.0
 71
             0
 72
             0
 73
             0
 74
             0
 75
             0
 76
             0
 77
             1
 78
             8
140
7.0
141
0.09
142
0.0
143
25.4
144
1.0
145
0.0
146
1.0
147
0.625
170
             0
171
             2
172
             1
173
             1
174
             0
175
             0
176
             4
177
             4
178
             1
270
             2
271
             2
272
             4
273
             2
274
             2
275
             0
280
             0
281
             0
282
             0
283
             1
284
             0
285
             0
286
             0
287
             3
288
             0
340
122
  0
DIMSTYLE
105
130
100
AcDbSymbolTableRecord
100
AcDbDimStyleTableRecord
  2
ME10_DIM_1
 70
             0
  3
DN<>
  4

  5

  6

  7

 40
1.0
 41
7.0
 42
0.0
 43
0.38
 44
2.0
 45
0.0
 46
0.0
 47
0.0
 48
0.0
 71
             0
 72
             0
 73
             0
 74
             0
 75
             0
 76
             0
 77
             1
 78
             8
140
7.0
141
0.09
142
0.0
143
25.4
144
1.0
145
0.0
146
1.0
147
0.625
170
             0
171
             2
172
             1
173
             1
174
             0
175
             0
176
             4
177
             4
178
             1
270
             2
271
             2
272
             4
273
             2
274
             2
275
             0
280
             0
281
             0
282
             0
283
             1
284
             0
285
             0
286
             0
287
             3
288
             0
340
122
  0
DIMSTYLE
105
13B
100
AcDbSymbolTableRecord
100
AcDbDimStyleTableRecord
  2
ME10_DIM_2
 70
             0
  3

  4

  5

  6

  7

 40
1.0
 41
7.0
 42
0.0
 43
0.38
 44
2.0
 45
0.0
 46
0.0
 47
0.0
 48
0.0
 71
             0
 72
             0
 73
             0
 74
             0
 75
             0
 76
             0
 77
             1
 78
             8
140
7.0
141
0.09
142
0.0
143
25.4
144
1.0
145
0.0
146
1.0
147
0.625
170
             0
171
             2
172
             1
173
             1
174
             0
175
             0
176
             4
177
             4
178
             1
270
             2
271
             2
272
             4
273
             2
274
             2
275
             0
280
             0
281
             0
282
             0
283
             1
284
             0
285
             0
286
             0
287
             3
288
             0
340
122
  0
DIMSTYLE
105
146
100
AcDbSymbolTableRecord
100
AcDbDimStyleTableRecord
  2
ME10_DIM_3
 70
             0
  3

  4

  5

  6

  7

 40
1.0
 41
7.0
 42
0.0
 43
0.38
 44
2.0
 45
0.0
 46
0.0
 47
0.0
 48
0.0
 71
             0
 72
             0
 73
             0
 74
             0
 75
             0
 76
             0
 77
             1
 78
             8
140
7.0
141
0.09
142
0.0
143
25.4
144
1.0
145
0.0
146
1.0
147
0.625
170
             0
171
             2
172
             1
173
             1
174
             0
175
             0
176
             4
177
             4
178
             1
270
             2
271
             2
272
             4
273
             2
274
             2
275
             0
280
             0
281
             0
282
             0
283
             1
284
             0
285
             0
286
             0
287
             3
288
             0
340
122
  0
DIMSTYLE
105
151
100
AcDbSymbolTableRecord
100
AcDbDimStyleTableRecord
  2
ME10_DIM_4
 70
             0
  3
DN<>
  4

  5

  6

  7

 40
1.0
 41
7.0
 42
0.0
 43
0.38
 44
2.0
 45
0.0
 46
0.0
 47
0.0
 48
0.0
 71
             0
 72
             0
 73
             0
 74
             0
 75
             0
 76
             0
 77
             1
 78
             8
140
7.0
141
0.09
142
0.0
143
25.4
144
1.0
145
0.0
146
1.0
147
0.625
170
             0
171
             2
172
             1
173
             1
174
             0
175
             0
176
             4
177
             4
178
             1
270
             2
271
             2
272
             4
273
             2
274
             2
275
             0
280
             0
281
             0
282
             0
283
             1
284
             0
285
             0
286
             0
287
             3
288
             0
340
122
  0
DIMSTYLE
105
15C
100
AcDbSymbolTableRecord
100
AcDbDimStyleTableRecord
  2
ME10_DIM_5
 70
             0
  3

  4

  5

  6

  7

 40
1.0
 41
7.0
 42
0.0
 43
0.38
 44
2.0
 45
0.0
 46
0.0
 47
0.0
 48
0.0
 71
             0
 72
             0
 73
             0
 74
             0
 75
             0
 76
             0
 77
             1
 78
             8
140
7.0
141
0.09
142
0.0
143
25.4
144
1.0
145
0.0
146
1.0
147
0.625
170
             0
171
             2
172
             1
173
             1
174
             0
175
             0
176
             4
177
             4
178
             1
270
             2
271
             2
272
             4
273
             2
274
             2
275
             0
280
             0
281
             0
282
             0
283
             1
284
             0
285
             0
286
             0
287
             3
288
             0
340
122
  0
ENDTAB
  0
TABLE
  2
BLOCK_RECORD
  5
1
100
AcDbSymbolTable
 70
            12
  0
BLOCK_RECORD
  5
A
100
AcDbSymbolTableRecord
100
AcDbBlockTableRecord
  2
*MODEL_SPACE
  0
BLOCK_RECORD
  5
B
100
AcDbSymbolTableRecord
100
AcDbBlockTableRecord
  2
*PAPER_SPACE
  0
BLOCK_RECORD
  5
25
100
AcDbSymbolTableRecord
100
AcDbBlockTableRecord
  2
HL902_T-ST_CK_DN40__1
  0
BLOCK_RECORD
  5
27
100
AcDbSymbolTableRecord
100
AcDbBlockTableRecord
  2
HL902_T-ST_CK_DN40__2
  0
BLOCK_RECORD
  5
29
100
AcDbSymbolTableRecord
100
AcDbBlockTableRecord
  2
HL902_T-ST_CK_DN30
  0
BLOCK_RECORD
  5
2B
100
AcDbSymbolTableRecord
100
AcDbBlockTableRecord
  2
HL_902_ROHRBELUEFTER
  0
BLOCK_RECORD
  5
2E
100
AcDbSymbolTableRecord
100
AcDbBlockTableRecord
  2
HOLL_NDERMUTTER_6_4__3
  0
BLOCK_RECORD
  5
30
100
AcDbSymbolTableRecord
100
AcDbBlockTableRecord
  2
HOLL_NDERMUTTER_6_4__4
  0
BLOCK_RECORD
  5
11B
100
AcDbSymbolTableRecord
100
AcDbBlockTableRecord
  2
*D6
  0
BLOCK_RECORD
  5
127
100
AcDbSymbolTableRecord
100
AcDbBlockTableRecord
  2
*D7
  0
BLOCK_RECORD
  5
132
100
AcDbSymbolTableRecord
100
AcDbBlockTableRecord
  2
*D8
  0
BLOCK_RECORD
  5
13D
100
AcDbSymbolTableRecord
100
AcDbBlockTableRecord
  2
*D9
  0
BLOCK_RECORD
  5
148
100
AcDbSymbolTableRecord
100
AcDbBlockTableRecord
  2
*D10
  0
BLOCK_RECORD
  5
153
100
AcDbSymbolTableRecord
100
AcDbBlockTableRecord
  2
*D11
  0
ENDTAB
  0
ENDSEC
  0
SECTION
  2
BLOCKS
  0
BLOCK
  5
D
100
AcDbEntity
  8
0
100
AcDbBlockBegin
  2
*MODEL_SPACE
 70
             0
 10
0.0
 20
0.0
 30
0.0
  3
*MODEL_SPACE
  1

  0
ENDBLK
  5
E
100
AcDbEntity
  8
0
100
AcDbBlockEnd
  0
BLOCK
  5
F
100
AcDbEntity
 67
             1
  8
0
100
AcDbBlockBegin
  2
*PAPER_SPACE
 70
             0
 10
0.0
 20
0.0
 30
0.0
  3
*PAPER_SPACE
  1

  0
ENDBLK
  5
10
100
AcDbEntity
 67
             1
  8
0
100
AcDbBlockEnd
  0
BLOCK
  5
26
100
AcDbEntity
  8
0
100
AcDbBlockBegin
  2
HL902_T-ST_CK_DN40__1
 70
             0
 10
-12387.28346273902
 20
-16079.407465354911
 30
0.0
  3
HL902_T-ST_CK_DN40__1
  1

  0
XLINE
  5
4D
100
AcDbEntity
  8
1
  6
DOT_CENTER
 62
             3
 60
             1
100
AcDbXline
 10
-12288.787045555109
 20
-16051.74961623789
 30
0.0
 11
0.0
 21
-1.0
 31
0.0
  0
XLINE
  5
4C
100
AcDbEntity
  8
1
  6
DOT_CENTER
 62
             3
 60
             1
100
AcDbXline
 10
-12290.787045555109
 20
-16051.74961623789
 30
0.0
 11
0.0
 21
-1.0
 31
0.0
  0
XLINE
  5
4B
100
AcDbEntity
  8
1
  6
DOT_CENTER
 62
             3
 60
             1
100
AcDbXline
 10
-12335.819652478291
 20
-16034.18957479942
 30
0.0
 11
0.0
 21
1.0
 31
0.0
  0
XLINE
  5
4A
100
AcDbEntity
  8
1
  6
DOT_CENTER
 62
             3
 60
             1
100
AcDbXline
 10
-12382.85225940147
 20
-16051.74961623789
 30
0.0
 11
0.0
 21
-1.0
 31
0.0
  0
XLINE
  5
49
100
AcDbEntity
  8
1
  6
DOT_CENTER
 62
             3
 60
             1
100
AcDbXline
 10
-12380.85225940147
 20
-16051.74961623789
 30
0.0
 11
0.0
 21
-1.0
 31
0.0
  0
POINT
  5
48
100
AcDbEntity
  8
1
 62
             3
 60
             1
100
AcDbPoint
 10
-12288.787045555109
 20
-16051.74961623789
  0
POINT
  5
47
100
AcDbEntity
  8
1
 62
             3
 60
             1
100
AcDbPoint
 10
-12290.787045555109
 20
-16051.74961623789
  0
POINT
  5
46
100
AcDbEntity
  8
1
 62
             3
 60
             1
100
AcDbPoint
 10
-12288.787045555109
 20
-16055.649616237881
  0
POINT
  5
45
100
AcDbEntity
  8
1
 62
             3
 60
             1
100
AcDbPoint
 10
-12290.787045555109
 20
-16055.649616237881
  0
POINT
  5
44
100
AcDbEntity
  8
1
 62
             3
 60
             1
100
AcDbPoint
 10
-12288.787045555109
 20
-16095.649616237881
  0
POINT
  5
43
100
AcDbEntity
  8
1
 62
             3
 60
             1
100
AcDbPoint
 10
-12290.787045555109
 20
-16095.649616237881
  0
POINT
  5
42
100
AcDbEntity
  8
1
 62
             3
 60
             1
100
AcDbPoint
 10
-12288.787045555109
 20
-16099.54961623788
  0
POINT
  5
41
100
AcDbEntity
  8
1
 62
             3
 60
             1
100
AcDbPoint
 10
-12290.787045555109
 20
-16099.54961623788
  0
POINT
  5
40
100
AcDbEntity
  8
1
 62
             3
 60
             1
100
AcDbPoint
 10
-12382.85225940147
 20
-16051.74961623789
  0
POINT
  5
3F
100
AcDbEntity
  8
1
 62
             3
 60
             1
100
AcDbPoint
 10
-12380.85225940147
 20
-16051.74961623789
  0
POINT
  5
3E
100
AcDbEntity
  8
1
 62
             3
 60
             1
100
AcDbPoint
 10
-12382.85225940147
 20
-16055.649616237881
  0
POINT
  5
3D
100
AcDbEntity
  8
1
 62
             3
 60
             1
100
AcDbPoint
 10
-12380.85225940147
 20
-16055.649616237881
  0
POINT
  5
3C
100
AcDbEntity
  8
1
 62
             3
 60
             1
100
AcDbPoint
 10
-12382.85225940147
 20
-16095.649616237881
  0
POINT
  5
3B
100
AcDbEntity
  8
1
 62
             3
 60
             1
100
AcDbPoint
 10
-12380.85225940147
 20
-16095.649616237881
  0
POINT
  5
3A
100
AcDbEntity
  8
1
 62
             3
 60
             1
100
AcDbPoint
 10
-12382.85225940147
 20
-16099.54961623788
  0
POINT
  5
39
100
AcDbEntity
  8
1
 62
             3
 60
             1
100
AcDbPoint
 10
-12380.85225940147
 20
-16099.54961623788
  0
ENDBLK
  5
4E
100
AcDbEntity
  8
0
100
AcDbBlockEnd
  0
BLOCK
  5
28
100
AcDbEntity
  8
0
100
AcDbBlockBegin
  2
HL902_T-ST_CK_DN40__2
 70
             0
 10
-12383.761094656211
 20
-15944.27294272258
 30
0.0
  3
HL902_T-ST_CK_DN40__2
  1

  0
XLINE
  5
90
100
AcDbEntity
  8
1
  6
DOT_CENTER
 62
             3
 60
             1
100
AcDbXline
 10
-12287.2646774723
 20
-16120.61509360556
 30
0.0
 11
0.0
 21
-1.0
 31
0.0
  0
XLINE
  5
8F
100
AcDbEntity
  8
1
  6
DOT_CENTER
 62
             3
 60
             1
100
AcDbXline
 10
-12285.2646774723
 20
-16120.61509360556
 30
0.0
 11
0.0
 21
-1.0
 31
0.0
  0
ARC
  5
8E
100
AcDbEntity
  8
1
  6
CONTINUOUS
 62
             7
100
AcDbCircle
 10
-12332.29728439549
 20
-16104.552247118139
 40
22.9999999996608
100
AcDbArc
 50
-129.24285068726397
 51
-50.75714931271497
  0
LINE
  5
8D
100
AcDbEntity
  8
1
  6
PHANTOM
 62
             2
100
AcDbLine
 10
-12332.29728439549
 20
-16131.531365583
 11
-12332.29728439549
 21
-16102.4299340794
  0
LINE
  5
8C
100
AcDbEntity
  8
1
  6
CONTINUOUS
 62
             7
100
AcDbLine
 10
-12355.79258385711
 20
-16122.36509360556
 11
-12355.79258385711
 21
-16166.665093605559
  0
LINE
  5
8B
100
AcDbEntity
  8
1
  6
CONTINUOUS
 62
             7
100
AcDbLine
 10
-12356.79258385711
 20
-16168.415093605559
 11
-12356.79258385711
 21
-16120.61509360556
  0
LINE
  5
8A
100
AcDbEntity
  8
1
  6
CONTINUOUS
 62
             7
100
AcDbLine
 10
-12307.80198493386
 20
-16168.415093605559
 11
-12307.80198493386
 21
-16120.61509360556
  0
LINE
  5
89
100
AcDbEntity
  8
1
  6
CONTINUOUS
 62
             7
100
AcDbLine
 10
-12317.74728439548
 20
-16117.36509360556
 11
-12346.84728439549
 21
-16117.36509360556
  0
LINE
  5
88
100
AcDbEntity
  8
1
  6
CONTINUOUS
 62
             2
100
AcDbLine
 10
-12308.41225383197
 20
-16166.940093605561
 11
-12305.2646774723
 21
-16166.940093605561
  0
LINE
  5
87
100
AcDbEntity
  8
1
  6
CONTINUOUS
 62
             7
100
AcDbLine
 10
-12307.80198493386
 20
-16168.415093605559
 11
-12305.2646774723
 21
-16168.415093605559
  0
LINE
  5
86
100
AcDbEntity
  8
1
  6
DOT_CENTER
 62
             2
100
AcDbLine
 10
-12377.329891318661
 20
-16120.61509360556
 11
-12379.329891318661
 21
-16120.61509360556
  0
LINE
  5
85
100
AcDbEntity
  8
1
  6
DOT_CENTER
 62
             2
100
AcDbLine
 10
-12377.329891318661
 20
-16124.51509360556
 11
-12379.329891318661
 21
-16124.51509360556
  0
LINE
  5
84
100
AcDbEntity
  8
1
  6
DOT_CENTER
 62
             2
100
AcDbLine
 10
-12377.329891318661
 20
-16164.51509360556
 11
-12379.329891318661
 21
-16164.51509360556
  0
LINE
  5
83
100
AcDbEntity
  8
1
  6
DOT_CENTER
 62
             2
100
AcDbLine
 10
-12377.329891318661
 20
-16168.415093605559
 11
-12379.329891318661
 21
-16168.415093605559
  0
LINE
  5
82
100
AcDbEntity
  8
1
  6
DOT_CENTER
 62
             2
100
AcDbLine
 10
-12285.2646774723
 20
-16168.415093605559
 11
-12287.2646774723
 21
-16168.415093605559
  0
LINE
  5
81
100
AcDbEntity
  8
1
  6
DOT_CENTER
 62
             2
100
AcDbLine
 10
-12285.2646774723
 20
-16164.51509360556
 11
-12287.2646774723
 21
-16164.51509360556
  0
LINE
  5
80
100
AcDbEntity
  8
1
  6
DOT_CENTER
 62
             2
100
AcDbLine
 10
-12285.2646774723
 20
-16124.51509360556
 11
-12287.2646774723
 21
-16124.51509360556
  0
LINE
  5
7F
100
AcDbEntity
  8
1
  6
DOT_CENTER
 62
             2
100
AcDbLine
 10
-12285.2646774723
 20
-16120.61509360556
 11
-12287.2646774723
 21
-16120.61509360556
  0
LINE
  5
7E
100
AcDbEntity
  8
1
  6
CONTINUOUS
 62
             2
100
AcDbLine
 10
-12308.27509468947
 20
-16122.09009360556
 11
-12305.2646774723
 21
-16122.09009360556
  0
LINE
  5
7D
100
AcDbEntity
  8
1
  6
CONTINUOUS
 62
             2
100
AcDbLine
 10
-12356.38756104387
 20
-16122.09009360556
 11
-12359.329891318661
 21
-16122.09009360556
  0
LINE
  5
7C
100
AcDbEntity
  8
1
  6
CONTINUOUS
 62
             2
100
AcDbLine
 10
-12356.24020565347
 20
-16166.940093605561
 11
-12359.329891318661
 21
-16166.940093605561
  0
LINE
  5
7B
100
AcDbEntity
  8
1
  6
CONTINUOUS
 62
             7
100
AcDbLine
 10
-12346.84728439549
 20
-16122.36509360556
 11
-12346.84728439549
 21
-16117.36509360556
  0
LINE
  5
7A
100
AcDbEntity
  8
1
  6
CONTINUOUS
 62
             7
100
AcDbLine
 10
-12355.79258385711
 20
-16122.36509360556
 11
-12346.84728439549
 21
-16122.36509360556
  0
LINE
  5
79
100
AcDbEntity
  8
1
  6
CONTINUOUS
 62
             7
100
AcDbLine
 10
-12317.74728439548
 20
-16117.36509360556
 11
-12317.74728439548
 21
-16122.36509360556
  0
LINE
  5
78
100
AcDbEntity
  8
1
  6
CONTINUOUS
 62
             7
100
AcDbLine
 10
-12305.2646774723
 20
-16120.61509360556
 11
-12307.80198493386
 21
-16120.61509360556
  0
LINE
  5
77
100
AcDbEntity
  8
1
  6
CONTINUOUS
 62
             7
100
AcDbLine
 10
-12308.80198493386
 20
-16166.665093605559
 11
-12319.20666119417
 21
-16166.665093605559
  0
LINE
  5
76
100
AcDbEntity
  8
1
  6
CONTINUOUS
 62
             7
100
AcDbLine
 10
-12317.74728439548
 20
-16122.36509360556
 11
-12308.80198493386
 21
-16122.36509360556
  0
LINE
  5
75
100
AcDbEntity
  8
1
  6
DOT_CENTER
 62
             2
100
AcDbLine
 10
-12292.406667295711
 20
-16144.51509360556
 11
-12371.406667295711
 21
-16144.51509360556
  0
LINE
  5
74
100
AcDbEntity
  8
1
  6
CONTINUOUS
 62
             7
100
AcDbLine
 10
-12356.79258385711
 20
-16120.61509360556
 11
-12359.329891318661
 21
-16120.61509360556
  0
LINE
  5
73
100
AcDbEntity
  8
1
  6
CONTINUOUS
 62
             7
100
AcDbLine
 10
-12359.329891318661
 20
-16168.415093605559
 11
-12356.79258385711
 21
-16168.415093605559
  0
LINE
  5
72
100
AcDbEntity
  8
1
  6
CONTINUOUS
 62
             7
100
AcDbLine
 10
-12308.80198493386
 20
-16122.36509360556
 11
-12308.80198493386
 21
-16121.61509360556
  0
LINE
  5
71
100
AcDbEntity
  8
1
  6
CONTINUOUS
 62
             7
100
AcDbLine
 10
-12308.80198493386
 20
-16121.61509360556
 11
-12307.80198493386
 21
-16120.61509360556
  0
LINE
  5
70
100
AcDbEntity
  8
1
  6
CONTINUOUS
 62
             7
100
AcDbLine
 10
-12355.79258385711
 20
-16122.36509360556
 11
-12355.79258385711
 21
-16121.61509360556
  0
LINE
  5
6F
100
AcDbEntity
  8
1
  6
CONTINUOUS
 62
             7
100
AcDbLine
 10
-12355.79258385711
 20
-16121.61509360556
 11
-12356.79258385711
 21
-16120.61509360556
  0
LINE
  5
6E
100
AcDbEntity
  8
1
  6
CONTINUOUS
 62
             7
100
AcDbLine
 10
-12355.79258385711
 20
-16166.665093605559
 11
-12355.79258385711
 21
-16167.415093605559
  0
LINE
  5
6D
100
AcDbEntity
  8
1
  6
CONTINUOUS
 62
             7
100
AcDbLine
 10
-12355.79258385711
 20
-16167.415093605559
 11
-12356.79258385711
 21
-16168.415093605559
  0
LINE
  5
6C
100
AcDbEntity
  8
1
  6
CONTINUOUS
 62
             7
100
AcDbLine
 10
-12308.80198493386
 20
-16166.665093605559
 11
-12308.80198493386
 21
-16167.415093605559
  0
LINE
  5
6B
100
AcDbEntity
  8
1
  6
CONTINUOUS
 62
             7
100
AcDbLine
 10
-12308.80198493386
 20
-16167.415093605559
 11
-12307.80198493386
 21
-16168.415093605559
  0
LINE
  5
6A
100
AcDbEntity
  8
1
  6
CONTINUOUS
 62
             7
100
AcDbLine
 10
-12319.20666119417
 20
-16166.665093605559
 11
-12355.79258385711
 21
-16166.665093605559
  0
LINE
  5
69
100
AcDbEntity
  8
1
  6
CONTINUOUS
 62
             7
100
AcDbLine
 10
-12346.847284395501
 20
-16117.365093605549
 11
-12347.79728439549
 21
-16117.365093605549
  0
LINE
  5
68
100
AcDbEntity
  8
1
  6
CONTINUOUS
 62
             7
100
AcDbLine
 10
-12317.747284395489
 20
-16117.36509360556
 11
-12316.79728439549
 21
-16117.36509360556
  0
LINE
  5
67
100
AcDbEntity
  8
1
  6
CONTINUOUS
 62
             7
100
AcDbLine
 10
-12347.79728439549
 20
-16117.365093605549
 11
-12348.79728439549
 21
-16116.36509360556
  0
LINE
  5
66
100
AcDbEntity
  8
1
  6
CONTINUOUS
 62
             7
100
AcDbLine
 10
-12316.79728439549
 20
-16117.36509360556
 11
-12315.79728439549
 21
-16116.36509360556
  0
LINE
  5
65
100
AcDbEntity
  8
1
  6
CONTINUOUS
 62
             7
100
AcDbLine
 10
-12316.79728439549
 20
-16104.36509360556
 11
-12315.79728439549
 21
-16105.36509360556
  0
LINE
  5
64
100
AcDbEntity
  8
1
  6
CONTINUOUS
 62
             7
100
AcDbLine
 10
-12347.79728439549
 20
-16104.36509360556
 11
-12348.79728439549
 21
-16105.36509360556
  0
LINE
  5
63
100
AcDbEntity
  8
1
  6
CONTINUOUS
 62
             2
100
AcDbLine
 10
-12317.29728439549
 20
-16104.711503767079
 11
-12317.29728439549
 21
-16117.065093605561
  0
LINE
  5
62
100
AcDbEntity
  8
1
  6
CONTINUOUS
 62
             2
100
AcDbLine
 10
-12347.29728439549
 20
-16104.711503767079
 11
-12347.297284395499
 21
-16117.06509360555
  0
LINE
  5
61
100
AcDbEntity
  8
1
  6
CONTINUOUS
 62
             7
100
AcDbLine
 10
-12316.79728439549
 20
-16104.36509360556
 11
-12347.79728439549
 21
-16104.36509360556
  0
LINE
  5
60
100
AcDbEntity
  8
1
  6
CONTINUOUS
 62
             7
100
AcDbLine
 10
-12315.79728439549
 20
-16116.36509360556
 11
-12315.79728439549
 21
-16105.36509360556
  0
LINE
  5
5F
100
AcDbEntity
  8
1
  6
CONTINUOUS
 62
             7
100
AcDbLine
 10
-12348.79728439549
 20
-16105.36509360556
 11
-12348.79728439549
 21
-16116.365093605549
  0
LINE
  5
5E
100
AcDbEntity
  8
1
  6
CONTINUOUS
 62
             7
100
AcDbLine
 10
-12348.79728439549
 20
-16105.36509360556
 11
-12315.79728439549
 21
-16105.36509360556
  0
LINE
  5
5D
100
AcDbEntity
  8
1
  6
CONTINUOUS
 62
             7
100
AcDbLine
 10
-12315.79728439549
 20
-16116.36509360556
 11
-12348.79728439549
 21
-16116.36509360556
  0
LINE
  5
5C
100
AcDbEntity
  8
1
  6
CONTINUOUS
 62
             7
100
AcDbLine
 10
-12348.79728439549
 20
-16116.36509360556
 11
-12348.79728439549
 21
-16116.365093605549
  0
POINT
  5
5B
100
AcDbEntity
  8
1
 62
             3
 60
             1
100
AcDbPoint
 10
-12346.84728439549
 20
-16122.36509360556
  0
POINT
  5
5A
100
AcDbEntity
  8
1
 62
             3
 60
             1
100
AcDbPoint
 10
-12317.74728439548
 20
-16122.36509360556
  0
POINT
  5
59
100
AcDbEntity
  8
1
 62
             3
 60
             1
100
AcDbPoint
 10
-12355.79258385711
 20
-16166.665093605559
  0
POINT
  5
58
100
AcDbEntity
  8
1
 62
             3
 60
             1
100
AcDbPoint
 10
-12307.80198493386
 20
-16120.61509360556
  0
POINT
  5
57
100
AcDbEntity
  8
1
 62
             3
 60
             1
100
AcDbPoint
 10
-12307.80198493386
 20
-16168.415093605559
  0
POINT
  5
56
100
AcDbEntity
  8
1
 62
             3
 60
             1
100
AcDbPoint
 10
-12346.84728439549
 20
-16117.36509360556
  0
POINT
  5
55
100
AcDbEntity
  8
1
 62
             3
 60
             1
100
AcDbPoint
 10
-12287.2646774723
 20
-16168.415093605559
  0
POINT
  5
54
100
AcDbEntity
  8
1
 62
             3
 60
             1
100
AcDbPoint
 10
-12285.2646774723
 20
-16168.415093605559
  0
POINT
  5
53
100
AcDbEntity
  8
1
 62
             3
 60
             1
100
AcDbPoint
 10
-12287.2646774723
 20
-16164.51509360556
  0
POINT
  5
52
100
AcDbEntity
  8
1
 62
             3
 60
             1
100
AcDbPoint
 10
-12285.2646774723
 20
-16164.51509360556
  0
POINT
  5
51
100
AcDbEntity
  8
1
 62
             3
 60
             1
100
AcDbPoint
 10
-12287.2646774723
 20
-16124.51509360556
  0
POINT
  5
50
100
AcDbEntity
  8
1
 62
             3
 60
             1
100
AcDbPoint
 10
-12285.2646774723
 20
-16124.51509360556
  0
POINT
  5
4F
100
AcDbEntity
  8
1
 62
             3
 60
             1
100
AcDbPoint
 10
-12285.2646774723
 20
-16120.61509360556
  0
ENDBLK
  5
91
100
AcDbEntity
  8
0
100
AcDbBlockEnd
  0
BLOCK
  5
2A
100
AcDbEntity
  8
0
100
AcDbBlockBegin
  2
HL902_T-ST_CK_DN30
 70
             0
 10
-25272.998713951882
 20
-31711.913376708639
 30
0.0
  3
HL902_T-ST_CK_DN30
  1

  0
LINE
  5
93
100
AcDbEntity
  8
1
  6
DOT_CENTER
 62
             2
100
AcDbLine
 10
-25169.842050978928
 20
-31620.169698384369
 11
-25171.842050978928
 21
-31620.169698384369
  0
LINE
  5
92
100
AcDbEntity
  8
1
  6
DOT_CENTER
 62
             2
100
AcDbLine
 10
-25261.842050978928
 20
-31620.169698384369
 11
-25263.842050978928
 21
-31620.169698384369
  0
ENDBLK
  5
94
100
AcDbEntity
  8
0
100
AcDbBlockEnd
  0
BLOCK
  5
2C
100
AcDbEntity
  8
0
100
AcDbBlockBegin
  2
HL_902_ROHRBELUEFTER
 70
             0
 10
0.0
 20
3.99999999999636
 30
0.0
  3
HL_902_ROHRBELUEFTER
  1

  0
INSERT
  5
2D
100
AcDbEntity
  8
1
100
AcDbBlockReference
  2
HL902_T-ST_CK_DN30
 10
-56.1566629729532
 20
-71.74367832427743
  0
ENDBLK
  5
95
100
AcDbEntity
  8
0
100
AcDbBlockEnd
  0
BLOCK
  5
2F
100
AcDbEntity
  8
0
100
AcDbBlockBegin
  2
HOLL_NDERMUTTER_6_4__3
 70
             0
 10
452.18924394460919
 20
-79.21239493121902
 30
0.0
  3
HOLL_NDERMUTTER_6_4__3
  1

  0
SPLINE
  5
D6
100
AcDbEntity
  8
0
  6
CONTINUOUS
 62
             7
100
AcDbSpline
210
0.0
220
0.0
230
1.0
 70
             0
 71
             3
 72
            11
 73
             7
 74
             5
 42
0.00000000001
 43
0.00000000001
 44
0.00000000001
 40
10.19555243465282
 40
10.19555243465282
 40
10.19555243465282
 40
10.19555243465282
 40
10.819635921994889
 40
10.819635921994889
 40
10.819635921994889
 40
11.431124435565939
 40
11.431124435565939
 40
11.431124435565939
 40
11.431124435565939
 10
42.000000000036373
 20
-28.49999999998181
 30
0.0
 10
42.136531171287047
 20
-28.337288486141919
 30
0.0
 10
42.267327604971783
 20
-28.17555515099593
 30
0.0
 10
42.392374328675928
 20
-28.014728067166288
 30
0.0
 10
42.520618161612212
 20
-27.84978906629112
 30
0.0
 10
42.6423588178004
 20
-27.686389345359199
 30
0.0
 10
42.757717363321703
 20
-27.524420523448502
 30
0.0
 11
42.000000000036373
 21
-28.49999999998181
 31
0.0
 11
42.200493832186098
 21
-28.256657372320205
 31
0.0
 11
42.392374328675928
 21
-28.014728067166288
 31
0.0
 11
42.579877828779431
 21
-27.768460478195713
 31
0.0
 11
42.757717363321703
 21
-27.524420523448502
 31
0.0
  0
SPLINE
  5
D5
100
AcDbEntity
  8
0
  6
CONTINUOUS
 62
             7
100
AcDbSpline
210
0.0
220
0.0
230
1.0
 70
             0
 71
             3
 72
            11
 73
             7
 74
             5
 42
0.00000000001
 43
0.00000000001
 44
0.00000000001
 40
9.6520212354362247
 40
9.6520212354362247
 40
9.6520212354362247
 40
9.6520212354362247
 40
10.76957509520426
 40
10.76957509520426
 40
10.76957509520426
 40
11.88858825881975
 40
11.88858825881975
 40
11.88858825881975
 40
11.88858825881975
 10
42.757717363372642
 20
-18.048490837998539
 30
0.0
 10
42.642742758423978
 20
-18.396649719950801
 30
0.0
 10
42.521171670225137
 20
-18.748651742880611
 30
0.0
 10
42.392802005018879
 20
-19.10476089536678
 30
0.0
 10
42.267686416598721
 20
-19.45184294222781
 30
0.0
 10
42.136753450915407
 20
-19.801048657194769
 30
0.0
 10
41.999999999999993
 20
-20.15254326381546
 30
0.0
 11
42.757717363372642
 21
-18.048490837998539
 31
0.0
 11
42.58028283179236
 21
-18.573644515232441
 31
0.0
 11
42.392802005018879
 21
-19.10476089536678
 31
0.0
 11
42.200765200945149
 21
-19.626997369681245
 31
0.0
 11
41.999999999999993
 21
-20.15254326381546
 31
0.0
  0
SPLINE
  5
D4
100
AcDbEntity
  8
0
  6
CONTINUOUS
 62
             7
100
AcDbSpline
210
0.0
220
0.0
230
1.0
 70
             0
 71
             3
 72
            11
 73
             7
 74
             5
 42
0.00000000001
 43
0.00000000001
 44
0.00000000001
 40
12.6022249851908
 40
12.6022249851908
 40
12.6022249851908
 40
12.6022249851908
 40
13.319387266273759
 40
13.319387266273759
 40
13.319387266273759
 40
14.0365495399508
 40
14.0365495399508
 40
14.0365495399508
 40
14.0365495399508
 10
43.678199262354603
 20
-26.424420523446319
 30
0.0
 10
43.526551676794028
 20
-26.605663994829229
 30
0.0
 10
43.373154884735399
 20
-26.788987430474659
 30
0.0
 10
43.217973404654899
 20
-26.974433157127351
 30
0.0
 10
43.065845017819797
 20
-27.15623036144461
 30
0.0
 10
42.91242870960194
 20
-27.339556615643229
 30
0.0
 10
42.757717363321703
 20
-27.524420523448502
 30
0.0
 11
43.678199262354603
 21
-26.424420523446319
 31
0.0
 11
43.449411543949722
 21
-26.697850994560667
 31
0.0
 11
43.217973404654899
 21
-26.974433157127351
 31
0.0
 11
42.988813993780226
 21
-27.24827682647992
 31
0.0
 11
42.757717363321703
 21
-27.524420523448502
 31
0.0
  0
SPLINE
  5
D3
100
AcDbEntity
  8
0
  6
CONTINUOUS
 62
             7
100
AcDbSpline
210
0.0
220
0.0
230
1.0
 70
             0
 71
             3
 72
            11
 73
             7
 74
             5
 42
0.00000000001
 43
0.00000000001
 44
0.00000000001
 40
12.602224985190871
 40
12.602224985190871
 40
12.602224985190871
 40
12.602224985190871
 40
13.31938726627383
 40
13.31938726627383
 40
13.31938726627383
 40
14.03654953995088
 40
14.03654953995088
 40
14.03654953995088
 40
14.03654953995088
 10
43.678199262354603
 20
26.424420523446319
 30
0.0
 10
43.525917665050642
 20
26.606421741737002
 30
0.0
 10
43.372507111511347
 20
26.789761535583249
 30
0.0
 10
43.217973404654899
 20
26.974433157127361
 30
0.0
 10
43.065902813126733
 20
27.156161294617061
 30
0.0
 10
42.91248777075451
 20
27.339486043732911
 30
0.0
 10
42.757717363321703
 20
27.524420523448509
 30
0.0
 11
43.678199262354603
 21
26.424420523446319
 31
0.0
 11
43.448930874586935
 21
26.698425439066803
 31
0.0
 11
43.217973404654899
 21
26.974433157127361
 31
0.0
 11
42.988857814952532
 21
27.248224461953228
 31
0.0
 11
42.757717363321703
 21
27.524420523448509
 31
0.0
  0
SPLINE
  5
D2
100
AcDbEntity
  8
0
  6
CONTINUOUS
 62
             7
100
AcDbSpline
210
0.0
220
0.0
230
1.0
 70
             0
 71
             3
 72
            11
 73
             7
 74
             5
 42
0.00000000001
 43
0.00000000001
 44
0.00000000001
 40
110.6006816517057
 40
110.6006816517057
 40
110.6006816517057
 40
110.6006816517057
 40
111.20324172357979
 40
111.20324172357979
 40
111.20324172357979
 40
111.8057903305485
 40
111.8057903305485
 40
111.8057903305485
 40
111.8057903305485
 10
42.757717363321703
 20
-20.8769179627343
 30
0.0
 10
42.912239855279033
 20
-20.746359006494458
 30
0.0
 10
43.065660352287509
 20
-20.61672424666904
 30
0.0
 10
43.21797338247778
 20
-20.488018185180412
 30
0.0
 10
43.373583582077103
 20
-20.356525981966119
 30
0.0
 10
43.52697273464581
 20
-20.226903152004532
 30
0.0
 10
43.678199262354603
 20
-20.099100503426602
 30
0.0
 11
42.757717363321703
 21
-20.8769179627343
 31
0.0
 11
42.988673921062386
 21
-20.681773238425656
 31
0.0
 11
43.21797338247778
 21
-20.488018185180412
 31
0.0
 11
43.449730199375139
 21
-20.292175761314873
 31
0.0
 11
43.678199262354603
 21
-20.099100503426602
 31
0.0
  0
SPLINE
  5
D1
100
AcDbEntity
  8
0
  6
CONTINUOUS
 62
             7
100
AcDbSpline
210
0.0
220
0.0
230
1.0
 70
             0
 71
             3
 72
            11
 73
             7
 74
             5
 42
0.00000000001
 43
0.00000000001
 44
0.00000000001
 40
12.60222498519019
 40
12.60222498519019
 40
12.60222498519019
 40
12.60222498519019
 40
13.20477356312731
 40
13.20477356312731
 40
13.20477356312731
 40
13.807333664033029
 40
13.807333664033029
 40
13.807333664033029
 40
13.807333664033029
 10
43.678199262354603
 20
17.270673378683579
 30
0.0
 10
43.526666750742137
 20
17.398734616501319
 30
0.0
 10
43.373272165914372
 20
17.528362007047701
 30
0.0
 10
43.217973404654899
 20
17.659591041694519
 30
0.0
 10
43.065623438753377
 20
17.788328314236431
 30
0.0
 10
42.912202068633619
 20
17.91796380839515
 30
0.0
 10
42.757717363321703
 20
18.048490837987639
 30
0.0
 11
43.678199262354603
 21
17.270673378683579
 31
0.0
 11
43.449498677122385
 21
17.463944286378148
 31
0.0
 11
43.217973404654899
 21
17.659591041694519
 31
0.0
 11
42.988645911267199
 21
17.853369780947112
 31
0.0
 11
42.757717363321703
 21
18.048490837987639
 31
0.0
  0
SPLINE
  5
D0
100
AcDbEntity
  8
0
  6
CONTINUOUS
 62
             7
100
AcDbSpline
210
0.0
220
0.0
230
1.0
 70
             0
 71
             3
 72
            11
 73
             7
 74
             5
 42
0.00000000001
 43
0.00000000001
 44
0.00000000001
 40
110.6006816516911
 40
110.6006816516911
 40
110.6006816516911
 40
110.6006816516911
 40
111.2032417235651
 40
111.2032417235651
 40
111.2032417235651
 40
111.8057903305339
 40
111.8057903305339
 40
111.8057903305339
 40
111.8057903305339
 10
42.757717363372642
 20
-18.048490837998539
 30
0.0
 10
42.912309198782147
 20
-17.917873292117289
 30
0.0
 10
43.065728128298353
 20
-17.788239850502581
 30
0.0
 10
43.21797338247778
 20
-17.65959106043374
 30
0.0
 10
43.373153907483342
 20
-17.52846193662845
 30
0.0
 10
43.526550725662659
 20
-17.398832670147389
 30
0.0
 10
43.678199262354603
 20
-17.27067337867993
 30
0.0
 11
42.757717363372642
 21
-18.048490837998539
 31
0.0
 11
42.988725340886489
 21
-17.853302665786487
 31
0.0
 11
43.21797338247778
 21
-17.65959106043374
 31
0.0
 11
43.449410818033797
 21
-17.464018532430142
 31
0.0
 11
43.678199262354603
 21
-17.27067337867993
 31
0.0
  0
SPLINE
  5
CF
100
AcDbEntity
  8
0
  6
CONTINUOUS
 62
             7
100
AcDbSpline
210
0.0
220
0.0
230
1.0
 70
             0
 71
             3
 72
            11
 73
             7
 74
             5
 42
0.00000000001
 43
0.00000000001
 44
0.00000000001
 40
12.60222498519215
 40
12.60222498519215
 40
12.60222498519215
 40
12.60222498519215
 40
13.20477356312929
 40
13.20477356312929
 40
13.20477356312929
 40
13.80733366403499
 40
13.80733366403499
 40
13.80733366403499
 40
13.80733366403499
 10
43.678199262354603
 20
20.099100503426609
 30
0.0
 10
43.52620533657317
 20
20.22755168574805
 30
0.0
 10
43.372801362700542
 20
20.3571869653024
 30
0.0
 10
43.217973404654899
 20
20.48801816644119
 30
0.0
 10
43.066692572938322
 20
20.615852009708771
 30
0.0
 10
42.913292582401468
 20
20.745469537574539
 30
0.0
 10
42.757717363321703
 20
20.8769179627343
 30
0.0
 11
43.678199262354603
 21
20.099100503426609
 31
0.0
 11
43.449149095603829
 21
20.292666827877394
 31
0.0
 11
43.217973404654899
 21
20.48801816644119
 31
0.0
 11
42.989455779249496
 21
20.681112596378178
 31
0.0
 11
42.757717363321703
 21
20.8769179627343
 31
0.0
  0
SPLINE
  5
CE
100
AcDbEntity
  8
0
  6
CONTINUOUS
 62
             7
100
AcDbSpline
210
0.0
220
0.0
230
1.0
 70
             0
 71
             3
 72
            11
 73
             7
 74
             5
 42
0.00000000001
 43
0.00000000001
 44
0.00000000001
 40
10.195552434652781
 40
10.195552434652781
 40
10.195552434652781
 40
10.195552434652781
 40
11.264995853159769
 40
11.264995853159769
 40
11.264995853159769
 40
12.33452008509969
 40
12.33452008509969
 40
12.33452008509969
 40
12.33452008509969
 10
41.999999999999993
 20
0.0000000000000071
 30
0.0
 10
42.137791644508972
 20
0.3366485074002483
 30
0.0
 10
42.268478900456088
 20
0.6681681591726445
 30
0.0
 10
42.392374328675928
 20
0.9948383386399726
 30
0.0
 10
42.520190933351827
 20
1.331847329125601
 30
0.0
 10
42.641973704743563
 20
1.666845105588443
 30
0.0
 10
42.757717363321703
 20
2.0000000000000071
 30
0.0
 11
41.999999999999993
 21
0.0000000000000071
 31
0.0
 11
42.201398245446391
 21
0.5011610422948323
 31
0.0
 11
42.392374328675928
 21
0.9948383386399726
 31
0.0
 11
42.579573200785475
 21
1.4988644553477632
 31
0.0
 11
42.757717363321703
 21
2.0000000000000071
 31
0.0
  0
SPLINE
  5
CD
100
AcDbEntity
  8
0
  6
CONTINUOUS
 62
             7
100
AcDbSpline
210
0.0
220
0.0
230
1.0
 70
             0
 71
             3
 72
            11
 73
             7
 74
             5
 42
0.00000000001
 43
0.00000000001
 44
0.00000000001
 40
10.195552434652781
 40
10.195552434652781
 40
10.195552434652781
 40
10.195552434652781
 40
10.72829261095816
 40
10.72829261095816
 40
10.72829261095816
 40
11.244087937724711
 40
11.244087937724711
 40
11.244087937724711
 40
11.244087937724711
 10
41.999999999999993
 20
20.15254326381547
 30
0.0
 10
42.137943633464587
 20
20.274607587209179
 30
0.0
 10
42.268618442292777
 20
20.3946785759581
 30
0.0
 10
42.392374328675928
 20
20.512861124829222
 30
0.0
 10
42.52063125921994
 20
20.635342013658381
 30
0.0
 10
42.64237064442203
 20
20.756667290093912
 30
0.0
 10
42.757717363321703
 20
20.8769179627343
 30
0.0
 11
41.999999999999993
 21
20.15254326381547
 31
0.0
 11
42.201507569493501
 21
20.334157859768315
 31
0.0
 11
42.392374328675928
 21
20.512861124829222
 31
0.0
 11
42.579887175365442
 21
20.695725874852549
 31
0.0
 11
42.757717363321703
 21
20.8769179627343
 31
0.0
  0
SPLINE
  5
CC
100
AcDbEntity
  8
0
  6
CONTINUOUS
 62
             7
100
AcDbSpline
210
0.0
220
0.0
230
1.0
 70
             0
 71
             3
 72
            11
 73
             7
 74
             5
 42
0.00000000001
 43
0.00000000001
 44
0.00000000001
 40
10.19555243465293
 40
10.19555243465293
 40
10.19555243465293
 40
10.19555243465293
 40
11.313304530967139
 40
11.313304530967139
 40
11.313304530967139
 40
12.43211945463684
 40
12.43211945463684
 40
12.43211945463684
 40
12.43211945463684
 10
41.999999999999993
 20
20.15254326381547
 30
0.0
 10
42.137726078839457
 20
19.798548731578201
 30
0.0
 10
42.268418751402344
 20
19.449779689337451
 30
0.0
 10
42.392374328675928
 20
19.10594725395277
 30
0.0
 10
42.520588736297199
 20
18.750301521875379
 30
0.0
 10
42.642332252180481
 20
18.397892789027541
 30
0.0
 10
42.757717363321703
 20
18.048490837987639
 30
0.0
 11
41.999999999999993
 21
20.15254326381547
 31
0.0
 11
42.201351102425164
 21
19.6254344725644
 31
0.0
 11
42.392374328675928
 21
19.10594725395277
 31
0.0
 11
42.579856832178834
 21
18.574877628081143
 31
0.0
 11
42.757717363321703
 21
18.048490837987639
 31
0.0
  0
SPLINE
  5
CB
100
AcDbEntity
  8
0
  6
CONTINUOUS
 62
             7
100
AcDbSpline
210
0.0
220
0.0
230
1.0
 70
             0
 71
             3
 72
            11
 73
             7
 74
             5
 42
0.00000000001
 43
0.00000000001
 44
0.00000000001
 40
10.19555243465283
 40
10.19555243465283
 40
10.19555243465283
 40
10.19555243465283
 40
11.26499585315983
 40
11.26499585315983
 40
11.26499585315983
 40
12.33452008509976
 40
12.33452008509976
 40
12.33452008509976
 40
12.33452008509976
 10
41.999999999999993
 20
0.0000000000000071
 30
0.0
 10
42.136402995580269
 20
-0.333255801037005
 30
0.0
 10
42.267211124781163
 20
-0.6648254651481622
 30
0.0
 10
42.392374328675928
 20
-0.9948383386399584
 30
0.0
 10
42.520589772662767
 20
-1.3328989329711409
 30
0.0
 10
42.642333187726749
 20
-1.6678798362699969
 30
0.0
 10
42.757717363321703
 20
-1.9999999999999929
 30
0.0
 11
41.999999999999993
 21
0.0000000000000071
 31
0.0
 11
42.200402086220024
 21
-0.4986352671494316
 31
0.0
 11
42.392374328675928
 21
-0.9948383386399584
 31
0.0
 11
42.579857571645775
 21
-1.4996468307954207
 31
0.0
 11
42.757717363321703
 21
-1.9999999999999929
 31
0.0
  0
SPLINE
  5
CA
100
AcDbEntity
  8
0
  6
CONTINUOUS
 62
             7
100
AcDbSpline
210
0.0
220
0.0
230
1.0
 70
             0
 71
             3
 72
            11
 73
             7
 74
             5
 42
0.00000000001
 43
0.00000000001
 44
0.00000000001
 40
9.6520212354362265
 40
9.6520212354362265
 40
9.6520212354362265
 40
9.6520212354362265
 40
10.16722522019518
 40
10.16722522019518
 40
10.16722522019518
 40
10.7005567454881
 40
10.7005567454881
 40
10.7005567454881
 40
10.7005567454881
 10
42.757717363321703
 20
-20.8769179627343
 30
0.0
 10
42.642824680347971
 20
-20.757140629208148
 30
0.0
 10
42.52126215710085
 20
-20.635955804777041
 30
0.0
 10
42.392802005018879
 20
-20.513269559585751
 30
0.0
 10
42.268092650778257
 20
-20.39416552487819
 30
0.0
 10
42.137199371198207
 20
-20.273949000376891
 30
0.0
 10
41.999999999999993
 20
-20.15254326381546
 30
0.0
 11
42.757717363321703
 21
-20.8769179627343
 31
0.0
 11
42.580347485085888
 21
-20.696184603034457
 31
0.0
 11
42.392802005018879
 21
-20.513269559585751
 31
0.0
 11
42.201084758868532
 21
-20.333769549895809
 31
0.0
 11
41.999999999999993
 21
-20.15254326381546
 31
0.0
  0
SPLINE
  5
C9
100
AcDbEntity
  8
0
  6
CONTINUOUS
 62
             7
100
AcDbSpline
210
0.0
220
0.0
230
1.0
 70
             0
 71
             3
 72
            11
 73
             7
 74
             5
 42
0.00000000001
 43
0.00000000001
 44
0.00000000001
 40
10.19448601636854
 40
10.19448601636854
 40
10.19448601636854
 40
10.19448601636854
 40
10.818569247931419
 40
10.818569247931419
 40
10.818569247931419
 40
11.430058017314931
 40
11.430058017314931
 40
11.430058017314931
 40
11.430058017314931
 10
41.999999999999993
 20
28.500000000000011
 30
0.0
 10
42.137040186120423
 20
28.336681865861468
 30
0.0
 10
42.267791194797603
 20
28.174958906056428
 30
0.0
 10
42.392374171642572
 20
28.014728269128689
 30
0.0
 10
42.520617953450703
 20
27.849789339583371
 30
0.0
 10
42.642358672495888
 20
27.68638954937342
 30
0.0
 10
42.757717363321703
 20
27.524420523448509
 30
0.0
 11
41.999999999999993
 21
28.500000000000011
 31
0.0
 11
42.200858539299581
 21
28.256206323110298
 31
0.0
 11
42.392374171642572
 21
28.014728269128689
 31
0.0
 11
42.579877676600503
 21
27.768460682430948
 31
0.0
 11
42.757717363321703
 21
27.524420523448509
 31
0.0
  0
LINE
  5
C8
100
AcDbEntity
  8
1
  6
PHANTOM
 62
             2
100
AcDbLine
 10
24.46269253844179
 20
-0.00000000000001
 11
46.88509323591445
 21
0.00000000000006
  0
LINE
  5
C7
100
AcDbEntity
  8
0
  6
CONTINUOUS
 62
             7
100
AcDbLine
 10
29.49999999999999
 20
-20.0991005034266
 11
29.49999999999999
 21
-18.04849083798763
  0
LINE
  5
C6
100
AcDbEntity
  8
0
  6
CONTINUOUS
 62
             7
100
AcDbLine
 10
29.49999999999999
 20
-26.42442052344632
 11
29.49999999999999
 21
-20.8769179627343
  0
LINE
  5
C5
100
AcDbEntity
  8
0
  6
CONTINUOUS
 62
             7
100
AcDbLine
 10
29.49999999999999
 20
17.27067337868358
 11
29.49999999999999
 21
2.00000000000001
  0
LINE
  5
C4
100
AcDbEntity
  8
0
  6
CONTINUOUS
 62
             7
100
AcDbLine
 10
29.49999999999999
 20
-27.5244205234485
 11
29.49999999999999
 21
-26.42442052344632
  0
LINE
  5
C3
100
AcDbEntity
  8
0
  6
CONTINUOUS
 62
             7
100
AcDbLine
 10
42.7577173633217
 20
-27.5244205234485
 11
29.49999999999999
 21
-27.5244205234485
  0
LINE
  5
C2
100
AcDbEntity
  8
0
  6
CONTINUOUS
 62
             7
100
AcDbLine
 10
43.6781992623546
 20
-26.42442052344632
 11
43.6781992623546
 21
-20.0991005034266
  0
LINE
  5
C1
100
AcDbEntity
  8
0
  6
CONTINUOUS
 62
             7
100
AcDbLine
 10
43.6781992623546
 20
2.00000000000001
 11
42.7577173633217
 21
2.00000000000001
  0
LINE
  5
C0
100
AcDbEntity
  8
0
  6
CONTINUOUS
 62
             7
100
AcDbLine
 10
43.6781992623546
 20
-26.42442052344632
 11
29.49999999999999
 21
-26.42442052344632
  0
LINE
  5
BF
100
AcDbEntity
  8
0
  6
CONTINUOUS
 62
             7
100
AcDbLine
 10
29.49999999999999
 20
-28.5
 11
26.99999999999999
 21
-28.5
  0
LINE
  5
BE
100
AcDbEntity
  8
0
  6
CONTINUOUS
 62
             7
100
AcDbLine
 10
29.49999999999999
 20
28.50000000000001
 11
26.99999999999999
 21
28.5
  0
LINE
  5
BD
100
AcDbEntity
  8
0
  6
CONTINUOUS
 62
             7
100
AcDbLine
 10
26.99999999999999
 20
-28.5
 11
26.99999999999999
 21
28.5
  0
LINE
  5
BC
100
AcDbEntity
  8
0
  6
CONTINUOUS
 62
             7
100
AcDbLine
 10
42.7577173633217
 20
27.52442052344851
 11
29.49999999999999
 21
27.52442052344851
  0
LINE
  5
BB
100
AcDbEntity
  8
0
  6
CONTINUOUS
 62
             7
100
AcDbLine
 10
29.49999999999999
 20
26.42442052344632
 11
29.49999999999999
 21
20.8769179627343
  0
LINE
  5
BA
100
AcDbEntity
  8
0
  6
CONTINUOUS
 62
             7
100
AcDbLine
 10
43.6781992623546
 20
26.42442052344632
 11
29.49999999999999
 21
26.42442052344632
  0
LINE
  5
B9
100
AcDbEntity
  8
0
  6
CONTINUOUS
 62
             7
100
AcDbLine
 10
43.6781992623546
 20
26.42442052344632
 11
43.6781992623546
 21
20.09910050342661
  0
LINE
  5
B8
100
AcDbEntity
  8
0
  6
CONTINUOUS
 62
             7
100
AcDbLine
 10
29.49999999999999
 20
-20.15254326381546
 11
29.49999999999999
 21
-20.0991005034266
  0
LINE
  5
B7
100
AcDbEntity
  8
0
  6
CONTINUOUS
 62
             7
100
AcDbLine
 10
29.49999999999999
 20
-1.99999999999999
 11
29.49999999999999
 21
0.00000000000001
  0
LINE
  5
B6
100
AcDbEntity
  8
0
  6
CONTINUOUS
 62
             7
100
AcDbLine
 10
29.49999999999999
 20
18.04849083798764
 11
29.49999999999999
 21
20.09910050342661
  0
LINE
  5
B5
100
AcDbEntity
  8
0
  6
CONTINUOUS
 62
             7
100
AcDbLine
 10
29.49999999999999
 20
18.04849083798764
 11
29.49999999999999
 21
17.27067337868358
  0
LINE
  5
B4
100
AcDbEntity
  8
0
  6
CONTINUOUS
 62
             7
100
AcDbLine
 10
29.49999999999999
 20
2.00000000000001
 11
29.49999999999999
 21
0.00000000000001
  0
LINE
  5
B3
100
AcDbEntity
  8
0
  6
CONTINUOUS
 62
             7
100
AcDbLine
 10
29.49999999999999
 20
20.15254326381547
 11
29.49999999999999
 21
20.09910050342661
  0
LINE
  5
B2
100
AcDbEntity
  8
0
  6
CONTINUOUS
 62
             7
100
AcDbLine
 10
29.49999999999999
 20
20.8769179627343
 11
29.49999999999999
 21
20.15254326381547
  0
LINE
  5
B1
100
AcDbEntity
  8
0
  6
CONTINUOUS
 62
             7
100
AcDbLine
 10
29.49999999999999
 20
-1.99999999999999
 11
29.49999999999999
 21
-17.27067337867993
  0
LINE
  5
B0
100
AcDbEntity
  8
0
  6
CONTINUOUS
 62
             7
100
AcDbLine
 10
29.49999999999999
 20
-17.27067337867993
 11
29.49999999999999
 21
-18.04849083798763
  0
LINE
  5
AF
100
AcDbEntity
  8
0
  6
CONTINUOUS
 62
             7
100
AcDbLine
 10
29.49999999999999
 20
-20.15254326381546
 11
29.49999999999999
 21
-20.8769179627343
  0
LINE
  5
AE
100
AcDbEntity
  8
0
  6
CONTINUOUS
 62
             7
100
AcDbLine
 10
39.99999999999999
 20
-20.8769179627343
 11
29.49999999999999
 21
-20.8769179627343
  0
LINE
  5
AD
100
AcDbEntity
  8
0
  6
CONTINUOUS
 62
             7
100
AcDbLine
 10
40.99999999999999
 20
20.8769179627343
 11
29.49999999999999
 21
20.8769179627343
  0
LINE
  5
AC
100
AcDbEntity
  8
0
  6
CONTINUOUS
 62
             7
100
AcDbLine
 10
41.99999999999999
 20
0.00000000000001
 11
29.49999999999999
 21
0.00000000000001
  0
LINE
  5
AB
100
AcDbEntity
  8
0
  6
CONTINUOUS
 62
             7
100
AcDbLine
 10
41.99999999999999
 20
20.15254326381547
 11
29.49999999999999
 21
20.15254326381547
  0
LINE
  5
AA
100
AcDbEntity
  8
0
  6
CONTINUOUS
 62
             7
100
AcDbLine
 10
41.99999999999999
 20
-20.15254326381546
 11
29.49999999999999
 21
-20.15254326381546
  0
LINE
  5
A9
100
AcDbEntity
  8
0
  6
CONTINUOUS
 62
             7
100
AcDbLine
 10
42.7577173633217
 20
2.00000000000001
 11
29.49999999999999
 21
2.00000000000001
  0
LINE
  5
A8
100
AcDbEntity
  8
0
  6
CONTINUOUS
 62
             7
100
AcDbLine
 10
42.75771736337264
 20
-18.04849083799854
 11
29.49999999999999
 21
-18.04849083798763
  0
LINE
  5
A7
100
AcDbEntity
  8
0
  6
CONTINUOUS
 62
             7
100
AcDbLine
 10
42.7577173633217
 20
18.04849083798764
 11
29.49999999999999
 21
18.04849083798764
  0
LINE
  5
A6
100
AcDbEntity
  8
0
  6
CONTINUOUS
 62
             7
100
AcDbLine
 10
42.7577173633217
 20
20.8769179627343
 11
40.99999999999999
 21
20.8769179627343
  0
LINE
  5
A5
100
AcDbEntity
  8
0
  6
CONTINUOUS
 62
             7
100
AcDbLine
 10
42.7577173633217
 20
-1.99999999999999
 11
29.49999999999999
 21
-1.99999999999999
  0
LINE
  5
A4
100
AcDbEntity
  8
0
  6
CONTINUOUS
 62
             7
100
AcDbLine
 10
43.6781992623546
 20
-17.27067337867993
 11
29.49999999999999
 21
-17.27067337867993
  0
LINE
  5
A3
100
AcDbEntity
  8
0
  6
CONTINUOUS
 62
             7
100
AcDbLine
 10
43.6781992623546
 20
-1.99999999999999
 11
42.7577173633217
 21
-1.99999999999999
  0
LINE
  5
A2
100
AcDbEntity
  8
0
  6
CONTINUOUS
 62
             7
100
AcDbLine
 10
43.6781992623546
 20
17.27067337868358
 11
29.49999999999999
 21
17.27067337868358
  0
LINE
  5
A1
100
AcDbEntity
  8
0
  6
CONTINUOUS
 62
             7
100
AcDbLine
 10
43.6781992623546
 20
17.27067337868358
 11
43.6781992623546
 21
2.00000000000001
  0
LINE
  5
A0
100
AcDbEntity
  8
0
  6
CONTINUOUS
 62
             7
100
AcDbLine
 10
43.6781992623546
 20
-1.99999999999999
 11
43.6781992623546
 21
-17.27067337867993
  0
LINE
  5
9F
100
AcDbEntity
  8
0
  6
CONTINUOUS
 62
             7
100
AcDbLine
 10
42.7577173633217
 20
-20.8769179627343
 11
40.99999999999999
 21
-20.8769179627343
  0
LINE
  5
9E
100
AcDbEntity
  8
0
  6
CONTINUOUS
 62
             7
100
AcDbLine
 10
40.99999999999999
 20
-20.8769179627343
 11
39.99999999999999
 21
-20.8769179627343
  0
LINE
  5
9D
100
AcDbEntity
  8
0
  6
CONTINUOUS
 62
             7
100
AcDbLine
 10
29.49999999999999
 20
27.52442052344851
 11
29.49999999999999
 21
26.42442052344632
  0
LINE
  5
9C
100
AcDbEntity
  8
0
  6
CONTINUOUS
 62
             7
100
AcDbLine
 10
42.00000000003637
 20
-28.49999999998181
 11
43.99999999999999
 21
-26.11649281481004
  0
LINE
  5
9B
100
AcDbEntity
  8
0
  6
CONTINUOUS
 62
             7
100
AcDbLine
 10
29.49999999999999
 20
-27.5244205234485
 11
29.49999999999999
 21
-28.5
  0
LINE
  5
9A
100
AcDbEntity
  8
0
  6
CONTINUOUS
 62
             7
100
AcDbLine
 10
29.49999999999999
 20
27.52442052344851
 11
29.49999999999999
 21
28.50000000000001
  0
LINE
  5
99
100
AcDbEntity
  8
0
  6
CONTINUOUS
 62
             7
100
AcDbLine
 10
41.99999999999999
 20
28.50000000000001
 11
29.49999999999999
 21
28.50000000000001
  0
LINE
  5
98
100
AcDbEntity
  8
0
  6
CONTINUOUS
 62
             7
100
AcDbLine
 10
42.00000000003637
 20
-28.49999999998181
 11
29.49999999999999
 21
-28.5
  0
LINE
  5
97
100
AcDbEntity
  8
0
  6
CONTINUOUS
 62
             7
100
AcDbLine
 10
41.99999999999999
 20
28.50000000000001
 11
43.99999999999999
 21
26.11649281481005
  0
LINE
  5
96
100
AcDbEntity
  8
0
  6
CONTINUOUS
 62
             7
100
AcDbLine
 10
43.99999999999999
 20
26.11649281481005
 11
43.99999999999999
 21
-26.11649281481004
  0
ENDBLK
  5
D7
100
AcDbEntity
  8
0
100
AcDbBlockEnd
  0
BLOCK
  5
31
100
AcDbEntity
  8
0
100
AcDbBlockBegin
  2
HOLL_NDERMUTTER_6_4__4
 70
             0
 10
-452.18924394460919
 20
-79.21239493121902
 30
0.0
  3
HOLL_NDERMUTTER_6_4__4
  1

  0
SPLINE
  5
118
100
AcDbEntity
  8
0
  6
CONTINUOUS
 62
             7
100
AcDbSpline
210
0.0
220
0.0
230
1.0
 70
             0
 71
             3
 72
            11
 73
             7
 74
             5
 42
0.00000000001
 43
0.00000000001
 44
0.00000000001
 40
10.19448601636854
 40
10.19448601636854
 40
10.19448601636854
 40
10.19448601636854
 40
10.818569247931419
 40
10.818569247931419
 40
10.818569247931419
 40
11.430058017314931
 40
11.430058017314931
 40
11.430058017314931
 40
11.430058017314931
 10
-42.000000000000007
 20
28.500000000000011
 30
0.0
 10
-42.137040186120437
 20
28.336681865861468
 30
0.0
 10
-42.267791194797617
 20
28.174958906056428
 30
0.0
 10
-42.392374171642601
 20
28.014728269128689
 30
0.0
 10
-42.520617953450717
 20
27.849789339583371
 30
0.0
 10
-42.642358672495916
 20
27.68638954937342
 30
0.0
 10
-42.757717363321731
 20
27.524420523448509
 30
0.0
 11
-42.000000000000007
 21
28.500000000000011
 31
0.0
 11
-42.200858539299595
 21
28.256206323110298
 31
0.0
 11
-42.392374171642601
 21
28.014728269128689
 31
0.0
 11
-42.579877676600532
 21
27.768460682430948
 31
0.0
 11
-42.757717363321731
 21
27.524420523448509
 31
0.0
  0
SPLINE
  5
117
100
AcDbEntity
  8
0
  6
CONTINUOUS
 62
             7
100
AcDbSpline
210
0.0
220
0.0
230
1.0
 70
             0
 71
             3
 72
            11
 73
             7
 74
             5
 42
0.00000000001
 43
0.00000000001
 44
0.00000000001
 40
9.6520212354362265
 40
9.6520212354362265
 40
9.6520212354362265
 40
9.6520212354362265
 40
10.16722522019518
 40
10.16722522019518
 40
10.16722522019518
 40
10.7005567454881
 40
10.7005567454881
 40
10.7005567454881
 40
10.7005567454881
 10
-42.757717363321731
 20
-20.8769179627343
 30
0.0
 10
-42.642824680347999
 20
-20.757140629208148
 30
0.0
 10
-42.521262157100878
 20
-20.635955804777041
 30
0.0
 10
-42.392802005018908
 20
-20.513269559585751
 30
0.0
 10
-42.268092650778293
 20
-20.39416552487819
 30
0.0
 10
-42.137199371198243
 20
-20.273949000376891
 30
0.0
 10
-42.000000000000007
 20
-20.15254326381546
 30
0.0
 11
-42.757717363321731
 21
-20.8769179627343
 31
0.0
 11
-42.580347485085909
 21
-20.696184603034457
 31
0.0
 11
-42.392802005018908
 21
-20.513269559585751
 31
0.0
 11
-42.201084758868568
 21
-20.333769549895809
 31
0.0
 11
-42.000000000000007
 21
-20.15254326381546
 31
0.0
  0
SPLINE
  5
116
100
AcDbEntity
  8
0
  6
CONTINUOUS
 62
             7
100
AcDbSpline
210
0.0
220
0.0
230
1.0
 70
             0
 71
             3
 72
            11
 73
             7
 74
             5
 42
0.00000000001
 43
0.00000000001
 44
0.00000000001
 40
10.19555243465283
 40
10.19555243465283
 40
10.19555243465283
 40
10.19555243465283
 40
11.26499585315983
 40
11.26499585315983
 40
11.26499585315983
 40
12.33452008509976
 40
12.33452008509976
 40
12.33452008509976
 40
12.33452008509976
 10
-42.000000000000007
 20
0.0000000000000071
 30
0.0
 10
-42.136402995580298
 20
-0.333255801037005
 30
0.0
 10
-42.267211124781177
 20
-0.6648254651481622
 30
0.0
 10
-42.392374328675963
 20
-0.9948383386399584
 30
0.0
 10
-42.520589772662802
 20
-1.3328989329711409
 30
0.0
 10
-42.642333187726777
 20
-1.6678798362699969
 30
0.0
 10
-42.757717363321731
 20
-1.9999999999999929
 30
0.0
 11
-42.000000000000007
 21
0.0000000000000071
 31
0.0
 11
-42.200402086220052
 21
-0.4986352671494316
 31
0.0
 11
-42.392374328675963
 21
-0.9948383386399584
 31
0.0
 11
-42.579857571645803
 21
-1.4996468307954207
 31
0.0
 11
-42.757717363321731
 21
-1.9999999999999929
 31
0.0
  0
SPLINE
  5
115
100
AcDbEntity
  8
0
  6
CONTINUOUS
 62
             7
100
AcDbSpline
210
0.0
220
0.0
230
1.0
 70
             0
 71
             3
 72
            11
 73
             7
 74
             5
 42
0.00000000001
 43
0.00000000001
 44
0.00000000001
 40
10.19555243465293
 40
10.19555243465293
 40
10.19555243465293
 40
10.19555243465293
 40
11.313304530967139
 40
11.313304530967139
 40
11.313304530967139
 40
12.43211945463684
 40
12.43211945463684
 40
12.43211945463684
 40
12.43211945463684
 10
-42.000000000000007
 20
20.15254326381547
 30
0.0
 10
-42.137726078839492
 20
19.798548731578201
 30
0.0
 10
-42.268418751402372
 20
19.449779689337451
 30
0.0
 10
-42.392374328675963
 20
19.10594725395277
 30
0.0
 10
-42.520588736297228
 20
18.750301521875379
 30
0.0
 10
-42.642332252180509
 20
18.397892789027541
 30
0.0
 10
-42.757717363321731
 20
18.048490837987639
 30
0.0
 11
-42.000000000000007
 21
20.15254326381547
 31
0.0
 11
-42.201351102425193
 21
19.6254344725644
 31
0.0
 11
-42.392374328675963
 21
19.10594725395277
 31
0.0
 11
-42.579856832178869
 21
18.574877628081143
 31
0.0
 11
-42.757717363321731
 21
18.048490837987639
 31
0.0
  0
SPLINE
  5
114
100
AcDbEntity
  8
0
  6
CONTINUOUS
 62
             7
100
AcDbSpline
210
0.0
220
0.0
230
1.0
 70
             0
 71
             3
 72
            11
 73
             7
 74
             5
 42
0.00000000001
 43
0.00000000001
 44
0.00000000001
 40
10.195552434652781
 40
10.195552434652781
 40
10.195552434652781
 40
10.195552434652781
 40
10.72829261095816
 40
10.72829261095816
 40
10.72829261095816
 40
11.244087937724711
 40
11.244087937724711
 40
11.244087937724711
 40
11.244087937724711
 10
-42.000000000000007
 20
20.15254326381547
 30
0.0
 10
-42.137943633464623
 20
20.274607587209179
 30
0.0
 10
-42.268618442292812
 20
20.3946785759581
 30
0.0
 10
-42.392374328675963
 20
20.512861124829222
 30
0.0
 10
-42.520631259219968
 20
20.635342013658381
 30
0.0
 10
-42.642370644422058
 20
20.756667290093912
 30
0.0
 10
-42.757717363321731
 20
20.8769179627343
 30
0.0
 11
-42.000000000000007
 21
20.15254326381547
 31
0.0
 11
-42.201507569493536
 21
20.334157859768315
 31
0.0
 11
-42.392374328675963
 21
20.512861124829222
 31
0.0
 11
-42.579887175365471
 21
20.695725874852549
 31
0.0
 11
-42.757717363321731
 21
20.8769179627343
 31
0.0
  0
SPLINE
  5
113
100
AcDbEntity
  8
0
  6
CONTINUOUS
 62
             7
100
AcDbSpline
210
0.0
220
0.0
230
1.0
 70
             0
 71
             3
 72
            11
 73
             7
 74
             5
 42
0.00000000001
 43
0.00000000001
 44
0.00000000001
 40
10.195552434652781
 40
10.195552434652781
 40
10.195552434652781
 40
10.195552434652781
 40
11.264995853159769
 40
11.264995853159769
 40
11.264995853159769
 40
12.33452008509969
 40
12.33452008509969
 40
12.33452008509969
 40
12.33452008509969
 10
-42.000000000000007
 20
0.0000000000000071
 30
0.0
 10
-42.137791644508987
 20
0.3366485074002483
 30
0.0
 10
-42.268478900456117
 20
0.6681681591726445
 30
0.0
 10
-42.392374328675963
 20
0.9948383386399726
 30
0.0
 10
-42.520190933351863
 20
1.331847329125601
 30
0.0
 10
-42.641973704743592
 20
1.666845105588443
 30
0.0
 10
-42.757717363321731
 20
2.0000000000000071
 30
0.0
 11
-42.000000000000007
 21
0.0000000000000071
 31
0.0
 11
-42.201398245446406
 21
0.5011610422948323
 31
0.0
 11
-42.392374328675963
 21
0.9948383386399726
 31
0.0
 11
-42.579573200785511
 21
1.4988644553477632
 31
0.0
 11
-42.757717363321731
 21
2.0000000000000071
 31
0.0
  0
SPLINE
  5
112
100
AcDbEntity
  8
0
  6
CONTINUOUS
 62
             7
100
AcDbSpline
210
0.0
220
0.0
230
1.0
 70
             0
 71
             3
 72
            11
 73
             7
 74
             5
 42
0.00000000001
 43
0.00000000001
 44
0.00000000001
 40
12.60222498519215
 40
12.60222498519215
 40
12.60222498519215
 40
12.60222498519215
 40
13.20477356312929
 40
13.20477356312929
 40
13.20477356312929
 40
13.80733366403499
 40
13.80733366403499
 40
13.80733366403499
 40
13.80733366403499
 10
-43.678199262354617
 20
20.099100503426609
 30
0.0
 10
-43.526205336573199
 20
20.22755168574805
 30
0.0
 10
-43.372801362700571
 20
20.3571869653024
 30
0.0
 10
-43.217973404654927
 20
20.48801816644119
 30
0.0
 10
-43.066692572938351
 20
20.615852009708771
 30
0.0
 10
-42.913292582401503
 20
20.745469537574539
 30
0.0
 10
-42.757717363321731
 20
20.8769179627343
 30
0.0
 11
-43.678199262354617
 21
20.099100503426609
 31
0.0
 11
-43.449149095603858
 21
20.292666827877394
 31
0.0
 11
-43.217973404654927
 21
20.48801816644119
 31
0.0
 11
-42.989455779249532
 21
20.681112596378178
 31
0.0
 11
-42.757717363321731
 21
20.8769179627343
 31
0.0
  0
SPLINE
  5
111
100
AcDbEntity
  8
0
  6
CONTINUOUS
 62
             7
100
AcDbSpline
210
0.0
220
0.0
230
1.0
 70
             0
 71
             3
 72
            11
 73
             7
 74
             5
 42
0.00000000001
 43
0.00000000001
 44
0.00000000001
 40
110.6006816516911
 40
110.6006816516911
 40
110.6006816516911
 40
110.6006816516911
 40
111.2032417235651
 40
111.2032417235651
 40
111.2032417235651
 40
111.8057903305339
 40
111.8057903305339
 40
111.8057903305339
 40
111.8057903305339
 10
-42.757717363372663
 20
-18.048490837998539
 30
0.0
 10
-42.912309198782182
 20
-17.917873292117289
 30
0.0
 10
-43.065728128298382
 20
-17.788239850502581
 30
0.0
 10
-43.217973382477808
 20
-17.65959106043374
 30
0.0
 10
-43.373153907483371
 20
-17.52846193662845
 30
0.0
 10
-43.526550725662688
 20
-17.398832670147389
 30
0.0
 10
-43.678199262354617
 20
-17.27067337867993
 30
0.0
 11
-42.757717363372663
 21
-18.048490837998539
 31
0.0
 11
-42.988725340886518
 21
-17.853302665786487
 31
0.0
 11
-43.217973382477808
 21
-17.65959106043374
 31
0.0
 11
-43.449410818033826
 21
-17.464018532430142
 31
0.0
 11
-43.678199262354617
 21
-17.27067337867993
 31
0.0
  0
SPLINE
  5
110
100
AcDbEntity
  8
0
  6
CONTINUOUS
 62
             7
100
AcDbSpline
210
0.0
220
0.0
230
1.0
 70
             0
 71
             3
 72
            11
 73
             7
 74
             5
 42
0.00000000001
 43
0.00000000001
 44
0.00000000001
 40
12.60222498519019
 40
12.60222498519019
 40
12.60222498519019
 40
12.60222498519019
 40
13.20477356312731
 40
13.20477356312731
 40
13.20477356312731
 40
13.807333664033029
 40
13.807333664033029
 40
13.807333664033029
 40
13.807333664033029
 10
-43.678199262354617
 20
17.270673378683579
 30
0.0
 10
-43.526666750742173
 20
17.398734616501319
 30
0.0
 10
-43.3732721659144
 20
17.528362007047701
 30
0.0
 10
-43.217973404654927
 20
17.659591041694519
 30
0.0
 10
-43.065623438753413
 20
17.788328314236431
 30
0.0
 10
-42.912202068633647
 20
17.91796380839515
 30
0.0
 10
-42.757717363321731
 20
18.048490837987639
 30
0.0
 11
-43.678199262354617
 21
17.270673378683579
 31
0.0
 11
-43.449498677122413
 21
17.463944286378148
 31
0.0
 11
-43.217973404654927
 21
17.659591041694519
 31
0.0
 11
-42.988645911267227
 21
17.853369780947112
 31
0.0
 11
-42.757717363321731
 21
18.048490837987639
 31
0.0
  0
SPLINE
  5
10F
100
AcDbEntity
  8
0
  6
CONTINUOUS
 62
             7
100
AcDbSpline
210
0.0
220
0.0
230
1.0
 70
             0
 71
             3
 72
            11
 73
             7
 74
             5
 42
0.00000000001
 43
0.00000000001
 44
0.00000000001
 40
110.6006816517057
 40
110.6006816517057
 40
110.6006816517057
 40
110.6006816517057
 40
111.20324172357979
 40
111.20324172357979
 40
111.20324172357979
 40
111.8057903305485
 40
111.8057903305485
 40
111.8057903305485
 40
111.8057903305485
 10
-42.757717363321731
 20
-20.8769179627343
 30
0.0
 10
-42.912239855279047
 20
-20.746359006494458
 30
0.0
 10
-43.065660352287537
 20
-20.61672424666904
 30
0.0
 10
-43.217973382477808
 20
-20.488018185180412
 30
0.0
 10
-43.373583582077131
 20
-20.356525981966119
 30
0.0
 10
-43.526972734645838
 20
-20.226903152004532
 30
0.0
 10
-43.678199262354617
 20
-20.099100503426602
 30
0.0
 11
-42.757717363321731
 21
-20.8769179627343
 31
0.0
 11
-42.988673921062407
 21
-20.681773238425656
 31
0.0
 11
-43.217973382477808
 21
-20.488018185180412
 31
0.0
 11
-43.449730199375161
 21
-20.292175761314873
 31
0.0
 11
-43.678199262354617
 21
-20.099100503426602
 31
0.0
  0
SPLINE
  5
10E
100
AcDbEntity
  8
0
  6
CONTINUOUS
 62
             7
100
AcDbSpline
210
0.0
220
0.0
230
1.0
 70
             0
 71
             3
 72
            11
 73
             7
 74
             5
 42
0.00000000001
 43
0.00000000001
 44
0.00000000001
 40
12.602224985190871
 40
12.602224985190871
 40
12.602224985190871
 40
12.602224985190871
 40
13.31938726627383
 40
13.31938726627383
 40
13.31938726627383
 40
14.03654953995088
 40
14.03654953995088
 40
14.03654953995088
 40
14.03654953995088
 10
-43.678199262354617
 20
26.424420523446319
 30
0.0
 10
-43.52591766505067
 20
26.606421741737002
 30
0.0
 10
-43.372507111511382
 20
26.789761535583249
 30
0.0
 10
-43.217973404654927
 20
26.974433157127361
 30
0.0
 10
-43.065902813126762
 20
27.156161294617061
 30
0.0
 10
-42.912487770754538
 20
27.339486043732911
 30
0.0
 10
-42.757717363321731
 20
27.524420523448509
 30
0.0
 11
-43.678199262354617
 21
26.424420523446319
 31
0.0
 11
-43.448930874586964
 21
26.698425439066803
 31
0.0
 11
-43.217973404654927
 21
26.974433157127361
 31
0.0
 11
-42.988857814952567
 21
27.248224461953228
 31
0.0
 11
-42.757717363321731
 21
27.524420523448509
 31
0.0
  0
SPLINE
  5
10D
100
AcDbEntity
  8
0
  6
CONTINUOUS
 62
             7
100
AcDbSpline
210
0.0
220
0.0
230
1.0
 70
             0
 71
             3
 72
            11
 73
             7
 74
             5
 42
0.00000000001
 43
0.00000000001
 44
0.00000000001
 40
12.6022249851908
 40
12.6022249851908
 40
12.6022249851908
 40
12.6022249851908
 40
13.319387266273759
 40
13.319387266273759
 40
13.319387266273759
 40
14.0365495399508
 40
14.0365495399508
 40
14.0365495399508
 40
14.0365495399508
 10
-43.678199262354617
 20
-26.424420523446319
 30
0.0
 10
-43.526551676794057
 20
-26.605663994829229
 30
0.0
 10
-43.373154884735428
 20
-26.788987430474659
 30
0.0
 10
-43.217973404654927
 20
-26.974433157127351
 30
0.0
 10
-43.065845017819832
 20
-27.15623036144461
 30
0.0
 10
-42.912428709601969
 20
-27.339556615643229
 30
0.0
 10
-42.757717363321731
 20
-27.524420523448502
 30
0.0
 11
-43.678199262354617
 21
-26.424420523446319
 31
0.0
 11
-43.449411543949751
 21
-26.697850994560667
 31
0.0
 11
-43.217973404654927
 21
-26.974433157127351
 31
0.0
 11
-42.988813993780255
 21
-27.24827682647992
 31
0.0
 11
-42.757717363321731
 21
-27.524420523448502
 31
0.0
  0
SPLINE
  5
10C
100
AcDbEntity
  8
0
  6
CONTINUOUS
 62
             7
100
AcDbSpline
210
0.0
220
0.0
230
1.0
 70
             0
 71
             3
 72
            11
 73
             7
 74
             5
 42
0.00000000001
 43
0.00000000001
 44
0.00000000001
 40
9.6520212354362247
 40
9.6520212354362247
 40
9.6520212354362247
 40
9.6520212354362247
 40
10.76957509520426
 40
10.76957509520426
 40
10.76957509520426
 40
11.88858825881975
 40
11.88858825881975
 40
11.88858825881975
 40
11.88858825881975
 10
-42.757717363372663
 20
-18.048490837998539
 30
0.0
 10
-42.642742758424014
 20
-18.396649719950801
 30
0.0
 10
-42.521171670225172
 20
-18.748651742880611
 30
0.0
 10
-42.392802005018908
 20
-19.10476089536678
 30
0.0
 10
-42.26768641659875
 20
-19.45184294222781
 30
0.0
 10
-42.136753450915442
 20
-19.801048657194769
 30
0.0
 10
-42.000000000000007
 20
-20.15254326381546
 30
0.0
 11
-42.757717363372663
 21
-18.048490837998539
 31
0.0
 11
-42.580282831792395
 21
-18.573644515232441
 31
0.0
 11
-42.392802005018908
 21
-19.10476089536678
 31
0.0
 11
-42.200765200945185
 21
-19.626997369681245
 31
0.0
 11
-42.000000000000007
 21
-20.15254326381546
 31
0.0
  0
SPLINE
  5
10B
100
AcDbEntity
  8
0
  6
CONTINUOUS
 62
             7
100
AcDbSpline
210
0.0
220
0.0
230
1.0
 70
             0
 71
             3
 72
            11
 73
             7
 74
             5
 42
0.00000000001
 43
0.00000000001
 44
0.00000000001
 40
10.19555243465282
 40
10.19555243465282
 40
10.19555243465282
 40
10.19555243465282
 40
10.819635921994889
 40
10.819635921994889
 40
10.819635921994889
 40
11.431124435565939
 40
11.431124435565939
 40
11.431124435565939
 40
11.431124435565939
 10
-42.000000000036387
 20
-28.49999999998181
 30
0.0
 10
-42.136531171287082
 20
-28.337288486141919
 30
0.0
 10
-42.267327604971811
 20
-28.17555515099593
 30
0.0
 10
-42.392374328675963
 20
-28.014728067166288
 30
0.0
 10
-42.520618161612227
 20
-27.84978906629112
 30
0.0
 10
-42.642358817800428
 20
-27.686389345359199
 30
0.0
 10
-42.757717363321731
 20
-27.524420523448502
 30
0.0
 11
-42.000000000036387
 21
-28.49999999998181
 31
0.0
 11
-42.200493832186126
 21
-28.256657372320205
 31
0.0
 11
-42.392374328675963
 21
-28.014728067166288
 31
0.0
 11
-42.579877828779445
 21
-27.768460478195713
 31
0.0
 11
-42.757717363321731
 21
-27.524420523448502
 31
0.0
  0
LINE
  5
10A
100
AcDbEntity
  8
0
  6
CONTINUOUS
 62
             7
100
AcDbLine
 10
-44.00000000000001
 20
-26.11649281481004
 11
-44.00000000000001
 21
26.11649281481005
  0
LINE
  5
109
100
AcDbEntity
  8
0
  6
CONTINUOUS
 62
             7
100
AcDbLine
 10
-44.00000000000001
 20
26.11649281481005
 11
-42.00000000000001
 21
28.50000000000001
  0
LINE
  5
108
100
AcDbEntity
  8
0
  6
CONTINUOUS
 62
             7
100
AcDbLine
 10
-29.50000000000001
 20
-28.5
 11
-42.00000000003639
 21
-28.49999999998181
  0
LINE
  5
107
100
AcDbEntity
  8
0
  6
CONTINUOUS
 62
             7
100
AcDbLine
 10
-29.50000000000001
 20
28.50000000000001
 11
-42.00000000000001
 21
28.50000000000001
  0
LINE
  5
106
100
AcDbEntity
  8
0
  6
CONTINUOUS
 62
             7
100
AcDbLine
 10
-29.50000000000001
 20
28.50000000000001
 11
-29.50000000000001
 21
27.52442052344851
  0
LINE
  5
105
100
AcDbEntity
  8
0
  6
CONTINUOUS
 62
             7
100
AcDbLine
 10
-29.50000000000001
 20
-28.5
 11
-29.50000000000001
 21
-27.5244205234485
  0
LINE
  5
104
100
AcDbEntity
  8
0
  6
CONTINUOUS
 62
             7
100
AcDbLine
 10
-44.00000000000001
 20
-26.11649281481004
 11
-42.00000000003639
 21
-28.49999999998181
  0
LINE
  5
103
100
AcDbEntity
  8
0
  6
CONTINUOUS
 62
             7
100
AcDbLine
 10
-29.50000000000001
 20
26.42442052344632
 11
-29.50000000000001
 21
27.52442052344851
  0
LINE
  5
102
100
AcDbEntity
  8
0
  6
CONTINUOUS
 62
             7
100
AcDbLine
 10
-40.00000000000001
 20
-20.8769179627343
 11
-41.00000000000001
 21
-20.8769179627343
  0
LINE
  5
101
100
AcDbEntity
  8
0
  6
CONTINUOUS
 62
             7
100
AcDbLine
 10
-41.00000000000001
 20
-20.8769179627343
 11
-42.75771736332173
 21
-20.8769179627343
  0
LINE
  5
100
100
AcDbEntity
  8
0
  6
CONTINUOUS
 62
             7
100
AcDbLine
 10
-43.67819926235462
 20
-17.27067337867993
 11
-43.67819926235462
 21
-1.99999999999999
  0
LINE
  5
FF
100
AcDbEntity
  8
0
  6
CONTINUOUS
 62
             7
100
AcDbLine
 10
-43.67819926235462
 20
2.00000000000001
 11
-43.67819926235462
 21
17.27067337868358
  0
LINE
  5
FE
100
AcDbEntity
  8
0
  6
CONTINUOUS
 62
             7
100
AcDbLine
 10
-29.50000000000001
 20
17.27067337868358
 11
-43.67819926235462
 21
17.27067337868358
  0
LINE
  5
FD
100
AcDbEntity
  8
0
  6
CONTINUOUS
 62
             7
100
AcDbLine
 10
-42.75771736332173
 20
-1.99999999999999
 11
-43.67819926235462
 21
-1.99999999999999
  0
LINE
  5
FC
100
AcDbEntity
  8
0
  6
CONTINUOUS
 62
             7
100
AcDbLine
 10
-29.50000000000001
 20
-17.27067337867993
 11
-43.67819926235462
 21
-17.27067337867993
  0
LINE
  5
FB
100
AcDbEntity
  8
0
  6
CONTINUOUS
 62
             7
100
AcDbLine
 10
-29.50000000000001
 20
-1.99999999999999
 11
-42.75771736332173
 21
-1.99999999999999
  0
LINE
  5
FA
100
AcDbEntity
  8
0
  6
CONTINUOUS
 62
             7
100
AcDbLine
 10
-41.00000000000001
 20
20.8769179627343
 11
-42.75771736332173
 21
20.8769179627343
  0
LINE
  5
F9
100
AcDbEntity
  8
0
  6
CONTINUOUS
 62
             7
100
AcDbLine
 10
-29.50000000000001
 20
18.04849083798764
 11
-42.75771736332173
 21
18.04849083798764
  0
LINE
  5
F8
100
AcDbEntity
  8
0
  6
CONTINUOUS
 62
             7
100
AcDbLine
 10
-29.50000000000001
 20
-18.04849083798763
 11
-42.75771736337266
 21
-18.04849083799854
  0
LINE
  5
F7
100
AcDbEntity
  8
0
  6
CONTINUOUS
 62
             7
100
AcDbLine
 10
-29.50000000000001
 20
2.00000000000001
 11
-42.75771736332173
 21
2.00000000000001
  0
LINE
  5
F6
100
AcDbEntity
  8
0
  6
CONTINUOUS
 62
             7
100
AcDbLine
 10
-29.50000000000001
 20
-20.15254326381546
 11
-42.00000000000001
 21
-20.15254326381546
  0
LINE
  5
F5
100
AcDbEntity
  8
0
  6
CONTINUOUS
 62
             7
100
AcDbLine
 10
-29.50000000000001
 20
20.15254326381547
 11
-42.00000000000001
 21
20.15254326381547
  0
LINE
  5
F4
100
AcDbEntity
  8
0
  6
CONTINUOUS
 62
             7
100
AcDbLine
 10
-29.50000000000001
 20
0.00000000000001
 11
-42.00000000000001
 21
0.00000000000001
  0
LINE
  5
F3
100
AcDbEntity
  8
0
  6
CONTINUOUS
 62
             7
100
AcDbLine
 10
-29.50000000000001
 20
20.8769179627343
 11
-41.00000000000001
 21
20.8769179627343
  0
LINE
  5
F2
100
AcDbEntity
  8
0
  6
CONTINUOUS
 62
             7
100
AcDbLine
 10
-29.50000000000001
 20
-20.8769179627343
 11
-40.00000000000001
 21
-20.8769179627343
  0
LINE
  5
F1
100
AcDbEntity
  8
0
  6
CONTINUOUS
 62
             7
100
AcDbLine
 10
-29.50000000000001
 20
-20.8769179627343
 11
-29.50000000000001
 21
-20.15254326381546
  0
LINE
  5
F0
100
AcDbEntity
  8
0
  6
CONTINUOUS
 62
             7
100
AcDbLine
 10
-29.50000000000001
 20
-18.04849083798763
 11
-29.50000000000001
 21
-17.27067337867993
  0
LINE
  5
EF
100
AcDbEntity
  8
0
  6
CONTINUOUS
 62
             7
100
AcDbLine
 10
-29.50000000000001
 20
-17.27067337867993
 11
-29.50000000000001
 21
-1.99999999999999
  0
LINE
  5
EE
100
AcDbEntity
  8
0
  6
CONTINUOUS
 62
             7
100
AcDbLine
 10
-29.50000000000001
 20
20.15254326381547
 11
-29.50000000000001
 21
20.8769179627343
  0
LINE
  5
ED
100
AcDbEntity
  8
0
  6
CONTINUOUS
 62
             7
100
AcDbLine
 10
-29.50000000000001
 20
20.09910050342661
 11
-29.50000000000001
 21
20.15254326381547
  0
LINE
  5
EC
100
AcDbEntity
  8
0
  6
CONTINUOUS
 62
             7
100
AcDbLine
 10
-29.50000000000001
 20
0.00000000000001
 11
-29.50000000000001
 21
2.00000000000001
  0
LINE
  5
EB
100
AcDbEntity
  8
0
  6
CONTINUOUS
 62
             7
100
AcDbLine
 10
-29.50000000000001
 20
17.27067337868358
 11
-29.50000000000001
 21
18.04849083798764
  0
LINE
  5
EA
100
AcDbEntity
  8
0
  6
CONTINUOUS
 62
             7
100
AcDbLine
 10
-29.50000000000001
 20
20.09910050342661
 11
-29.50000000000001
 21
18.04849083798764
  0
LINE
  5
E9
100
AcDbEntity
  8
0
  6
CONTINUOUS
 62
             7
100
AcDbLine
 10
-29.50000000000001
 20
0.00000000000001
 11
-29.50000000000001
 21
-1.99999999999999
  0
LINE
  5
E8
100
AcDbEntity
  8
0
  6
CONTINUOUS
 62
             7
100
AcDbLine
 10
-29.50000000000001
 20
-20.0991005034266
 11
-29.50000000000001
 21
-20.15254326381546
  0
LINE
  5
E7
100
AcDbEntity
  8
0
  6
CONTINUOUS
 62
             7
100
AcDbLine
 10
-43.67819926235462
 20
20.09910050342661
 11
-43.67819926235462
 21
26.42442052344632
  0
LINE
  5
E6
100
AcDbEntity
  8
0
  6
CONTINUOUS
 62
             7
100
AcDbLine
 10
-29.50000000000001
 20
26.42442052344632
 11
-43.67819926235462
 21
26.42442052344632
  0
LINE
  5
E5
100
AcDbEntity
  8
0
  6
CONTINUOUS
 62
             7
100
AcDbLine
 10
-29.50000000000001
 20
20.8769179627343
 11
-29.50000000000001
 21
26.42442052344632
  0
LINE
  5
E4
100
AcDbEntity
  8
0
  6
CONTINUOUS
 62
             7
100
AcDbLine
 10
-29.50000000000001
 20
27.52442052344851
 11
-42.75771736332173
 21
27.52442052344851
  0
LINE
  5
E3
100
AcDbEntity
  8
0
  6
CONTINUOUS
 62
             7
100
AcDbLine
 10
-27.00000000000001
 20
28.5
 11
-27.00000000000001
 21
-28.5
  0
LINE
  5
E2
100
AcDbEntity
  8
0
  6
CONTINUOUS
 62
             7
100
AcDbLine
 10
-27.00000000000001
 20
28.5
 11
-29.50000000000001
 21
28.50000000000001
  0
LINE
  5
E1
100
AcDbEntity
  8
0
  6
CONTINUOUS
 62
             7
100
AcDbLine
 10
-27.00000000000001
 20
-28.5
 11
-29.50000000000001
 21
-28.5
  0
LINE
  5
E0
100
AcDbEntity
  8
0
  6
CONTINUOUS
 62
             7
100
AcDbLine
 10
-29.50000000000001
 20
-26.42442052344632
 11
-43.67819926235462
 21
-26.42442052344632
  0
LINE
  5
DF
100
AcDbEntity
  8
0
  6
CONTINUOUS
 62
             7
100
AcDbLine
 10
-42.75771736332173
 20
2.00000000000001
 11
-43.67819926235462
 21
2.00000000000001
  0
LINE
  5
DE
100
AcDbEntity
  8
0
  6
CONTINUOUS
 62
             7
100
AcDbLine
 10
-43.67819926235462
 20
-20.0991005034266
 11
-43.67819926235462
 21
-26.42442052344632
  0
LINE
  5
DD
100
AcDbEntity
  8
0
  6
CONTINUOUS
 62
             7
100
AcDbLine
 10
-29.50000000000001
 20
-27.5244205234485
 11
-42.75771736332173
 21
-27.5244205234485
  0
LINE
  5
DC
100
AcDbEntity
  8
0
  6
CONTINUOUS
 62
             7
100
AcDbLine
 10
-29.50000000000001
 20
-26.42442052344632
 11
-29.50000000000001
 21
-27.5244205234485
  0
LINE
  5
DB
100
AcDbEntity
  8
0
  6
CONTINUOUS
 62
             7
100
AcDbLine
 10
-29.50000000000001
 20
2.00000000000001
 11
-29.50000000000001
 21
17.27067337868358
  0
LINE
  5
DA
100
AcDbEntity
  8
0
  6
CONTINUOUS
 62
             7
100
AcDbLine
 10
-29.50000000000001
 20
-20.8769179627343
 11
-29.50000000000001
 21
-26.42442052344632
  0
LINE
  5
D9
100
AcDbEntity
  8
0
  6
CONTINUOUS
 62
             7
100
AcDbLine
 10
-29.50000000000001
 20
-18.04849083798763
 11
-29.50000000000001
 21
-20.0991005034266
  0
LINE
  5
D8
100
AcDbEntity
  8
1
  6
PHANTOM
 62
             2
100
AcDbLine
 10
-25.30162473612405
 20
0.0
 11
-45.96544685441283
 21
0.00000000000005
  0
ENDBLK
  5
119
100
AcDbEntity
  8
0
100
AcDbBlockEnd
  0
BLOCK
  5
11C
100
AcDbEntity
  8
0
100
AcDbBlockBegin
  2
*D6
 70
             1
 10
0.0
 20
0.0
 30
0.0
  3
*D6
  1

  0
LINE
  5
11D
100
AcDbEntity
  8
0
  6
CONTINUOUS
 62
             4
100
AcDbLine
 10
16.49999999998909
 20
52.6326598104356
 11
-16.50000000001091
 21
52.6326598104356
  0
LINE
  5
11E
100
AcDbEntity
  8
0
  6
CONTINUOUS
 62
             4
100
AcDbLine
 10
-16.50000000001091
 20
39.14999999999964
 11
-16.50000000001091
 21
54.6326598104356
  0
LINE
  5
11F
100
AcDbEntity
  8
0
  6
CONTINUOUS
 62
             4
100
AcDbLine
 10
16.49999999998909
 20
39.14999999999964
 11
16.49999999998909
 21
54.6326598104356
  0
SOLID
  5
120
100
AcDbEntity
  8
0
 62
             4
100
AcDbTrace
 10
9.49999999998909
 20
51.71109232732383
 11
9.49999999998909
 21
53.55422729354737
 12
16.49999999998909
 22
52.6326598104356
 13
16.49999999998909
 23
52.6326598104356
  0
SOLID
  5
121
100
AcDbEntity
  8
0
 62
             4
100
AcDbTrace
 10
-9.50000000001091
 20
53.55422729354737
 11
-9.50000000001091
 21
51.71109232732383
 12
-16.50000000001091
 22
52.6326598104356
 13
-16.50000000001091
 23
52.6326598104356
  0
MTEXT
  5
123
100
AcDbEntity
  8
0
 62
             1
100
AcDbMText
 10
-2.30761378919158
 20
54.6326598104356
 30
0.0
 40
7.0
 41
0.0
 71
             7
 72
             1
  1
1"
  7
CONVERTER_1
 11
0.99999999999706
 21
0.00000242406841
 31
0.0
  0
ENDBLK
  5
124
100
AcDbEntity
  8
0
100
AcDbBlockEnd
  0
BLOCK
  5
128
100
AcDbEntity
  8
0
100
AcDbBlockBegin
  2
*D7
 70
             1
 10
0.0
 20
0.0
 30
0.0
  3
*D7
  1

  0
LINE
  5
129
100
AcDbEntity
  8
0
  6
CONTINUOUS
 62
             4
100
AcDbLine
 10
60.7482551744141
 20
20.0
 11
60.7482551744141
 21
-20.0
  0
LINE
  5
12A
100
AcDbEntity
  8
0
  6
CONTINUOUS
 62
             4
100
AcDbLine
 10
47.03260692317963
 20
-20.0
 11
62.7482551744141
 21
-20.0
  0
LINE
  5
12B
100
AcDbEntity
  8
0
  6
CONTINUOUS
 62
             4
100
AcDbLine
 10
47.03260692317963
 20
20.0
 11
62.7482551744141
 21
20.0
  0
SOLID
  5
12C
100
AcDbEntity
  8
0
 62
             4
100
AcDbTrace
 10
61.66982265752586
 20
13.0
 11
59.82668769130233
 21
13.0
 12
60.7482551744141
 22
20.0
 13
60.7482551744141
 23
20.0
  0
SOLID
  5
12D
100
AcDbEntity
  8
0
 62
             4
100
AcDbTrace
 10
59.82668769130233
 20
-13.0
 11
61.66982265752587
 21
-13.0
 12
60.7482551744141
 22
-20.0
 13
60.7482551744141
 23
-20.0
  0
MTEXT
  5
12E
100
AcDbEntity
  8
0
 62
             1
100
AcDbMText
 10
58.7482551744141
 20
-9.25988315676082
 30
0.0
 40
7.0
 41
0.0
 71
             7
 72
             1
  1
\C1;DN\C1;40
  7
CONVERTER_1
 11
0.0
 21
1.0
 31
0.0
  0
ENDBLK
  5
12F
100
AcDbEntity
  8
0
100
AcDbBlockEnd
  0
BLOCK
  5
133
100
AcDbEntity
  8
0
100
AcDbBlockBegin
  2
*D8
 70
             1
 10
0.0
 20
0.0
 30
0.0
  3
*D8
  1

  0
LINE
  5
134
100
AcDbEntity
  8
0
  6
CONTINUOUS
 62
             4
100
AcDbLine
 10
-71.858977626383
 20
-23.89999999999964
 11
-71.858977626383
 21
23.89999999999963
  0
LINE
  5
135
100
AcDbEntity
  8
0
  6
CONTINUOUS
 62
             4
100
AcDbLine
 10
-47.03260692318145
 20
-23.89999999999964
 11
-73.858977626383
 21
-23.89999999999964
  0
LINE
  5
136
100
AcDbEntity
  8
0
  6
CONTINUOUS
 62
             4
100
AcDbLine
 10
-47.03260692318145
 20
23.89999999999963
 11
-73.858977626383
 21
23.89999999999963
  0
SOLID
  5
137
100
AcDbEntity
  8
0
 62
             4
100
AcDbTrace
 10
-70.93741014327122
 20
16.89999999999963
 11
-72.78054510949477
 21
16.89999999999963
 12
-71.858977626383
 22
23.89999999999963
 13
-71.858977626383
 23
23.89999999999963
  0
SOLID
  5
138
100
AcDbEntity
  8
0
 62
             4
100
AcDbTrace
 10
-72.78054510949477
 20
-16.89999999999964
 11
-70.93741014327122
 21
-16.89999999999964
 12
-71.858977626383
 22
-23.89999999999964
 13
-71.858977626383
 23
-23.89999999999964
  0
MTEXT
  5
139
100
AcDbEntity
  8
0
 62
             1
100
AcDbMText
 10
-73.858977626383
 20
-7.14390048036499
 30
0.0
 40
7.0
 41
0.0
 71
             7
 72
             1
  1
6/4"
  7
CONVERTER_1
 11
0.0
 21
1.0
 31
0.0
  0
ENDBLK
  5
13A
100
AcDbEntity
  8
0
100
AcDbBlockEnd
  0
BLOCK
  5
13E
100
AcDbEntity
  8
0
100
AcDbBlockBegin
  2
*D9
 70
             1
 10
0.0
 20
0.0
 30
0.0
  3
*D9
  1

  0
LINE
  5
13F
100
AcDbEntity
  8
0
  6
CONTINUOUS
 62
             4
100
AcDbLine
 10
74.1913128241615
 20
23.89999999999964
 11
74.1913128241615
 21
-23.89999999999964
  0
LINE
  5
140
100
AcDbEntity
  8
0
  6
CONTINUOUS
 62
             4
100
AcDbLine
 10
47.03260692317963
 20
-23.89999999999964
 11
76.1913128241615
 21
-23.89999999999964
  0
LINE
  5
141
100
AcDbEntity
  8
0
  6
CONTINUOUS
 62
             4
100
AcDbLine
 10
47.03260692317963
 20
23.89999999999964
 11
76.1913128241615
 21
23.89999999999964
  0
SOLID
  5
142
100
AcDbEntity
  8
0
 62
             4
100
AcDbTrace
 10
75.11288030727327
 20
16.89999999999964
 11
73.26974534104973
 21
16.89999999999964
 12
74.1913128241615
 22
23.89999999999964
 13
74.1913128241615
 23
23.89999999999964
  0
SOLID
  5
143
100
AcDbEntity
  8
0
 62
             4
100
AcDbTrace
 10
73.26974534104973
 20
-16.89999999999964
 11
75.11288030727327
 21
-16.89999999999964
 12
74.1913128241615
 22
-23.89999999999964
 13
74.1913128241615
 23
-23.89999999999964
  0
MTEXT
  5
144
100
AcDbEntity
  8
0
 62
             1
100
AcDbMText
 10
72.1913128241615
 20
-10.00776261163271
 30
0.0
 40
7.0
 41
0.0
 71
             7
 72
             1
  1
6/4"
  7
CONVERTER_1
 11
0.0
 21
1.0
 31
0.0
  0
ENDBLK
  5
145
100
AcDbEntity
  8
0
100
AcDbBlockEnd
  0
BLOCK
  5
149
100
AcDbEntity
  8
0
100
AcDbBlockBegin
  2
*D10
 70
             1
 10
0.0
 20
0.0
 30
0.0
  3
*D10
  1

  0
LINE
  5
14A
100
AcDbEntity
  8
0
  6
CONTINUOUS
 62
             4
100
AcDbLine
 10
-57.03260692317781
 20
-20.0
 11
-57.03260692317781
 21
20.0
  0
LINE
  5
14B
100
AcDbEntity
  8
0
  6
CONTINUOUS
 62
             4
100
AcDbLine
 10
-47.03260692317781
 20
-20.0
 11
-59.03260692317781
 21
-20.0
  0
LINE
  5
14C
100
AcDbEntity
  8
0
  6
CONTINUOUS
 62
             4
100
AcDbLine
 10
-47.03260692317781
 20
20.0
 11
-59.03260692317781
 21
20.0
  0
SOLID
  5
14D
100
AcDbEntity
  8
0
 62
             4
100
AcDbTrace
 10
-56.11103944006604
 20
13.0
 11
-57.95417440628958
 21
13.0
 12
-57.03260692317781
 22
20.0
 13
-57.03260692317781
 23
20.0
  0
SOLID
  5
14E
100
AcDbEntity
  8
0
 62
             4
100
AcDbTrace
 10
-57.95417440628958
 20
-13.0
 11
-56.11103944006604
 21
-13.0
 12
-57.03260692317781
 22
-20.0
 13
-57.03260692317781
 23
-20.0
  0
MTEXT
  5
14F
100
AcDbEntity
  8
0
 62
             1
100
AcDbMText
 10
-59.03260692317781
 20
-8.05072681673789
 30
0.0
 40
7.0
 41
0.0
 71
             7
 72
             1
  1
\C1;DN\C1;40
  7
CONVERTER_1
 11
0.0
 21
1.0
 31
0.0
  0
ENDBLK
  5
150
100
AcDbEntity
  8
0
100
AcDbBlockEnd
  0
BLOCK
  5
154
100
AcDbEntity
  8
0
100
AcDbBlockBegin
  2
*D11
 70
             1
 10
0.0
 20
0.0
 30
0.0
  3
*D11
  1

  0
LINE
  5
155
100
AcDbEntity
  8
0
  6
CONTINUOUS
 62
             4
100
AcDbLine
 10
43.99999999999999
 20
-42.2884423749765
 11
-44.00000000000001
 21
-42.2884423749765
  0
LINE
  5
156
100
AcDbEntity
  8
0
  6
CONTINUOUS
 62
             4
100
AcDbLine
 10
-44.00000000000001
 20
-26.11649281481004
 11
-44.00000000000001
 21
-44.2884423749765
  0
LINE
  5
157
100
AcDbEntity
  8
0
  6
CONTINUOUS
 62
             4
100
AcDbLine
 10
43.99999999999999
 20
-26.11649281481004
 11
43.99999999999999
 21
-44.2884423749765
  0
SOLID
  5
158
100
AcDbEntity
  8
0
 62
             4
100
AcDbTrace
 10
36.99999999999999
 20
-43.21000985808827
 11
36.99999999999999
 21
-41.36687489186473
 12
43.99999999999999
 22
-42.2884423749765
 13
43.99999999999999
 23
-42.2884423749765
  0
SOLID
  5
159
100
AcDbEntity
  8
0
 62
             4
100
AcDbTrace
 10
-37.00000000000001
 20
-41.36687489186473
 11
-37.00000000000001
 21
-43.21000985808827
 12
-44.00000000000001
 22
-42.2884423749765
 13
-44.00000000000001
 23
-42.2884423749765
  0
MTEXT
  5
15A
100
AcDbEntity
  8
0
 62
             1
100
AcDbMText
 10
-6.39701106355103
 20
-40.2884423749765
 30
0.0
 40
7.0
 41
0.0
 71
             7
 72
             1
  1
88
  7
CONVERTER_1
 11
0.99999999999706
 21
0.00000242406841
 31
0.0
  0
ENDBLK
  5
15B
100
AcDbEntity
  8
0
100
AcDbBlockEnd
  0
ENDSEC
  0
SECTION
  2
ENTITIES
  0
DIMENSION
  5
15D
100
AcDbEntity
  8
1
100
AcDbDimension
  2
*D11
 10
43.99999999999999
 20
-42.2884423749765
 11
-1.14701106355103
 21
-36.7884423749765
 31
0.0
 53
0.00013888888889
  1
<>
  3
ME10_DIM_5
100
AcDbAlignedDimension
 13
-44.00000000000001
 23
-26.11649281481004
 14
43.99999999999999
 24
-26.11649281481004
100
AcDbRotatedDimension
  0
DIMENSION
  5
152
100
AcDbEntity
  8
1
100
AcDbDimension
  2
*D10
 10
-57.03260692317781
 20
20.0
 11
-62.53260692317781
 21
0.97927318326211
 31
0.0
 53
90.0
  1
<>
  3
ME10_DIM_4
100
AcDbAlignedDimension
 13
-47.03260692318145
 23
-20.0
 14
-47.03260692318145
 24
20.0
 50
90.0
100
AcDbRotatedDimension
  0
DIMENSION
  5
147
100
AcDbEntity
  8
1
100
AcDbDimension
  2
*D9
 10
74.1913128241615
 20
23.89999999999964
 11
68.6913128241615
 21
-0.55776261163271
 31
0.0
 53
90.0
  1
6/4"
  3
ME10_DIM_3
100
AcDbAlignedDimension
 13
47.03260692317963
 23
-23.89999999999964
 14
47.03260692317963
 24
23.89999999999964
 50
90.0
100
AcDbRotatedDimension
  0
DIMENSION
  5
13C
100
AcDbEntity
  8
1
100
AcDbDimension
  2
*D8
 10
-71.858977626383
 20
23.89999999999963
 11
-77.358977626383
 21
2.30609951963501
 31
0.0
 53
90.0
  1
6/4"
  3
ME10_DIM_2
100
AcDbAlignedDimension
 13
-47.03260692318145
 23
-23.89999999999964
 14
-47.03260692318145
 24
23.89999999999964
 50
90.0
100
AcDbRotatedDimension
  0
DIMENSION
  5
131
100
AcDbEntity
  8
1
100
AcDbDimension
  2
*D7
 10
60.7482551744141
 20
20.0
 11
55.2482551744141
 21
-0.22988315676082
 31
0.0
 53
90.0
  1
<>
  3
ME10_DIM_1
100
AcDbAlignedDimension
 13
47.03260692317963
 23
-20.0
 14
47.03260692317963
 24
20.0
 50
90.0
100
AcDbRotatedDimension
  0
DIMENSION
  5
126
100
AcDbEntity
  8
1
100
AcDbDimension
  2
*D6
 10
16.49999999998909
 20
52.6326598104356
 11
0.49238621080842
 21
58.1326598104356
 31
0.0
 53
0.00013888888889
  1
1"
  3
ME10_DIM_0
100
AcDbAlignedDimension
 13
-16.50000000001091
 23
39.14999999999964
 14
16.49999999998909
 24
39.14999999999964
100
AcDbRotatedDimension
  0
INSERT
  5
34
100
AcDbEntity
  8
1
100
AcDbBlockReference
  2
HL902_T-ST_CK_DN40__1
 10
-54.98617834354081
 20
65.10762825064921
  0
INSERT
  5
35
100
AcDbEntity
  8
1
100
AcDbBlockReference
  2
HL902_T-ST_CK_DN40__2
 10
-51.46381026073141
 20
200.24215088297933
  0
INSERT
  5
36
100
AcDbEntity
  8
0
100
AcDbBlockReference
  2
HL_902_ROHRBELUEFTER
 10
0.0
 20
3.99999999999636
  0
INSERT
  5
37
100
AcDbEntity
  8
0
100
AcDbBlockReference
  2
HOLL_NDERMUTTER_6_4__3
 10
452.18924394460919
 20
-79.21239493121902
  0
INSERT
  5
38
100
AcDbEntity
  8
0
100
AcDbBlockReference
  2
HOLL_NDERMUTTER_6_4__4
 10
-452.18924394460919
 20
-79.21239493121902
  0
ENDSEC
  0
SECTION
  2
OBJECTS
  0
DICTIONARY
  5
19
100
AcDbDictionary
  3
ACAD_GROUP
350
1A
  3
ACAD_MLINESTYLE
350
1B
  0
DICTIONARY
  5
1A
102
{ACAD_REACTORS
330
19
102
}
100
AcDbDictionary
  0
DICTIONARY
  5
1B
102
{ACAD_REACTORS
330
19
102
}
100
AcDbDictionary
  3
STANDARD
350
1C
  0
MLINESTYLE
  5
1C
102
{ACAD_REACTORS
330
1B
102
}
100
AcDbMlineStyle
  2
STANDARD
 70
             0
  3

 62
             0
 51
90.0
 52
90.0
 71
             2
 49
0.5
 62
           256
  6
BYLAYER
 49
-0.5
 62
           256
  6
BYLAYER
  0
ENDSEC
  0
EOF
