  0
SECTION
  2
HEADER
  9
$ACADVER
  1
AC1014
  9
$ACADMAINTVER
 70
             0
  9
$DWGCODEPAGE
  3
ANSI_1252
  9
$INSBASE
 10
0.0
 20
0.0
 30
0.0
  9
$EXTMIN
 10
-473.58056612749402
 20
29.40553462769779
 30
0.0
  9
$EXTMAX
 10
-246.40000000000251
 20
188.38864674238599
 30
0.0
  9
$LIMMIN
 10
0.0
 20
0.0
  9
$LIMMAX
 10
0.0
 20
0.0
  9
$ORTHOMODE
 70
             0
  9
$REGENMODE
 70
             1
  9
$FILLMODE
 70
             1
  9
$QTEXTMODE
 70
             0
  9
$MIRRTEXT
 70
             1
  9
$DRAGMODE
 70
             2
  9
$LTSCALE
 40
1.0
  9
$OSMODE
 70
             0
  9
$ATTMODE
 70
             1
  9
$TEXTSIZE
 40
0.2
  9
$TRACEWID
 40
0.05
  9
$TEXTSTYLE
  7
STANDARD
  9
$CLAYER
  8
0
  9
$CELTYPE
  6
CONTINUOUS
  9
$CECOLOR
 62
           256
  9
$CELTSCALE
 40
1.0
  9
$DELOBJ
 70
             1
  9
$DISPSILH
 70
             0
  9
$DIMSCALE
 40
1.0
  9
$DIMASZ
 40
0.18
  9
$DIMEXO
 40
0.0625
  9
$DIMDLI
 40
0.38
  9
$DIMRND
 40
0.0
  9
$DIMDLE
 40
0.0
  9
$DIMEXE
 40
0.18
  9
$DIMTP
 40
0.0
  9
$DIMTM
 40
0.0
  9
$DIMTXT
 40
0.18
  9
$DIMCEN
 40
0.09
  9
$DIMTSZ
 40
0.0
  9
$DIMTOL
 70
             0
  9
$DIMLIM
 70
             0
  9
$DIMTIH
 70
             1
  9
$DIMTOH
 70
             1
  9
$DIMSE1
 70
             0
  9
$DIMSE2
 70
             0
  9
$DIMTAD
 70
             0
  9
$DIMZIN
 70
             0
  9
$DIMBLK
  1

  9
$DIMASO
 70
             1
  9
$DIMSHO
 70
             1
  9
$DIMPOST
  1

  9
$DIMAPOST
  1

  9
$DIMALT
 70
             0
  9
$DIMALTD
 70
             2
  9
$DIMALTF
 40
25.4
  9
$DIMLFAC
 40
1.0
  9
$DIMTOFL
 70
             0
  9
$DIMTVP
 40
0.0
  9
$DIMTIX
 70
             0
  9
$DIMSOXD
 70
             0
  9
$DIMSAH
 70
             0
  9
$DIMBLK1
  1

  9
$DIMBLK2
  1

  9
$DIMSTYLE
  2
STANDARD
  9
$DIMCLRD
 70
             0
  9
$DIMCLRE
 70
             0
  9
$DIMCLRT
 70
             0
  9
$DIMTFAC
 40
1.0
  9
$DIMGAP
 40
0.09
  9
$DIMJUST
 70
             0
  9
$DIMSD1
 70
             0
  9
$DIMSD2
 70
             0
  9
$DIMTOLJ
 70
             1
  9
$DIMTZIN
 70
             0
  9
$DIMALTZ
 70
             0
  9
$DIMALTTZ
 70
             0
  9
$DIMFIT
 70
             3
  9
$DIMUPT
 70
             0
  9
$DIMUNIT
 70
             2
  9
$DIMDEC
 70
             4
  9
$DIMTDEC
 70
             4
  9
$DIMALTU
 70
             2
  9
$DIMALTTD
 70
             2
  9
$DIMTXSTY
  7
STANDARD
  9
$DIMAUNIT
 70
             0
  9
$LUNITS
 70
             2
  9
$LUPREC
 70
             4
  9
$SKETCHINC
 40
0.1
  9
$FILLETRAD
 40
0.0
  9
$AUNITS
 70
             0
  9
$AUPREC
 70
             0
  9
$MENU
  1
acad
  9
$ELEVATION
 40
0.0
  9
$PELEVATION
 40
0.0
  9
$THICKNESS
 40
0.0
  9
$LIMCHECK
 70
             0
  9
$BLIPMODE
 70
             1
  9
$CHAMFERA
 40
0.0
  9
$CHAMFERB
 40
0.0
  9
$CHAMFERC
 40
0.0
  9
$CHAMFERD
 40
0.0
  9
$SKPOLY
 70
             0
  9
$TDCREATE
 40
0.000000000
  9
$TDUPDATE
 40
0.000000000
  9
$TDINDWG
 40
0.0000000000
  9
$TDUSRTIMER
 40
0.0000000000
  9
$USRTIMER
 70
             1
  9
$ANGBASE
 50
0.0
  9
$ANGDIR
 70
             0
  9
$PDMODE
 70
             0
  9
$PDSIZE
 40
0.0
  9
$PLINEWID
 40
0.0
  9
$COORDS
 70
             0
  9
$SPLFRAME
 70
             0
  9
$SPLINETYPE
 70
             6
  9
$SPLINESEGS
 70
             8
  9
$ATTDIA
 70
             0
  9
$ATTREQ
 70
             1
  9
$HANDLING
 70
             1
  9
$HANDSEED
  5
322
  9
$SURFTAB1
 70
             6
  9
$SURFTAB2
 70
             6
  9
$SURFTYPE
 70
             6
  9
$SURFU
 70
             6
  9
$SURFV
 70
             6
  9
$UCSNAME
  2

  9
$UCSORG
 10
0.0
 20
0.0
 30
0.0
  9
$UCSXDIR
 10
1.0
 20
0.0
 30
0.0
  9
$UCSYDIR
 10
0.0
 20
1.0
 30
0.0
  9
$PUCSNAME
  2

  9
$PUCSORG
 10
0.0
 20
0.0
 30
0.0
  9
$PUCSXDIR
 10
1.0
 20
0.0
 30
0.0
  9
$PUCSYDIR
 10
0.0
 20
1.0
 30
0.0
  9
$USERI1
 70
             0
  9
$USERI2
 70
             0
  9
$USERI3
 70
             0
  9
$USERI4
 70
             0
  9
$USERI5
 70
             0
  9
$USERR1
 40
12.01
  9
$USERR2
 40
0.0
  9
$USERR3
 40
0.0
  9
$USERR4
 40
0.0
  9
$USERR5
 40
0.0
  9
$WORLDVIEW
 70
             1
  9
$SHADEDGE
 70
             3
  9
$SHADEDIF
 70
            70
  9
$TILEMODE
 70
             1
  9
$MAXACTVP
 70
            16
  9
$PINSBASE
 10
0.0
 20
0.0
 30
0.0
  9
$PLIMCHECK
 70
             0
  9
$PEXTMIN
 10
1.00000000000000E+20
 20
1.00000000000000E+20
 30
1.00000000000000E+20
  9
$PEXTMAX
 10
-1.00000000000000E+20
 20
-1.00000000000000E+20
 30
-1.00000000000000E+20
  9
$PLIMMIN
 10
0.0
 20
0.0
  9
$PLIMMAX
 10
12.0
 20
9.0
  9
$UNITMODE
 70
             0
  9
$VISRETAIN
 70
             0
  9
$PLINEGEN
 70
             1
  9
$PSLTSCALE
 70
             0
  9
$TREEDEPTH
 70
          3020
  9
$PICKSTYLE
 70
             1
  9
$CMLSTYLE
  2
STANDARD
  9
$CMLJUST
 70
             0
  9
$CMLSCALE
 40
1.0
  9
$PROXYGRAPHICS
 70
             0
  9
$MEASUREMENT
 70
             1
  0
ENDSEC
  0
SECTION
  2
CLASSES
  0
CLASS
  1
LWPOLYLINE
  2
AcDbPolyline
  3
"AutoCAD"
 90
        0
280
             0
281
             1
  0
CLASS
  1
IMAGE
  2
AcDbRasterImage
  3
ISM
 90
      127
280
             0
281
             1
  0
CLASS
  1
OLE2FRAME
  2
AcDbOle2Frame
  3
""
 90
        0
280
             0
281
             1
  0
CLASS
  1
HATCH
  2
AcDbHatch
  3
"ACAD_SEDONA"
 90
        0
280
             0
281
             1
  0
CLASS
  1
DICTIONARYVAR
  2
AcDbDictionaryVar
  3
"AutoCAD"
 90
        0
280
             0
281
             0
  0
CLASS
  1
RASTERVARIABLES
  2
AcDbRasterVariables
  3
ISM
 90
        0
280
             0
281
             0
  0
CLASS
  1
IMAGEDEF
  2
AcDbRasterImageDef
  3
ISM
 90
        0
280
             0
281
             0
  0
CLASS
  1
IMAGEDEF_REACTOR
  2
AcDbRasterImageDefReactor
  3
ISM
 90
        1
280
             0
281
             0
  0
CLASS
  1
IDBUFFER
  2
AcDbIdBuffer
  3
"Acad"
 90
        0
280
             0
281
             0
  0
CLASS
  1
SPATIAL_FILTER
  2
AcDbSpatialFilter
  3
"Acad"
 90
        0
280
             0
281
             0
  0
CLASS
  1
XRECORD
  2
AcDbXrecord
  3
"<Built In>"
 90
        0
280
             0
281
             0
  0
CLASS
  1
SORTENTSTABLE
  2
AcDbSortentsTable
  3
"AutoCAD"
 90
        0
280
             0
281
             0
  0
CLASS
  1
LAYER_INDEX
  2
AcDbLayerIndex
  3
"Acad"
 90
        0
280
             0
281
             0
  0
CLASS
  1
SPATIAL_INDEX
  2
AcDbSpatialIndex
  3
"Acad"
 90
        0
280
             0
281
             0
  0
CLASS
  1
OBJECT_PTR
  2
CAseDLPNTableRecord
  3
"ASE-LPNTableRecord"
 90
        1
280
             0
281
             0
  0
CLASS
  1
LAYOUT
  2
AcDbLayout
  3
"AutoCAD 2000"
 90
        0
280
             0
281
             0
  0
CLASS
  1
PLOTSETTINGS
  2
AcDbPlotSettings
  3
"AutoCAD 2000"
 90
        0
280
             0
281
             0
  0
CLASS
  1
ACDBDICTIONARYWDFLT
  2
AcDbDictionaryWithDefault
  3
"AutoCAD 2000"
 90
        0
280
             0
281
             0
  0
CLASS
  1
ACDBPLACEHOLDER
  2
AcDbPlaceHolder
  3
"AutoCAD 2000"
 90
        0
280
             0
281
             0
  0
ENDSEC
  0
SECTION
  2
TABLES
  0
TABLE
  2
VPORT
  5
7
100
AcDbSymbolTable
 70
             1
  0
VPORT
  5
15
100
AcDbSymbolTableRecord
100
AcDbViewportTableRecord
  2
*ACTIVE
 70
             0
 10
0.0
 20
0.0
 11
1.0
 21
1.0
 12
-359.99028306374828
 22
108.89709068504189
 13
0.0
 23
0.0
 14
1.0
 24
1.0
 15
0.0
 25
0.0
 16
0.0
 26
0.0
 36
1.0
 17
0.0
 27
0.0
 37
0.0
 40
174.88142332615703
 41
1.60267857142857
 42
50.0
 43
0.0
 44
0.0
 50
0.0
 51
0.0
 71
             0
 72
           100
 73
             1
 74
             1
 75
             0
 76
             0
 77
             0
 78
             0
  0
ENDTAB
  0
TABLE
  2
LTYPE
  5
4
100
AcDbSymbolTable
 70
            10
  0
LTYPE
  5
11
100
AcDbSymbolTableRecord
100
AcDbLinetypeTableRecord
  2
BYBLOCK
 70
            64
  3

 72
            65
 73
             0
 40
0.0
  0
LTYPE
  5
12
100
AcDbSymbolTableRecord
100
AcDbLinetypeTableRecord
  2
BYLAYER
 70
            64
  3

 72
            65
 73
             0
 40
0.0
  0
LTYPE
  5
13
100
AcDbSymbolTableRecord
100
AcDbLinetypeTableRecord
  2
CONTINUOUS
 70
            64
  3
Solid line
 72
            65
 73
             0
 40
0.0
  0
LTYPE
  5
1D
100
AcDbSymbolTableRecord
100
AcDbLinetypeTableRecord
  2
DASHED
 70
            64
  3
Dashed
 72
            65
 73
             2
 40
15.0
 49
7.0
 74
             0
 49
-8.0
 74
             0
  0
LTYPE
  5
1E
100
AcDbSymbolTableRecord
100
AcDbLinetypeTableRecord
  2
DOTTED
 70
            64
  3
Dotted
 72
            65
 73
             2
 40
1.0
 49
0.0
 74
             0
 49
-1.0
 74
             0
  0
LTYPE
  5
1F
100
AcDbSymbolTableRecord
100
AcDbLinetypeTableRecord
  2
DOT_CENTER
 70
            64
  3
Dot_Center
 72
            65
 73
             4
 40
14.0
 49
12.0
 74
             0
 49
-1.0
 74
             0
 49
0.0
 74
             0
 49
-1.0
 74
             0
  0
LTYPE
  5
20
100
AcDbSymbolTableRecord
100
AcDbLinetypeTableRecord
  2
LONG_DASHED
 70
            64
  3
Long_Dashed
 72
            65
 73
             2
 40
15.0
 49
10.0
 74
             0
 49
-5.0
 74
             0
  0
LTYPE
  5
21
100
AcDbSymbolTableRecord
100
AcDbLinetypeTableRecord
  2
DASH_CENTER
 70
            64
  3
Dash_Center
 72
            65
 73
             4
 40
14.0
 49
11.0
 74
             0
 49
-1.0
 74
             0
 49
1.0
 74
             0
 49
-1.0
 74
             0
  0
LTYPE
  5
22
100
AcDbSymbolTableRecord
100
AcDbLinetypeTableRecord
  2
PHANTOM
 70
            64
  3
Phantom
 72
            65
 73
             6
 40
13.0
 49
10.0
 74
             0
 49
-1.0
 74
             0
 49
0.0
 74
             0
 49
-1.0
 74
             0
 49
0.0
 74
             0
 49
-1.0
 74
             0
  0
LTYPE
  5
23
100
AcDbSymbolTableRecord
100
AcDbLinetypeTableRecord
  2
CENTER_DASH_DASH
 70
            64
  3
Center_Dash_Dash
 72
            65
 73
             6
 40
14.0
 49
9.0
 74
             0
 49
-1.0
 74
             0
 49
1.0
 74
             0
 49
-1.0
 74
             0
 49
1.0
 74
             0
 49
-1.0
 74
             0
  0
ENDTAB
  0
TABLE
  2
LAYER
  5
2
100
AcDbSymbolTable
 70
             2
  0
LAYER
  5
14
100
AcDbSymbolTableRecord
100
AcDbLayerTableRecord
  2
0
 70
             0
 62
             7
  6
CONTINUOUS
  0
LAYER
  5
24
100
AcDbSymbolTableRecord
100
AcDbLayerTableRecord
  2
1
 70
             0
 62
             7
  6
CONTINUOUS
  0
ENDTAB
  0
TABLE
  2
STYLE
  5
3
100
AcDbSymbolTable
 70
             2
  0
STYLE
  5
17
100
AcDbSymbolTableRecord
100
AcDbTextStyleTableRecord
  2
STANDARD
 70
             0
 40
0.0
 41
1.0
 50
0.0
 71
             0
 42
0.0
  3
txt
  4

  0
STYLE
  5
30F
100
AcDbSymbolTableRecord
100
AcDbTextStyleTableRecord
  2
CONVERTER_1
 70
             0
 40
0.0
 41
0.9
 50
0.0
 71
             0
 42
0.0
  3
txt.shx
  4

  0
ENDTAB
  0
TABLE
  2
VIEW
  5
5
100
AcDbSymbolTable
 70
             0
  0
ENDTAB
  0
TABLE
  2
UCS
  5
6
100
AcDbSymbolTable
 70
             0
  0
ENDTAB
  0
TABLE
  2
APPID
  5
8
100
AcDbSymbolTable
 70
             1
  0
APPID
  5
16
100
AcDbSymbolTableRecord
100
AcDbRegAppTableRecord
  2
ACAD
 70
             0
  0
ENDTAB
  0
TABLE
  2
DIMSTYLE
  5
9
100
AcDbSymbolTable
 70
             3
  0
DIMSTYLE
105
18
100
AcDbSymbolTableRecord
100
AcDbDimStyleTableRecord
  2
STANDARD
 70
             0
  3

  4

  5

  6

  7

 40
1.0
 41
0.18
 42
0.0625
 43
0.38
 44
0.18
 45
0.0
 46
0.0
 47
0.0
 48
0.0
 71
             0
 72
             0
 73
             1
 74
             1
 75
             0
 76
             0
 77
             0
 78
             0
140
0.18
141
0.09
142
0.0
143
25.4
144
1.0
145
0.0
146
1.0
147
0.09
170
             0
171
             2
172
             0
173
             0
174
             0
175
             0
176
             0
177
             0
178
             0
270
             2
271
             4
272
             4
273
             2
274
             2
275
             0
280
             0
281
             0
282
             0
283
             1
284
             0
285
             0
286
             0
287
             3
288
             0
340
17
  0
DIMSTYLE
105
312
100
AcDbSymbolTableRecord
100
AcDbDimStyleTableRecord
  2
ME10_DIM_0
 70
             0
  3
Ø<>
  4

  5

  6

  7

 40
1.0
 41
12.0
 42
0.0
 43
0.38
 44
2.0
 45
0.0
 46
0.0
 47
0.0
 48
0.0
 71
             0
 72
             0
 73
             0
 74
             0
 75
             0
 76
             0
 77
             1
 78
             8
140
12.0
141
0.09
142
0.0
143
25.4
144
1.0
145
0.0
146
1.0
147
0.625
170
             0
171
             2
172
             1
173
             1
174
             0
175
             0
176
             4
177
             4
178
             1
270
             2
271
             0
272
             4
273
             2
274
             2
275
             0
280
             0
281
             0
282
             0
283
             1
284
             0
285
             0
286
             0
287
             3
288
             0
340
30F
  0
DIMSTYLE
105
31D
100
AcDbSymbolTableRecord
100
AcDbDimStyleTableRecord
  2
ME10_DIM_1
 70
             0
  3

  4

  5

  6

  7

 40
1.0
 41
12.0
 42
0.0
 43
0.38
 44
2.0
 45
0.0
 46
0.0
 47
0.0
 48
0.0
 71
             0
 72
             0
 73
             0
 74
             0
 75
             0
 76
             0
 77
             1
 78
             8
140
12.0
141
0.09
142
0.0
143
25.4
144
1.0
145
0.0
146
1.0
147
0.625
170
             0
171
             2
172
             1
173
             1
174
             0
175
             0
176
             4
177
             4
178
             1
270
             2
271
             2
272
             4
273
             2
274
             2
275
             0
280
             0
281
             0
282
             0
283
             1
284
             0
285
             0
286
             0
287
             3
288
             0
340
30F
  0
ENDTAB
  0
TABLE
  2
BLOCK_RECORD
  5
1
100
AcDbSymbolTable
 70
             3
  0
BLOCK_RECORD
  5
A
100
AcDbSymbolTableRecord
100
AcDbBlockTableRecord
  2
*MODEL_SPACE
  0
BLOCK_RECORD
  5
B
100
AcDbSymbolTableRecord
100
AcDbBlockTableRecord
  2
*PAPER_SPACE
  0
BLOCK_RECORD
  5
25
100
AcDbSymbolTableRecord
100
AcDbBlockTableRecord
  2
PERFEKT-LAUBFANGKORB
  0
BLOCK_RECORD
  5
308
100
AcDbSymbolTableRecord
100
AcDbBlockTableRecord
  2
*D1
  0
BLOCK_RECORD
  5
314
100
AcDbSymbolTableRecord
100
AcDbBlockTableRecord
  2
*D2
  0
ENDTAB
  0
ENDSEC
  0
SECTION
  2
BLOCKS
  0
BLOCK
  5
D
100
AcDbEntity
  8
0
100
AcDbBlockBegin
  2
*MODEL_SPACE
 70
             0
 10
0.0
 20
0.0
 30
0.0
  3
*MODEL_SPACE
  1

  0
ENDBLK
  5
E
100
AcDbEntity
  8
0
100
AcDbBlockEnd
  0
BLOCK
  5
F
100
AcDbEntity
 67
             1
  8
0
100
AcDbBlockBegin
  2
*PAPER_SPACE
 70
             0
 10
0.0
 20
0.0
 30
0.0
  3
*PAPER_SPACE
  1

  0
ENDBLK
  5
10
100
AcDbEntity
 67
             1
  8
0
100
AcDbBlockEnd
  0
BLOCK
  5
26
100
AcDbEntity
  8
0
100
AcDbBlockBegin
  2
PERFEKT-LAUBFANGKORB
 70
             0
 10
-443.19999999999692
 20
33.69641016151343
 30
0.0
  3
PERFEKT-LAUBFANGKORB
  1

  0
DIMENSION
  5
31E
100
AcDbEntity
  8
1
100
AcDbDimension
  2
*D2
 10
-459.58056612749402
 20
53.80358983848402
 11
-467.58056612749402
 21
106.113432660562
 31
0.0
 53
-90.0
  1
<>
  3
ME10_DIM_1
100
AcDbAlignedDimension
 13
-409.7069911641305
 23
158.8035898384868
 14
-440.00445167772381
 24
53.80358983848402
 50
-90.0
100
AcDbRotatedDimension
  0
DIMENSION
  5
313
100
AcDbEntity
  8
1
100
AcDbDimension
  2
*D1
 10
-246.40000000000248
 20
174.38864674238599
 11
-346.57009990485199
 21
182.38864674238599
 31
0.0
 53
0.00013888888889
  1
<>
  3
ME10_DIM_0
100
AcDbAlignedDimension
 13
-443.19999999999692
 23
88.80358983848404
 14
-246.40000000000251
 24
88.80358983848404
100
AcDbRotatedDimension
  0
SPLINE
  5
307
100
AcDbEntity
  8
0
  6
CONTINUOUS
 62
             7
100
AcDbSpline
210
0.0
220
0.0
230
1.0
 70
             0
 71
             3
 72
            11
 73
             7
 74
             5
 42
0.00000000001
 43
0.00000000001
 44
0.00000000001
 40
0.0
 40
0.0
 40
0.0
 40
0.0
 40
0.26542557769858
 40
0.26542557769858
 40
0.26542557769858
 40
0.5308512948553563
 40
0.5308512948553563
 40
0.5308512948553563
 40
0.5308512948553563
 10
-278.6172600106475
 20
34.958754550548413
 30
0.0
 10
-278.5345180704918
 20
34.927436825486552
 30
0.0
 10
-278.45176304229238
 20
34.896114004181243
 30
0.0
 10
-278.36902115214519
 20
34.864796014873953
 30
0.0
 10
-278.28627898361958
 20
34.833477920199762
 30
0.0
 10
-278.2035245619424
 20
34.802155046897553
 30
0.0
 10
-278.12078244284299
 20
34.770836691056957
 30
0.0
 11
-278.6172600106475
 21
34.958754550548413
 31
0.0
 11
-278.49314056264313
 21
34.911775381803217
 31
0.0
 11
-278.36902115214519
 21
34.864796014873953
 31
0.0
 11
-278.24490177895927
 21
34.817816450902853
 31
0.0
 11
-278.12078244284299
 21
34.770836691056957
 31
0.0
  0
SPLINE
  5
306
100
AcDbEntity
  8
0
  6
CONTINUOUS
 62
             7
100
AcDbSpline
210
0.0
220
0.0
230
1.0
 70
             0
 71
             3
 72
            12
 73
             8
 74
             7
 42
0.00000000001
 43
0.00000000001
 44
0.00000000001
 40
0.0
 40
0.0
 40
0.0
 40
0.0
 40
1.0
 40
1.0
 40
2.0
 40
2.0
 40
3.0
 40
3.0
 40
3.0
 40
3.0
 10
-317.51848108867949
 20
106.20923631881141
 30
0.0
 10
-317.65331944177848
 20
107.49162523871949
 30
0.0
 10
-317.86288597519098
 20
108.665446656976
 30
0.0
 10
-318.40569273120252
 20
110.6515409167796
 30
0.0
 10
-318.73319986180229
 20
111.442836751345
 30
0.0
 10
-319.46012889344308
 20
112.52457383288601
 30
0.0
 10
-319.85187301418921
 20
112.8035898384866
 30
0.0
 10
-320.24779887988927
 20
112.8035898384866
 30
0.0
 11
-317.51848108867949
 21
106.20923631881141
 31
0.0
 11
-317.77517333659802
 21
108.04236822409696
 31
0.0
 11
-318.13428935319678
 21
109.6584937868778
 31
0.0
 11
-318.58095393872918
 21
110.99066651042089
 31
0.0
 11
-319.09666437762269
 21
111.9837052921155
 31
0.0
 11
-319.66005862255111
 21
112.59647326808998
 31
0.0
 11
-320.24779887988927
 21
112.8035898384866
 31
0.0
  0
SPLINE
  5
305
100
AcDbEntity
  8
0
  6
CONTINUOUS
 62
             7
100
AcDbSpline
210
0.0
220
0.0
230
1.0
 70
             0
 71
             3
 72
            12
 73
             8
 74
             7
 42
0.00000000001
 43
0.00000000001
 44
0.00000000001
 40
0.0
 40
0.0
 40
0.0
 40
0.0
 40
1.0
 40
1.0
 40
2.0
 40
2.0
 40
3.0
 40
3.0
 40
3.0
 40
3.0
 10
-319.43236176014392
 20
106.20923631881141
 30
0.0
 10
-319.56720011324302
 20
107.49162523871949
 30
0.0
 10
-319.7767666466554
 20
108.665446656976
 30
0.0
 10
-320.31957340266689
 20
110.6515409167796
 30
0.0
 10
-320.64708053326672
 20
111.442836751345
 30
0.0
 10
-321.37400956490751
 20
112.52457383288601
 30
0.0
 10
-321.76575368565358
 20
112.8035898384866
 30
0.0
 10
-322.1616795513537
 20
112.8035898384866
 30
0.0
 11
-319.43236176014392
 21
106.20923631881141
 31
0.0
 11
-319.68905400806256
 21
108.04236822409696
 31
0.0
 11
-320.04817002466115
 21
109.6584937868778
 31
0.0
 11
-320.49483461019366
 21
110.99066651042089
 31
0.0
 11
-321.01054504908711
 21
111.9837052921155
 31
0.0
 11
-321.57393929401553
 21
112.59647326808998
 31
0.0
 11
-322.1616795513537
 21
112.8035898384866
 31
0.0
  0
SPLINE
  5
304
100
AcDbEntity
  8
0
  6
CONTINUOUS
 62
             7
100
AcDbSpline
210
0.0
220
0.0
230
1.0
 70
             0
 71
             3
 72
            12
 73
             8
 74
             7
 42
0.00000000001
 43
0.00000000001
 44
0.00000000001
 40
0.0
 40
0.0
 40
0.0
 40
0.0
 40
1.0
 40
1.0
 40
2.0
 40
2.0
 40
3.0
 40
3.0
 40
3.0
 40
3.0
 10
-320.77454838538313
 20
158.8035898384868
 30
0.0
 10
-320.25326304541829
 20
158.8035898384868
 30
0.0
 10
-319.7374693372372
 20
158.5252845218412
 30
0.0
 10
-318.7801641463646
 20
157.44621729273811
 30
0.0
 10
-318.34873767318692
 20
156.6568231273435
 30
0.0
 10
-317.63328226219789
 20
154.6751893070053
 30
0.0
 10
-317.35679049716651
 20
153.5038257489656
 30
0.0
 10
-317.17850041047808
 20
152.22379127174389
 30
0.0
 11
-320.77454838538313
 21
158.8035898384868
 31
0.0
 11
-320.00069528439383
 21
158.59699547834506
 31
0.0
 11
-319.2588167418009
 21
157.98575090728966
 31
0.0
 11
-318.57956652101848
 21
156.99510979808863
 31
0.0
 11
-317.99100996769243
 21
155.66600621717441
 31
0.0
 11
-317.51746608203297
 21
154.05335533210391
 31
0.0
 11
-317.17850041047808
 21
152.22379127174389
 31
0.0
  0
SPLINE
  5
303
100
AcDbEntity
  8
0
  6
CONTINUOUS
 62
             7
100
AcDbSpline
210
0.0
220
0.0
230
1.0
 70
             0
 71
             3
 72
            12
 73
             8
 74
             7
 42
0.00000000001
 43
0.00000000001
 44
0.00000000001
 40
0.0
 40
0.0
 40
0.0
 40
0.0
 40
1.0
 40
1.0
 40
2.0
 40
2.0
 40
3.0
 40
3.0
 40
3.0
 40
3.0
 10
-318.37246160085368
 20
158.8035898384868
 30
0.0
 10
-317.85117626088891
 20
158.8035898384868
 30
0.0
 10
-317.33538255270781
 20
158.5252845218412
 30
0.0
 10
-316.37807736183521
 20
157.4462172927382
 30
0.0
 10
-315.94665088865759
 20
156.6568231273435
 30
0.0
 10
-315.23119547766862
 20
154.6751893070053
 30
0.0
 10
-314.95470371263713
 20
153.5038257489656
 30
0.0
 10
-314.77641362594881
 20
152.22379127174389
 30
0.0
 11
-318.37246160085368
 21
158.8035898384868
 31
0.0
 11
-317.59860849986444
 21
158.59699547834506
 31
0.0
 11
-316.85672995727151
 21
157.98575090728968
 31
0.0
 11
-316.17747973648915
 21
156.99510979808863
 31
0.0
 11
-315.5889231831631
 21
155.66600621717441
 31
0.0
 11
-315.11537929750364
 21
154.05335533210391
 31
0.0
 11
-314.77641362594881
 21
152.22379127174389
 31
0.0
  0
SPLINE
  5
302
100
AcDbEntity
  8
0
  6
CONTINUOUS
 62
             7
100
AcDbSpline
210
0.0
220
0.0
230
1.0
 70
             0
 71
             3
 72
            12
 73
             8
 74
             7
 42
0.00000000001
 43
0.00000000001
 44
0.00000000001
 40
0.0
 40
0.0
 40
0.0
 40
0.0
 40
1.0
 40
1.0
 40
2.0
 40
2.0
 40
3.0
 40
3.0
 40
3.0
 40
3.0
 10
-336.90646232918169
 20
106.20923631881141
 30
0.0
 10
-336.95199166921623
 20
107.49162523871949
 30
0.0
 10
-337.0227536278154
 20
108.665446656976
 30
0.0
 10
-337.2060370393927
 20
110.6515409167796
 30
0.0
 10
-337.31662266410609
 20
111.442836751345
 30
0.0
 10
-337.56207655984002
 20
112.52457383288601
 30
0.0
 10
-337.69435236171711
 20
112.8035898384866
 30
0.0
 10
-337.8280401660665
 20
112.8035898384866
 30
0.0
 11
-336.90646232918169
 21
106.20923631881141
 31
0.0
 11
-336.99313669423509
 21
108.04236822409696
 31
0.0
 11
-337.11439533360408
 21
109.6584937868778
 31
0.0
 11
-337.26521550700915
 21
110.99066651042089
 31
0.0
 11
-337.43934961197306
 21
111.9837052921155
 31
0.0
 11
-337.62958456783883
 21
112.59647326808998
 31
0.0
 11
-337.8280401660665
 21
112.8035898384866
 31
0.0
  0
SPLINE
  5
301
100
AcDbEntity
  8
0
  6
CONTINUOUS
 62
             7
100
AcDbSpline
210
0.0
220
0.0
230
1.0
 70
             0
 71
             3
 72
            12
 73
             8
 74
             7
 42
0.00000000001
 43
0.00000000001
 44
0.00000000001
 40
0.0
 40
0.0
 40
0.0
 40
0.0
 40
1.0
 40
1.0
 40
2.0
 40
2.0
 40
3.0
 40
3.0
 40
3.0
 40
3.0
 10
-334.91609287583731
 20
106.20923631881141
 30
0.0
 10
-334.96162221587178
 20
107.49162523871949
 30
0.0
 10
-335.03238417447102
 20
108.665446656976
 30
0.0
 10
-335.21566758604831
 20
110.6515409167796
 30
0.0
 10
-335.32625321076171
 20
111.442836751345
 30
0.0
 10
-335.57170710649569
 20
112.52457383288601
 30
0.0
 10
-335.70398290837272
 20
112.8035898384866
 30
0.0
 10
-335.83767071272217
 20
112.8035898384866
 30
0.0
 11
-334.91609287583731
 21
106.20923631881141
 31
0.0
 11
-335.00276724089065
 21
108.04236822409696
 31
0.0
 11
-335.12402588025964
 21
109.6584937868778
 31
0.0
 11
-335.27484605366476
 21
110.99066651042089
 31
0.0
 11
-335.44898015862873
 21
111.9837052921155
 31
0.0
 11
-335.6392151144945
 21
112.59647326808998
 31
0.0
 11
-335.83767071272217
 21
112.8035898384866
 31
0.0
  0
SPLINE
  5
300
100
AcDbEntity
  8
0
  6
CONTINUOUS
 62
             7
100
AcDbSpline
210
0.0
220
0.0
230
1.0
 70
             0
 71
             3
 72
            12
 73
             8
 74
             7
 42
0.00000000001
 43
0.00000000001
 44
0.00000000001
 40
0.0
 40
0.0
 40
0.0
 40
0.0
 40
1.0
 40
1.0
 40
2.0
 40
2.0
 40
3.0
 40
3.0
 40
3.0
 40
3.0
 10
-330.6646235046743
 20
158.8035898384868
 30
0.0
 10
-330.3988745429084
 20
158.8035898384868
 30
0.0
 10
-330.13592519074791
 20
158.5252845218412
 30
0.0
 10
-329.6478952365876
 20
157.4462172927382
 30
0.0
 10
-329.42795592785308
 20
156.6568231273435
 30
0.0
 10
-329.06321992228482
 20
154.6751893070053
 30
0.0
 10
-328.9222656428131
 20
153.5038257489656
 30
0.0
 10
-328.83137414482132
 20
152.22379127174389
 30
0.0
 11
-330.6646235046743
 21
158.8035898384868
 31
0.0
 11
-330.27011661491389
 21
158.59699547834506
 31
0.0
 11
-329.89191021366776
 21
157.98575090728968
 31
0.0
 11
-329.54563145400732
 21
156.99510979808863
 31
0.0
 11
-329.24558792506895
 21
155.66600621717441
 31
0.0
 11
-329.00417734564803
 21
154.05335533210391
 31
0.0
 11
-328.83137414482132
 21
152.22379127174389
 31
0.0
  0
SPLINE
  5
2FF
100
AcDbEntity
  8
0
  6
CONTINUOUS
 62
             7
100
AcDbSpline
210
0.0
220
0.0
230
1.0
 70
             0
 71
             3
 72
            12
 73
             8
 74
             7
 42
0.00000000001
 43
0.00000000001
 44
0.00000000001
 40
0.0
 40
0.0
 40
0.0
 40
0.0
 40
1.0
 40
1.0
 40
2.0
 40
2.0
 40
3.0
 40
3.0
 40
3.0
 40
3.0
 10
-333.21466523372271
 20
158.8035898384868
 30
0.0
 10
-332.94891627195682
 20
158.8035898384868
 30
0.0
 10
-332.68596691979627
 20
158.5252845218412
 30
0.0
 10
-332.19793696563602
 20
157.4462172927382
 30
0.0
 10
-331.97799765690149
 20
156.6568231273435
 30
0.0
 10
-331.61326165133318
 20
154.6751893070053
 30
0.0
 10
-331.47230737186152
 20
153.5038257489656
 30
0.0
 10
-331.38141587386968
 20
152.22379127174389
 30
0.0
 11
-333.21466523372271
 21
158.8035898384868
 31
0.0
 11
-332.82015834396225
 21
158.59699547834506
 31
0.0
 11
-332.44195194271617
 21
157.98575090728968
 31
0.0
 11
-332.09567318305574
 21
156.99510979808863
 31
0.0
 11
-331.79562965411731
 21
155.66600621717441
 31
0.0
 11
-331.55421907469639
 21
154.05335533210391
 31
0.0
 11
-331.38141587386968
 21
152.22379127174389
 31
0.0
  0
SPLINE
  5
2FE
100
AcDbEntity
  8
0
  6
CONTINUOUS
 62
             7
100
AcDbSpline
210
0.0
220
0.0
230
1.0
 70
             0
 71
             3
 72
            12
 73
             8
 74
             7
 42
0.00000000001
 43
0.00000000001
 44
0.00000000001
 40
0.0
 40
0.0
 40
0.0
 40
0.0
 40
1.0
 40
1.0
 40
2.0
 40
2.0
 40
3.0
 40
3.0
 40
3.0
 40
3.0
 10
-301.51903887354518
 20
107.8035898384865
 30
0.0
 10
-301.79398425347642
 20
108.81382035164989
 30
0.0
 10
-302.15013378936982
 20
109.7142137055785
 30
0.0
 10
-302.9926153112001
 20
111.21385483377411
 30
0.0
 10
-303.47245428286323
 20
111.8015448575166
 30
0.0
 10
-304.50591086142549
 20
112.59948723517481
 30
0.0
 10
-305.05156360720667
 20
112.8035898384866
 30
0.0
 10
-305.60145436706921
 20
112.8035898384866
 30
0.0
 11
-301.51903887354518
 21
107.8035898384865
 31
0.0
 11
-301.99034594404611
 21
109.23146578498101
 31
0.0
 11
-302.57137455028499
 21
110.4640342696763
 31
0.0
 11
-303.24447073807744
 21
111.46384367373676
 31
0.0
 11
-303.98918257214439
 21
112.20051604634571
 31
0.0
 11
-304.78288254313873
 21
112.65166713822707
 31
0.0
 11
-305.60145436706921
 21
112.8035898384866
 31
0.0
  0
SPLINE
  5
2FD
100
AcDbEntity
  8
0
  6
CONTINUOUS
 62
             7
100
AcDbSpline
210
0.0
220
0.0
230
1.0
 70
             0
 71
             3
 72
            12
 73
             8
 74
             7
 42
0.00000000001
 43
0.00000000001
 44
0.00000000001
 40
0.0
 40
0.0
 40
0.0
 40
0.0
 40
1.0
 40
1.0
 40
2.0
 40
2.0
 40
3.0
 40
3.0
 40
3.0
 40
3.0
 10
-302.93312530232828
 20
106.20923631881141
 30
0.0
 10
-303.15209090620061
 20
107.49162523871949
 30
0.0
 10
-303.49240849007361
 20
108.665446656976
 30
0.0
 10
-304.37387883129531
 20
110.6515409167796
 30
0.0
 10
-304.90572155242052
 20
111.442836751345
 30
0.0
 10
-306.0861902449488
 20
112.52457383288601
 30
0.0
 10
-306.72234817769629
 20
112.8035898384866
 30
0.0
 10
-307.36529689576588
 20
112.8035898384866
 30
0.0
 11
-302.93312530232828
 21
106.20923631881141
 31
0.0
 11
-303.34997089397939
 21
108.04236822409696
 31
0.0
 11
-303.93314366068444
 21
109.6584937868778
 31
0.0
 11
-304.65848758881458
 21
110.99066651042089
 31
0.0
 11
-305.49595589868466
 21
111.9837052921155
 31
0.0
 11
-306.4108585077982
 21
112.59647326808998
 31
0.0
 11
-307.36529689576588
 21
112.8035898384866
 31
0.0
  0
SPLINE
  5
2FC
100
AcDbEntity
  8
0
  6
CONTINUOUS
 62
             7
100
AcDbSpline
210
0.0
220
0.0
230
1.0
 70
             0
 71
             3
 72
            12
 73
             8
 74
             7
 42
0.00000000001
 43
0.00000000001
 44
0.00000000001
 40
0.0
 40
0.0
 40
0.0
 40
0.0
 40
1.0
 40
1.0
 40
2.0
 40
2.0
 40
3.0
 40
3.0
 40
3.0
 40
3.0
 10
-307.0958951769781
 20
158.8035898384868
 30
0.0
 10
-306.33910616208902
 20
158.8035898384868
 30
0.0
 10
-305.59028976083232
 20
158.5252845218412
 30
0.0
 10
-304.20049803486972
 20
157.4462172927382
 30
0.0
 10
-303.57416387466628
 20
156.6568231273435
 30
0.0
 10
-302.53548360846901
 20
154.6751893070053
 30
0.0
 10
-302.13407978134961
 20
153.5038257489656
 30
0.0
 10
-301.87524269400882
 20
152.2237912717446
 30
0.0
 11
-307.0958951769781
 21
158.8035898384868
 31
0.0
 11
-305.97243460544917
 21
158.59699547834506
 31
0.0
 11
-304.89539389785102
 21
157.98575090728968
 31
0.0
 11
-303.90927542100331
 21
156.99510979808863
 31
0.0
 11
-303.05482374156765
 21
155.66600621717441
 31
0.0
 11
-302.36734457562903
 21
154.05335533210399
 31
0.0
 11
-301.87524269400882
 21
152.2237912717446
 31
0.0
  0
SPLINE
  5
2FB
100
AcDbEntity
  8
0
  6
CONTINUOUS
 62
             7
100
AcDbSpline
210
0.0
220
0.0
230
1.0
 70
             0
 71
             3
 72
            12
 73
             8
 74
             7
 42
0.00000000001
 43
0.00000000001
 44
0.00000000001
 40
0.0
 40
0.0
 40
0.0
 40
0.0
 40
1.0
 40
1.0
 40
2.0
 40
2.0
 40
3.0
 40
3.0
 40
3.0
 40
3.0
 10
-309.25771616896481
 20
158.8035898384868
 30
0.0
 10
-308.50092715407561
 20
158.8035898384868
 30
0.0
 10
-307.75211075281891
 20
158.5252845218412
 30
0.0
 10
-306.36231902685631
 20
157.4462172927382
 30
0.0
 10
-305.73598486665293
 20
156.6568231273435
 30
0.0
 10
-304.6973046004556
 20
154.6751893070053
 30
0.0
 10
-304.2959007733362
 20
153.5038257489656
 30
0.0
 10
-304.0370636859966
 20
152.22379127174389
 30
0.0
 11
-309.25771616896481
 21
158.8035898384868
 31
0.0
 11
-308.1342555974357
 21
158.59699547834506
 31
0.0
 11
-307.05721488983761
 21
157.98575090728968
 31
0.0
 11
-306.07109641299002
 21
156.99510979808863
 31
0.0
 11
-305.21664473355429
 21
155.66600621717441
 31
0.0
 11
-304.52916556761579
 21
154.05335533210391
 31
0.0
 11
-304.0370636859966
 21
152.22379127174389
 31
0.0
  0
SPLINE
  5
2FA
100
AcDbEntity
  8
0
  6
CONTINUOUS
 62
             7
100
AcDbSpline
210
0.0
220
0.0
230
1.0
 70
             0
 71
             3
 72
             8
 73
             4
 74
             3
 42
0.00000000001
 43
0.00000000001
 44
0.00000000001
 40
0.0
 40
0.0
 40
0.0
 40
0.0
 40
1.0
 40
1.0
 40
1.0
 40
1.0
 10
-301.16928277363172
 20
106.20923631881141
 30
0.0
 10
-301.26357132427881
 20
106.761444476101
 30
0.0
 10
-301.38060913459259
 20
107.2949581013247
 30
0.0
 10
-301.51903887354518
 20
107.8035898384865
 30
0.0
 11
-301.16928277363172
 21
106.20923631881141
 31
0.0
 11
-301.32760787797389
 21
107.02275423619687
 31
0.0
 11
-301.51903887354518
 21
107.8035898384865
 31
0.0
  0
SPLINE
  5
2F9
100
AcDbEntity
  8
0
  6
CONTINUOUS
 62
             7
100
AcDbSpline
210
0.0
220
0.0
230
1.0
 70
             0
 71
             3
 72
            12
 73
             8
 74
             7
 42
0.00000000001
 43
0.00000000001
 44
0.00000000001
 40
0.0
 40
0.0
 40
0.0
 40
0.0
 40
1.0
 40
1.0
 40
2.0
 40
2.0
 40
3.0
 40
3.0
 40
3.0
 40
3.0
 10
-288.04280935993052
 20
106.20923631881141
 30
0.0
 10
-288.33352141775453
 20
107.4743655726875
 30
0.0
 10
-288.78322161130552
 20
108.6340101627229
 30
0.0
 10
-289.94672239366042
 20
110.6033999695704
 30
0.0
 10
-290.64856559841769
 20
111.3929056209134
 30
0.0
 10
-292.20835402082099
 20
112.4869524945443
 30
0.0
 10
-293.05026917687962
 20
112.7802501157696
 30
0.0
 10
-293.90377288153411
 20
112.80225280918491
 30
0.0
 11
-288.04280935993052
 21
106.20923631881141
 31
0.0
 11
-288.59475130619921
 21
108.01913357389866
 31
0.0
 11
-289.364972002483
 21
109.61870506614665
 31
0.0
 11
-290.3224119735421
 21
110.94344386191585
 31
0.0
 11
-291.42845980961931
 21
111.93992905772885
 31
0.0
 11
-292.63851278553193
 21
112.56797371223193
 31
0.0
 11
-293.90377288153411
 21
112.80225280918491
 31
0.0
  0
SPLINE
  5
2F8
100
AcDbEntity
  8
0
  6
CONTINUOUS
 62
             7
100
AcDbSpline
210
0.0
220
0.0
230
1.0
 70
             0
 71
             3
 72
            12
 73
             8
 74
             7
 42
0.00000000001
 43
0.00000000001
 44
0.00000000001
 40
0.0
 40
0.0
 40
0.0
 40
0.0
 40
1.0
 40
1.0
 40
2.0
 40
2.0
 40
3.0
 40
3.0
 40
3.0
 40
3.0
 10
-286.496788453205
 20
106.20923631881141
 30
0.0
 10
-286.79146658249101
 20
107.49162523871949
 30
0.0
 10
-287.24945700292852
 20
108.665446656976
 30
0.0
 10
-288.43571651848151
 20
110.6515409167796
 30
0.0
 10
-289.15145641262018
 20
111.442836751345
 30
0.0
 10
-290.74010001619661
 20
112.52457383288601
 30
0.0
 10
-291.59622456835149
 20
112.8035898384866
 30
0.0
 10
-292.46148798012501
 20
112.8035898384866
 30
0.0
 11
-286.496788453205
 21
106.20923631881141
 31
0.0
 11
-287.05776824627105
 21
108.04236822409696
 31
0.0
 11
-287.84258676070499
 21
109.6584937868778
 31
0.0
 11
-288.81873547105232
 21
110.99066651042089
 31
0.0
 11
-289.94577821440839
 21
111.9837052921155
 31
0.0
 11
-291.17702999352218
 21
112.59647326808998
 31
0.0
 11
-292.46148798012501
 21
112.8035898384866
 31
0.0
  0
SPLINE
  5
2F7
100
AcDbEntity
  8
0
  6
CONTINUOUS
 62
             7
100
AcDbSpline
210
0.0
220
0.0
230
1.0
 70
             0
 71
             3
 72
            12
 73
             8
 74
             7
 42
0.00000000001
 43
0.00000000001
 44
0.00000000001
 40
0.0
 40
0.0
 40
0.0
 40
0.0
 40
1.0
 40
1.0
 40
2.0
 40
2.0
 40
3.0
 40
3.0
 40
3.0
 40
3.0
 10
-280.40024367311088
 20
158.8035898384868
 30
0.0
 10
-279.06423342263372
 20
158.8035898384868
 30
0.0
 10
-277.74229776008849
 20
158.5252845218412
 30
0.0
 10
-275.28880549819792
 20
157.4462172927382
 30
0.0
 10
-274.18309592552629
 20
156.6568231273435
 30
0.0
 10
-272.3494442005325
 20
154.6751893070053
 30
0.0
 10
-271.64081918475989
 20
153.5038257489656
 30
0.0
 10
-271.18387676740718
 20
152.22379127174389
 30
0.0
 11
-280.40024367311088
 21
158.8035898384868
 31
0.0
 11
-278.41692360630259
 21
158.59699547834506
 31
0.0
 11
-276.5155516291432
 21
157.98575090728968
 31
0.0
 11
-274.77469074541813
 21
156.99510979808863
 31
0.0
 11
-273.26627006302942
 21
155.66600621717441
 31
0.0
 11
-272.05261712328922
 21
154.05335533210391
 31
0.0
 11
-271.18387676740718
 21
152.22379127174389
 31
0.0
  0
SPLINE
  5
2F6
100
AcDbEntity
  8
0
  6
CONTINUOUS
 62
             7
100
AcDbSpline
210
0.0
220
0.0
230
1.0
 70
             0
 71
             3
 72
            12
 73
             8
 74
             7
 42
0.00000000001
 43
0.00000000001
 44
0.00000000001
 40
0.0
 40
0.0
 40
0.0
 40
0.0
 40
1.0
 40
1.0
 40
2.0
 40
2.0
 40
3.0
 40
3.0
 40
3.0
 40
3.0
 10
-283.40036516117527
 20
158.8035898384868
 30
0.0
 10
-282.14187102356578
 20
158.8035898384868
 30
0.0
 10
-280.89663485788839
 20
158.5252845218412
 30
0.0
 10
-278.5854956827535
 20
157.4462172927382
 30
0.0
 10
-277.54394004004132
 20
156.6568231273435
 30
0.0
 10
-275.8166778835585
 20
154.6751893070053
 30
0.0
 10
-275.149167714535
 20
153.5038257489656
 30
0.0
 10
-274.71873736921532
 20
152.22379127174389
 30
0.0
 11
-283.40036516117527
 21
158.8035898384868
 31
0.0
 11
-281.53211850948236
 21
158.59699547834506
 31
0.0
 11
-279.74106527032097
 21
157.98575090728968
 31
0.0
 11
-278.10121017506316
 21
156.99510979808863
 31
0.0
 11
-276.68030896179994
 21
155.66600621717441
 31
0.0
 11
-275.53707289066199
 21
154.05335533210391
 31
0.0
 11
-274.71873736921532
 21
152.22379127174389
 31
0.0
  0
SPLINE
  5
2F5
100
AcDbEntity
  8
0
  6
CONTINUOUS
 62
             7
100
AcDbSpline
210
0.0
220
0.0
230
1.0
 70
             0
 71
             3
 72
            12
 73
             8
 74
             7
 42
0.00000000001
 43
0.00000000001
 44
0.00000000001
 40
0.0
 40
0.0
 40
0.0
 40
0.0
 40
1.0
 40
1.0
 40
2.0
 40
2.0
 40
3.0
 40
3.0
 40
3.0
 40
3.0
 10
-284.39534208532461
 20
158.8035898384868
 30
0.0
 10
-283.13684794771501
 20
158.8035898384868
 30
0.0
 10
-281.89161178203761
 20
158.5252845218412
 30
0.0
 10
-279.58047260690267
 20
157.4462172927382
 30
0.0
 10
-278.53891696419049
 20
156.6568231273435
 30
0.0
 10
-276.81165480770773
 20
154.6751893070053
 30
0.0
 10
-276.14414463868422
 20
153.5038257489656
 30
0.0
 10
-275.71371429336278
 20
152.2237912717446
 30
0.0
 11
-284.39534208532461
 21
158.8035898384868
 31
0.0
 11
-282.52709543363159
 21
158.59699547834506
 31
0.0
 11
-280.73604219447014
 21
157.98575090728968
 31
0.0
 11
-279.09618709921233
 21
156.99510979808863
 31
0.0
 11
-277.67528588594911
 21
155.66600621717441
 31
0.0
 11
-276.53204981481099
 21
154.05335533210399
 31
0.0
 11
-275.71371429336278
 21
152.2237912717446
 31
0.0
  0
SPLINE
  5
2F4
100
AcDbEntity
  8
0
  6
CONTINUOUS
 62
             7
100
AcDbSpline
210
0.0
220
0.0
230
1.0
 70
             0
 71
             3
 72
            12
 73
             8
 74
             7
 42
0.00000000001
 43
0.00000000001
 44
0.00000000001
 40
0.0
 40
0.0
 40
0.0
 40
0.0
 40
1.0
 40
1.0
 40
2.0
 40
2.0
 40
3.0
 40
3.0
 40
3.0
 40
3.0
 10
-279.89300883586901
 20
158.8035898384868
 30
0.0
 10
-278.55699858539168
 20
158.8035898384868
 30
0.0
 10
-277.23506292284662
 20
158.5252845218412
 30
0.0
 10
-274.78157066095599
 20
157.4462172927382
 30
0.0
 10
-273.67586108828442
 20
156.6568231273435
 30
0.0
 10
-271.84220936329058
 20
154.6751893070053
 30
0.0
 10
-271.13358434751802
 20
153.5038257489656
 30
0.0
 10
-270.67664193016532
 20
152.22379127174389
 30
0.0
 11
-279.89300883586901
 21
158.8035898384868
 31
0.0
 11
-277.90968876906066
 21
158.59699547834506
 31
0.0
 11
-276.00831679190128
 21
157.98575090728968
 31
0.0
 11
-274.26745590817626
 21
156.99510979808863
 31
0.0
 11
-272.7590352257875
 21
155.66600621717441
 31
0.0
 11
-271.54538228604736
 21
154.05335533210391
 31
0.0
 11
-270.67664193016532
 21
152.22379127174389
 31
0.0
  0
SPLINE
  5
2F3
100
AcDbEntity
  8
0
  6
CONTINUOUS
 62
             7
100
AcDbSpline
210
0.0
220
0.0
230
1.0
 70
             0
 71
             3
 72
            12
 73
             8
 74
             7
 42
0.00000000001
 43
0.00000000001
 44
0.00000000001
 40
0.0
 40
0.0
 40
0.0
 40
0.0
 40
1.0
 40
1.0
 40
2.0
 40
2.0
 40
3.0
 40
3.0
 40
3.0
 40
3.0
 10
-297.26827635674562
 20
158.8035898384868
 30
0.0
 10
-296.30506664436228
 20
158.8035898384868
 30
0.0
 10
-295.35200414438913
 20
158.5252845218412
 30
0.0
 10
-293.58313479996099
 20
157.44621729273811
 30
0.0
 10
-292.7859626232563
 20
156.6568231273435
 30
0.0
 10
-291.463973401982
 20
154.6751893070053
 30
0.0
 10
-290.95308323674101
 20
153.5038257489656
 30
0.0
 10
-290.62364611285892
 20
152.22379127174389
 30
0.0
 11
-297.26827635674562
 21
158.8035898384868
 31
0.0
 11
-295.83838227439685
 21
158.59699547834506
 31
0.0
 11
-294.46756947217506
 21
157.98575090728966
 31
0.0
 11
-293.21247871930575
 21
156.99510979808863
 31
0.0
 11
-292.12496801261915
 21
155.66600621717441
 31
0.0
 11
-291.24997300520585
 21
154.05335533210391
 31
0.0
 11
-290.62364611285892
 21
152.22379127174389
 31
0.0
  0
SPLINE
  5
2F2
100
AcDbEntity
  8
0
  6
CONTINUOUS
 62
             7
100
AcDbSpline
210
0.0
220
0.0
230
1.0
 70
             0
 71
             3
 72
            12
 73
             8
 74
             7
 42
0.00000000001
 43
0.00000000001
 44
0.00000000001
 40
0.0
 40
0.0
 40
0.0
 40
0.0
 40
1.0
 40
1.0
 40
2.0
 40
2.0
 40
3.0
 40
3.0
 40
3.0
 40
3.0
 10
-299.1067539878307
 20
158.8035898384868
 30
0.0
 10
-298.14354427544731
 20
158.8035898384868
 30
0.0
 10
-297.1904817754741
 20
158.5252845218412
 30
0.0
 10
-295.42161243104601
 20
157.44621729273811
 30
0.0
 10
-294.62444025434132
 20
156.6568231273435
 30
0.0
 10
-293.30245103306697
 20
154.6751893070053
 30
0.0
 10
-292.79156086782598
 20
153.5038257489656
 30
0.0
 10
-292.46212374394258
 20
152.2237912717446
 30
0.0
 11
-299.1067539878307
 21
158.8035898384868
 31
0.0
 11
-297.67685990548188
 21
158.59699547834506
 31
0.0
 11
-296.30604710326008
 21
157.98575090728966
 31
0.0
 11
-295.05095635039078
 21
156.99510979808863
 31
0.0
 11
-293.96344564370418
 21
155.66600621717441
 31
0.0
 11
-293.08845063629064
 21
154.05335533210399
 31
0.0
 11
-292.46212374394258
 21
152.2237912717446
 31
0.0
  0
SPLINE
  5
2F1
100
AcDbEntity
  8
0
  6
CONTINUOUS
 62
             7
100
AcDbSpline
210
0.0
220
0.0
230
1.0
 70
             0
 71
             3
 72
            12
 73
             8
 74
             7
 42
0.00000000001
 43
0.00000000001
 44
0.00000000001
 40
0.0
 40
0.0
 40
0.0
 40
0.0
 40
1.0
 40
1.0
 40
2.0
 40
2.0
 40
3.0
 40
3.0
 40
3.0
 40
3.0
 10
-289.26727502002592
 20
158.8035898384868
 30
0.0
 10
-288.13466021922068
 20
158.8035898384868
 30
0.0
 10
-287.01397727792153
 20
158.5252845218412
 30
0.0
 10
-284.93400697194102
 20
157.4462172927382
 30
0.0
 10
-283.99663165842628
 20
156.6568231273435
 30
0.0
 10
-282.4421367864685
 20
154.6751893070053
 30
0.0
 10
-281.84139350564561
 20
153.5038257489656
 30
0.0
 10
-281.45401642913993
 20
152.2237912717446
 30
0.0
 11
-289.26727502002592
 21
158.8035898384868
 31
0.0
 11
-287.58589745454793
 21
158.59699547834506
 31
0.0
 11
-285.97399212493127
 21
157.98575090728968
 31
0.0
 11
-284.49816152981009
 21
156.99510979808863
 31
0.0
 11
-283.21938422244739
 21
155.66600621717441
 31
0.0
 11
-282.19049894099123
 21
154.05335533210399
 31
0.0
 11
-281.45401642913993
 21
152.2237912717446
 31
0.0
  0
SPLINE
  5
2F0
100
AcDbEntity
  8
0
  6
CONTINUOUS
 62
             7
100
AcDbSpline
210
0.0
220
0.0
230
1.0
 70
             0
 71
             3
 72
            12
 73
             8
 74
             7
 42
0.00000000001
 43
0.00000000001
 44
0.00000000001
 40
0.0
 40
0.0
 40
0.0
 40
0.0
 40
1.0
 40
1.0
 40
2.0
 40
2.0
 40
3.0
 40
3.0
 40
3.0
 40
3.0
 10
-290.7117576258766
 20
158.8035898384868
 30
0.0
 10
-289.5791428250717
 20
158.8035898384868
 30
0.0
 10
-288.45845988377238
 20
158.5252845218412
 30
0.0
 10
-286.37848957779192
 20
157.4462172927382
 30
0.0
 10
-285.4411142642773
 20
156.6568231273435
 30
0.0
 10
-283.88661939231952
 20
154.6751893070053
 30
0.0
 10
-283.28587611149658
 20
153.5038257489656
 30
0.0
 10
-282.89849903499248
 20
152.22379127174389
 30
0.0
 11
-290.7117576258766
 21
158.8035898384868
 31
0.0
 11
-289.0303800603989
 21
158.59699547834506
 31
0.0
 11
-287.41847473078212
 21
157.98575090728968
 31
0.0
 11
-285.94264413566106
 21
156.99510979808863
 31
0.0
 11
-284.66386682829841
 21
155.66600621717441
 31
0.0
 11
-283.63498154684237
 21
154.05335533210391
 31
0.0
 11
-282.89849903499248
 21
152.22379127174389
 31
0.0
  0
SPLINE
  5
2EF
100
AcDbEntity
  8
0
  6
CONTINUOUS
 62
             7
100
AcDbSpline
210
0.0
220
0.0
230
1.0
 70
             0
 71
             3
 72
            12
 73
             8
 74
             7
 42
0.00000000001
 43
0.00000000001
 44
0.00000000001
 40
0.0
 40
0.0
 40
0.0
 40
0.0
 40
1.0
 40
1.0
 40
2.0
 40
2.0
 40
3.0
 40
3.0
 40
3.0
 40
3.0
 10
-275.33364042403127
 20
106.20923631881141
 30
0.0
 10
-275.60628382740128
 20
107.18296969661741
 30
0.0
 10
-275.99419981149703
 20
108.0960068896546
 30
0.0
 10
-276.97282322253341
 20
109.7353650258372
 30
0.0
 10
-277.55759425639042
 20
110.45174151620149
 30
0.0
 10
-278.87621713086548
 20
111.62663568773471
 30
0.0
 10
-279.60207011960262
 20
112.0780263846566
 30
0.0
 10
-280.36849883163842
 20
112.3772131622151
 30
0.0
 11
-275.33364042403127
 21
106.20923631881141
 31
0.0
 11
-275.82732535721766
 21
107.62023150442165
 31
0.0
 11
-276.48351151701524
 21
108.91568595774589
 31
0.0
 11
-277.2864587059268
 21
110.06452427322877
 31
0.0
 11
-278.21690569362795
 21
111.03918860196811
 31
0.0
 11
-279.25253328458388
 21
111.81629849766964
 31
0.0
 11
-280.36849883163842
 21
112.3772131622151
 31
0.0
  0
SPLINE
  5
2EE
100
AcDbEntity
  8
0
  6
CONTINUOUS
 62
             7
100
AcDbSpline
210
0.0
220
0.0
230
1.0
 70
             0
 71
             3
 72
            12
 73
             8
 74
             7
 42
0.00000000001
 43
0.00000000001
 44
0.00000000001
 40
0.0
 40
0.0
 40
0.0
 40
0.0
 40
1.0
 40
1.0
 40
2.0
 40
2.0
 40
3.0
 40
3.0
 40
3.0
 40
3.0
 10
-274.6382420686835
 20
107.8032485942628
 30
0.0
 10
-275.04027030400312
 20
108.7041377031822
 30
0.0
 10
-275.54849674251949
 20
109.51836491473961
 30
0.0
 10
-276.74066538757319
 20
110.9147296631273
 30
0.0
 10
-277.41731122400341
 20
111.4883210986562
 30
0.0
 10
-278.8828898166845
 20
112.34492381314119
 30
0.0
 10
-279.66285286560611
 20
112.62269246936469
 30
0.0
 10
-280.46184321468769
 20
112.7399046134702
 30
0.0
 11
-274.6382420686835
 21
107.8032485942628
 31
0.0
 11
-275.31864053416223
 21
109.08591296712021
 31
0.0
 11
-276.14458106504634
 21
110.21654728893346
 31
0.0
 11
-277.09607642751502
 21
111.16779025377284
 31
0.0
 11
-278.15010052034393
 21
111.9166224558987
 31
0.0
 11
-279.28114647273793
 21
112.44492198961082
 31
0.0
 11
-280.46184321468769
 21
112.7399046134702
 31
0.0
  0
SPLINE
  5
2ED
100
AcDbEntity
  8
0
  6
CONTINUOUS
 62
             7
100
AcDbSpline
210
0.0
220
0.0
230
1.0
 70
             0
 71
             3
 72
             8
 73
             4
 74
             3
 42
0.00000000001
 43
0.00000000001
 44
0.00000000001
 40
0.0
 40
0.0
 40
0.0
 40
0.0
 40
1.0
 40
1.0
 40
1.0
 40
1.0
 10
-274.06485385570397
 20
106.20923631881141
 30
0.0
 10
-274.21943639364889
 20
106.76132074470399
 30
0.0
 10
-274.41130719925661
 20
107.2947192564211
 30
0.0
 10
-274.6382420686835
 20
107.8032485942628
 30
0.0
 11
-274.06485385570397
 21
106.20923631881141
 31
0.0
 11
-274.32441583788801
 21
107.02257561455617
 31
0.0
 11
-274.6382420686835
 21
107.8032485942628
 31
0.0
  0
SPLINE
  5
2EC
100
AcDbEntity
  8
0
  6
CONTINUOUS
 62
             7
100
AcDbSpline
210
0.0
220
0.0
230
1.0
 70
             0
 71
             3
 72
            10
 73
             6
 74
             5
 42
0.00000000001
 43
0.00000000001
 44
0.00000000001
 40
0.0
 40
0.0
 40
0.0
 40
0.0
 40
1.0
 40
1.0
 40
2.0
 40
2.0
 40
2.0
 40
2.0
 10
-265.29402472945321
 20
106.20923631881141
 30
0.0
 10
-265.64039986047692
 20
107.2935309777514
 30
0.0
 10
-266.14957727163522
 20
108.30172275428561
 30
0.0
 10
-267.44849207120239
 20
110.0767104544102
 30
0.0
 10
-268.22844682798012
 20
110.83013825652969
 30
0.0
 10
-269.10439943723469
 20
111.4161738650084
 30
0.0
 11
-265.29402472945321
 21
106.20923631881141
 31
0.0
 11
-265.93287384965106
 21
107.77302676490879
 31
0.0
 11
-266.79903467141878
 21
109.18921660434791
 31
0.0
 11
-267.86678135077511
 21
110.41574207527199
 31
0.0
 11
-269.10439943723469
 21
111.4161738650084
 31
0.0
  0
SPLINE
  5
2EB
100
AcDbEntity
  8
0
  6
CONTINUOUS
 62
             7
100
AcDbSpline
210
0.0
220
0.0
230
1.0
 70
             0
 71
             3
 72
            10
 73
             6
 74
             5
 42
0.00000000001
 43
0.00000000001
 44
0.00000000001
 40
0.0
 40
0.0
 40
0.0
 40
0.0
 40
1.0
 40
1.0
 40
2.0
 40
2.0
 40
2.0
 40
2.0
 10
-264.35123125580122
 20
106.20923631881141
 30
0.0
 10
-264.77035936463432
 20
107.5212773088099
 30
0.0
 10
-265.42703275094141
 20
108.71933902198769
 30
0.0
 10
-267.13098114535859
 20
110.73335883857609
 30
0.0
 10
-268.15940935088742
 20
111.52704054323981
 30
0.0
 10
-269.29813173268462
 20
112.056335693286
 30
0.0
 11
-264.35123125580122
 21
106.20923631881141
 31
0.0
 11
-265.1528018188348
 21
108.08217928018577
 31
0.0
 11
-266.27900694815003
 21
109.72634893028189
 31
0.0
 11
-267.68103877119654
 21
111.07048534612694
 31
0.0
 11
-269.29813173268462
 21
112.056335693286
 31
0.0
  0
SPLINE
  5
2EA
100
AcDbEntity
  8
0
  6
CONTINUOUS
 62
             7
100
AcDbSpline
210
0.0
220
0.0
230
1.0
 70
             0
 71
             3
 72
             8
 73
             4
 74
             3
 42
0.00000000001
 43
0.00000000001
 44
0.00000000001
 40
0.0
 40
0.0
 40
0.0
 40
0.0
 40
1.0
 40
1.0
 40
1.0
 40
1.0
 10
-258.30977907705773
 20
106.20923631881141
 30
0.0
 10
-258.77152627062372
 20
107.5413762094808
 30
0.0
 10
-259.49889976825358
 20
108.75578512826171
 30
0.0
 10
-260.4436937871568
 20
109.771979619614
 30
0.0
 11
-258.30977907705773
 21
106.20923631881141
 31
0.0
 11
-259.1955938726058
 21
108.10908749395662
 31
0.0
 11
-260.4436937871568
 21
109.771979619614
 31
0.0
  0
SPLINE
  5
2E9
100
AcDbEntity
  8
0
  6
CONTINUOUS
 62
             7
100
AcDbSpline
210
0.0
220
0.0
230
1.0
 70
             0
 71
             3
 72
            10
 73
             6
 74
             5
 42
0.00000000001
 43
0.00000000001
 44
0.00000000001
 40
0.0
 40
0.0
 40
0.0
 40
0.0
 40
1.0
 40
1.0
 40
2.0
 40
2.0
 40
2.0
 40
2.0
 10
-257.72920972254877
 20
106.20923631881141
 30
0.0
 10
-258.02534692953941
 20
107.0635916717851
 30
0.0
 10
-258.43153620202298
 20
107.8717828981292
 30
0.0
 10
-259.44158591216149
 20
109.3512024225919
 30
0.0
 10
-260.04073537344561
 20
110.015530554954
 30
0.0
 10
-260.71746456852509
 20
110.58613234564319
 30
0.0
 11
-257.72920972254877
 21
106.20923631881141
 31
0.0
 11
-258.25455252179103
 21
107.45335658611437
 31
0.0
 11
-258.93656105709226
 21
108.61149266036054
 31
0.0
 11
-259.76262368530485
 21
109.66222799233017
 31
0.0
 11
-260.71746456852509
 21
110.58613234564319
 31
0.0
  0
SPLINE
  5
2E8
100
AcDbEntity
  8
0
  6
CONTINUOUS
 62
             7
100
AcDbSpline
210
0.0
220
0.0
230
1.0
 70
             0
 71
             3
 72
            11
 73
             7
 74
             5
 42
0.00000000001
 43
0.00000000001
 44
0.00000000001
 40
0.0
 40
0.0
 40
0.0
 40
0.0
 40
1.0693964522143971
 40
1.0693964522143971
 40
1.0693964522143971
 40
2.1387928321087402
 40
2.1387928321087402
 40
2.1387928321087402
 40
2.1387928321087402
 10
-257.36953348372242
 20
34.259456890408558
 30
0.0
 10
-257.71342444075299
 20
34.165613404116243
 30
0.0
 10
-258.05731594529442
 20
34.071771017295418
 30
0.0
 10
-258.40120752511308
 20
33.97792990355066
 30
0.0
 10
-258.74509856502942
 20
33.884088937134322
 30
0.0
 10
-259.08899178337532
 20
33.790248669881812
 30
0.0
 10
-259.43288346850528
 20
33.696410161513427
 30
0.0
 11
-257.36953348372242
 21
34.259456890408558
 31
0.0
 11
-257.88537027087222
 21
34.118692507274275
 31
0.0
 11
-258.40120752511308
 21
33.97792990355066
 31
0.0
 11
-258.91704525485409
 21
33.837169110764059
 31
0.0
 11
-259.43288346850528
 21
33.696410161513427
 31
0.0
  0
SPLINE
  5
2E7
100
AcDbEntity
  8
0
  6
CONTINUOUS
 62
             7
100
AcDbSpline
210
0.0
220
0.0
230
1.0
 70
             0
 71
             3
 72
            11
 73
             7
 74
             5
 42
0.00000000001
 43
0.00000000001
 44
0.00000000001
 40
0.0
 40
0.0
 40
0.0
 40
0.0
 40
0.7952906389023542
 40
0.7952906389023542
 40
0.7952906389023542
 40
1.590582559905088
 40
1.590582559905088
 40
1.590582559905088
 40
1.590582559905088
 10
-279.60837488061009
 20
33.696410161513427
 30
0.0
 10
-279.36044335260141
 20
33.790248457895423
 30
0.0
 10
-279.1125090389296
 20
33.884089149126453
 30
0.0
 10
-278.86457797609319
 20
33.97792990355066
 30
0.0
 10
-278.61664656510061
 20
34.071770789750417
 30
0.0
 10
-278.3687134048314
 20
34.165613631667163
 30
0.0
 10
-278.12078244284299
 20
34.259456890408558
 30
0.0
 11
-279.60837488061009
 21
33.696410161513427
 31
0.0
 11
-279.23647625391203
 21
33.837169110766212
 31
0.0
 11
-278.86457797609319
 21
33.97792990355066
 31
0.0
 11
-278.49268004109155
 21
34.118692507276492
 31
0.0
 11
-278.12078244284299
 21
34.259456890408558
 31
0.0
  0
SPLINE
  5
2E6
100
AcDbEntity
  8
0
  6
CONTINUOUS
 62
             7
100
AcDbSpline
210
0.0
220
0.0
230
1.0
 70
             0
 71
             3
 72
            11
 73
             7
 74
             5
 42
0.00000000001
 43
0.00000000001
 44
0.00000000001
 40
0.0
 40
0.0
 40
0.0
 40
0.0
 40
0.1162715990647223
 40
0.1162715990647223
 40
0.1162715990647223
 40
0.2325425854973057
 40
0.2325425854973057
 40
0.2325425854973057
 40
0.2325425854973057
 10
-323.02475694384339
 20
34.770836691056957
 30
0.0
 10
-323.04758595197569
 20
34.802155744963223
 30
0.0
 10
-323.07041682786831
 20
34.833477222139827
 30
0.0
 10
-323.0932458496377
 20
34.864796014873953
 30
0.0
 10
-323.11607527984489
 20
34.896115367937512
 30
0.0
 10
-323.1389053526234
 20
34.927435461741652
 30
0.0
 10
-323.16173479662848
 20
34.958754550548413
 30
0.0
 11
-323.02475694384339
 21
34.770836691056957
 31
0.0
 11
-323.05900139162657
 21
34.817816450904999
 31
0.0
 11
-323.0932458496377
 21
34.864796014873953
 31
0.0
 11
-323.12749031795886
 21
34.91177538180748
 31
0.0
 11
-323.16173479662848
 21
34.958754550548413
 31
0.0
  0
SPLINE
  5
2E5
100
AcDbEntity
  8
0
  6
CONTINUOUS
 62
             7
100
AcDbSpline
210
0.0
220
0.0
230
1.0
 70
             0
 71
             3
 72
            11
 73
             7
 74
             5
 42
0.00000000001
 43
0.00000000001
 44
0.00000000001
 40
0.0
 40
0.0
 40
0.0
 40
0.0
 40
0.3569069037180391
 40
0.3569069037180391
 40
0.3569069037180391
 40
0.7138137995507511
 40
0.7138137995507511
 40
0.7138137995507511
 40
0.7138137995507511
 10
-257.36953348372242
 20
34.770836691056957
 30
0.0
 10
-257.48430265787403
 20
34.802155744963613
 30
0.0
 10
-257.59908122199062
 20
34.833477222139443
 30
0.0
 10
-257.71385046469999
 20
34.864796014873953
 30
0.0
 10
-257.82861926201389
 20
34.896114686066653
 30
0.0
 10
-257.94339878589682
 20
34.927436143606712
 30
0.0
 10
-258.05816765257589
 20
34.958754550548413
 30
0.0
 11
-257.36953348372242
 21
34.770836691056957
 31
0.0
 11
-257.54169194850203
 21
34.817816450905013
 31
0.0
 11
-257.71385046469999
 21
34.864796014873953
 31
0.0
 11
-257.88600903262602
 21
34.911775381805306
 31
0.0
 11
-258.05816765257589
 21
34.958754550548413
 31
0.0
  0
SPLINE
  5
2E4
100
AcDbEntity
  8
0
  6
CONTINUOUS
 62
             7
100
AcDbSpline
210
0.0
220
0.0
230
1.0
 70
             0
 71
             3
 72
            11
 73
             7
 74
             5
 42
0.00000000001
 43
0.00000000001
 44
0.00000000001
 40
0.0
 40
0.0
 40
0.0
 40
0.0
 40
0.2164923048557109
 40
0.2164923048557109
 40
0.2164923048557109
 40
0.4329843732117141
 40
0.4329843732117141
 40
0.4329843732117141
 40
0.4329843732117141
 10
-298.37474627103012
 20
34.770836691056957
 30
0.0
 10
-298.43975923488449
 20
34.802156443013423
 30
0.0
 10
-298.50477317074359
 20
34.833476524095431
 30
0.0
 10
-298.56978617343373
 20
34.864796014873953
 30
0.0
 10
-298.63479747482921
 20
34.896114686067449
 30
0.0
 10
-298.69981485231858
 20
34.92743614360603
 30
0.0
 10
-298.76482619300651
 20
34.958754550548413
 30
0.0
 11
-298.37474627103012
 21
34.770836691056957
 31
0.0
 11
-298.4722662076685
 21
34.817816450907188
 31
0.0
 11
-298.56978617343373
 21
34.864796014873953
 31
0.0
 11
-298.66730616848537
 21
34.911775381805342
 31
0.0
 11
-298.76482619300651
 21
34.958754550548413
 31
0.0
  0
SPLINE
  5
2E3
100
AcDbEntity
  8
0
  6
CONTINUOUS
 62
             7
100
AcDbSpline
210
0.0
220
0.0
230
1.0
 70
             0
 71
             3
 72
            11
 73
             7
 74
             5
 42
0.00000000001
 43
0.00000000001
 44
0.00000000001
 40
0.0
 40
0.0
 40
0.0
 40
0.0
 40
0.3066475250331769
 40
0.3066475250331769
 40
0.3066475250331769
 40
0.6132949755653006
 40
0.6132949755653006
 40
0.6132949755653006
 40
0.6132949755653006
 10
-267.57990221704318
 20
34.770836691056957
 30
0.0
 10
-267.67720099339789
 20
34.802156443014212
 30
0.0
 10
-267.77450122441689
 20
34.833476524094749
 30
0.0
 10
-267.87180005889343
 20
34.864796014873953
 30
0.0
 10
-267.96909846553473
 20
34.896115367937462
 30
0.0
 10
-268.0663996107254
 20
34.927435461741823
 30
0.0
 10
-268.16369807617309
 20
34.958754550548413
 30
0.0
 11
-267.57990221704318
 21
34.770836691056957
 31
0.0
 11
-267.72585111617258
 21
34.817816450907223
 31
0.0
 11
-267.87180005889343
 21
34.864796014873953
 31
0.0
 11
-268.01774904548085
 21
34.91177538180753
 31
0.0
 11
-268.16369807617309
 21
34.958754550548413
 31
0.0
  0
SPLINE
  5
2E2
100
AcDbEntity
  8
0
  6
CONTINUOUS
 62
             7
100
AcDbSpline
210
0.0
220
0.0
230
1.0
 70
             0
 71
             3
 72
            11
 73
             7
 74
             5
 42
0.00000000001
 43
0.00000000001
 44
0.00000000001
 40
0.0
 40
0.0
 40
0.0
 40
0.0
 40
1.08890818506194
 40
1.08890818506194
 40
1.08890818506194
 40
2.177816369848518
 40
2.177816369848518
 40
2.177816369848518
 40
2.177816369848518
 10
-432.69488039698302
 20
33.696410161513427
 30
0.0
 10
-433.04550931852322
 20
33.790248669881919
 30
0.0
 10
-433.39613980331598
 20
33.884088937134322
 30
0.0
 10
-433.74676806700188
 20
33.97792990355066
 30
0.0
 10
-434.09739688117111
 20
34.071771017296442
 30
0.0
 10
-434.44802561857699
 20
34.16561340411522
 30
0.0
 10
-434.79865379775691
 20
34.259456890408558
 30
0.0
 11
-432.69488039698302
 21
33.696410161513427
 31
0.0
 11
-433.2208244786878
 21
33.837169110764101
 31
0.0
 11
-433.74676806700188
 21
33.97792990355066
 31
0.0
 11
-434.27271117050032
 21
34.118692507274275
 31
0.0
 11
-434.79865379775691
 21
34.259456890408558
 31
0.0
  0
SPLINE
  5
2E1
100
AcDbEntity
  8
0
  6
CONTINUOUS
 62
             7
100
AcDbSpline
210
0.0
220
0.0
230
1.0
 70
             0
 71
             3
 72
            11
 73
             7
 74
             5
 42
0.00000000001
 43
0.00000000001
 44
0.00000000001
 40
0.0
 40
0.0
 40
0.0
 40
0.0
 40
0.3634188604803003
 40
0.3634188604803003
 40
0.3634188604803003
 40
0.7268377209410439
 40
0.7268377209410439
 40
0.7268377209410439
 40
0.7268377209410439
 10
-434.09652848795372
 20
34.958754550548413
 30
0.0
 10
-434.21354835736588
 20
34.927435461740522
 30
0.0
 10
-434.33057144964869
 20
34.896115367938712
 30
0.0
 10
-434.44759124833519
 20
34.864796014873953
 30
0.0
 10
-434.56460895342963
 20
34.833477222141141
 30
0.0
 10
-434.68163616256328
 20
34.802155744961908
 30
0.0
 10
-434.79865379775691
 20
34.770836691056957
 30
0.0
 11
-434.09652848795372
 21
34.958754550548413
 31
0.0
 11
-434.2720598946666
 21
34.911775381807509
 31
0.0
 11
-434.44759124833519
 21
34.864796014873953
 31
0.0
 11
-434.62312254925888
 21
34.817816450905006
 31
0.0
 11
-434.79865379775691
 21
34.770836691056957
 31
0.0
  0
SPLINE
  5
2E0
100
AcDbEntity
  8
0
  6
CONTINUOUS
 62
             7
100
AcDbSpline
210
0.0
220
0.0
230
1.0
 70
             0
 71
             3
 72
             8
 73
             4
 74
             3
 42
0.00000000001
 43
0.00000000001
 44
0.00000000001
 40
0.0
 40
0.0
 40
0.0
 40
0.0
 40
1.0
 40
1.0
 40
1.0
 40
1.0
 10
-431.29022092294178
 20
106.20923631881141
 30
0.0
 10
-430.82847372937567
 20
107.5413762094808
 30
0.0
 10
-430.10110023174582
 20
108.75578512826171
 30
0.0
 10
-429.15630621284259
 20
109.771979619614
 30
0.0
 11
-431.29022092294178
 21
106.20923631881141
 31
0.0
 11
-430.4044061273936
 21
108.10908749395662
 31
0.0
 11
-429.15630621284259
 21
109.771979619614
 31
0.0
  0
SPLINE
  5
2DF
100
AcDbEntity
  8
0
  6
CONTINUOUS
 62
             7
100
AcDbSpline
210
0.0
220
0.0
230
1.0
 70
             0
 71
             3
 72
            10
 73
             6
 74
             5
 42
0.00000000001
 43
0.00000000001
 44
0.00000000001
 40
0.0
 40
0.0
 40
0.0
 40
0.0
 40
1.0
 40
1.0
 40
2.0
 40
2.0
 40
2.0
 40
2.0
 10
-431.87079027745068
 20
106.20923631881141
 30
0.0
 10
-431.57465307045999
 20
107.0635916717851
 30
0.0
 10
-431.16846379797641
 20
107.8717828981292
 30
0.0
 10
-430.15841408783791
 20
109.3512024225919
 30
0.0
 10
-429.55926462655378
 20
110.015530554954
 30
0.0
 10
-428.88253543147431
 20
110.58613234564319
 30
0.0
 11
-431.87079027745068
 21
106.20923631881141
 31
0.0
 11
-431.34544747820831
 21
107.45335658611437
 31
0.0
 11
-430.66343894290719
 21
108.61149266036054
 31
0.0
 11
-429.83737631469461
 21
109.66222799233017
 31
0.0
 11
-428.88253543147431
 21
110.58613234564319
 31
0.0
  0
SPLINE
  5
2DE
100
AcDbEntity
  8
0
  6
CONTINUOUS
 62
             7
100
AcDbSpline
210
0.0
220
0.0
230
1.0
 70
             0
 71
             3
 72
            11
 73
             7
 74
             5
 42
0.00000000001
 43
0.00000000001
 44
0.00000000001
 40
0.0
 40
0.0
 40
0.0
 40
0.0
 40
0.3066475250331996
 40
0.3066475250331996
 40
0.3066475250331996
 40
0.6132949755653232
 40
0.6132949755653232
 40
0.6132949755653232
 40
0.6132949755653232
 10
-422.02009778295621
 20
34.770836691056957
 30
0.0
 10
-421.92279900660373
 20
34.802156443013423
 30
0.0
 10
-421.82549877558012
 20
34.833476524095431
 30
0.0
 10
-421.72819994110603
 20
34.864796014873953
 30
0.0
 10
-421.63090153446342
 20
34.896115367937853
 30
0.0
 10
-421.53360038927508
 20
34.927435461741432
 30
0.0
 10
-421.43630192382642
 20
34.958754550548413
 30
0.0
 11
-422.02009778295621
 21
34.770836691056957
 31
0.0
 11
-421.87414888382671
 21
34.817816450907188
 31
0.0
 11
-421.72819994110603
 21
34.864796014873953
 31
0.0
 11
-421.58225095451849
 21
34.91177538180753
 31
0.0
 11
-421.43630192382642
 21
34.958754550548413
 31
0.0
  0
SPLINE
  5
2DD
100
AcDbEntity
  8
0
  6
CONTINUOUS
 62
             7
100
AcDbSpline
210
0.0
220
0.0
230
1.0
 70
             0
 71
             3
 72
            10
 73
             6
 74
             5
 42
0.00000000001
 43
0.00000000001
 44
0.00000000001
 40
0.0
 40
0.0
 40
0.0
 40
0.0
 40
1.0
 40
1.0
 40
2.0
 40
2.0
 40
2.0
 40
2.0
 10
-425.24876874419817
 20
106.20923631881141
 30
0.0
 10
-424.82964063536508
 20
107.5212773088099
 30
0.0
 10
-424.17296724905799
 20
108.71933902198769
 30
0.0
 10
-422.46901885464081
 20
110.73335883857609
 30
0.0
 10
-421.44059064911198
 20
111.52704054323981
 30
0.0
 10
-420.30186826731477
 20
112.056335693286
 30
0.0
 11
-425.24876874419817
 21
106.20923631881141
 31
0.0
 11
-424.44719818116459
 21
108.08217928018577
 31
0.0
 11
-423.32099305184943
 21
109.72634893028189
 31
0.0
 11
-421.9189612288028
 21
111.07048534612694
 31
0.0
 11
-420.30186826731477
 21
112.056335693286
 31
0.0
  0
SPLINE
  5
2DC
100
AcDbEntity
  8
0
  6
CONTINUOUS
 62
             7
100
AcDbSpline
210
0.0
220
0.0
230
1.0
 70
             0
 71
             3
 72
             8
 73
             4
 74
             3
 42
0.00000000001
 43
0.00000000001
 44
0.00000000001
 40
0.0
 40
0.0
 40
0.0
 40
0.0
 40
1.0
 40
1.0
 40
1.0
 40
1.0
 10
-415.53514614429548
 20
106.20923631881141
 30
0.0
 10
-415.38056360635051
 20
106.76132074470399
 30
0.0
 10
-415.18869280074313
 20
107.29471925642
 30
0.0
 10
-414.96175793131653
 20
107.80324859426131
 30
0.0
 11
-415.53514614429548
 21
106.20923631881141
 31
0.0
 11
-415.27558416211161
 21
107.02257561455559
 31
0.0
 11
-414.96175793131653
 21
107.80324859426131
 31
0.0
  0
SPLINE
  5
2DB
100
AcDbEntity
  8
0
  6
CONTINUOUS
 62
             7
100
AcDbSpline
210
0.0
220
0.0
230
1.0
 70
             0
 71
             3
 72
            12
 73
             8
 74
             7
 42
0.00000000001
 43
0.00000000001
 44
0.00000000001
 40
0.0
 40
0.0
 40
0.0
 40
0.0
 40
1.0
 40
1.0
 40
2.0
 40
2.0
 40
3.0
 40
3.0
 40
3.0
 40
3.0
 10
-409.7069911641305
 20
158.8035898384868
 30
0.0
 10
-411.04300141460772
 20
158.8035898384868
 30
0.0
 10
-412.36493707715277
 20
158.5252845218412
 30
0.0
 10
-414.8184293390434
 20
157.4462172927382
 30
0.0
 10
-415.92413891171498
 20
156.6568231273435
 30
0.0
 10
-417.75779063670882
 20
154.6751893070053
 30
0.0
 10
-418.46641565248137
 20
153.5038257489656
 30
0.0
 10
-418.92335806983419
 20
152.22379127174389
 30
0.0
 11
-409.7069911641305
 21
158.8035898384868
 31
0.0
 11
-411.69031123093879
 21
158.59699547834506
 31
0.0
 11
-413.59168320809806
 21
157.98575090728968
 31
0.0
 11
-415.33254409182314
 21
156.99510979808863
 31
0.0
 11
-416.8409647742119
 21
155.66600621717441
 31
0.0
 11
-418.0546177139521
 21
154.05335533210391
 31
0.0
 11
-418.92335806983419
 21
152.22379127174389
 31
0.0
  0
SPLINE
  5
2DA
100
AcDbEntity
  8
0
  6
CONTINUOUS
 62
             7
100
AcDbSpline
210
0.0
220
0.0
230
1.0
 70
             0
 71
             3
 72
            12
 73
             8
 74
             7
 42
0.00000000001
 43
0.00000000001
 44
0.00000000001
 40
0.0
 40
0.0
 40
0.0
 40
0.0
 40
1.0
 40
1.0
 40
2.0
 40
2.0
 40
3.0
 40
3.0
 40
3.0
 40
3.0
 10
-409.19975632688858
 20
158.8035898384868
 30
0.0
 10
-410.53576657736568
 20
158.8035898384868
 30
0.0
 10
-411.85770223991091
 20
158.5252845218412
 30
0.0
 10
-414.31119450180148
 20
157.4462172927382
 30
0.0
 10
-415.41690407447311
 20
156.6568231273435
 30
0.0
 10
-417.25055579946689
 20
154.6751893070053
 30
0.0
 10
-417.95918081523951
 20
153.5038257489656
 30
0.0
 10
-418.41612323259221
 20
152.22379127174389
 30
0.0
 11
-409.19975632688858
 21
158.8035898384868
 31
0.0
 11
-411.18307639369681
 21
158.59699547834506
 31
0.0
 11
-413.08444837085619
 21
157.98575090728968
 31
0.0
 11
-414.82530925458127
 21
156.99510979808863
 31
0.0
 11
-416.33372993697003
 21
155.66600621717441
 31
0.0
 11
-417.54738287671023
 21
154.05335533210391
 31
0.0
 11
-418.41612323259221
 21
152.22379127174389
 31
0.0
  0
SPLINE
  5
2D9
100
AcDbEntity
  8
0
  6
CONTINUOUS
 62
             7
100
AcDbSpline
210
0.0
220
0.0
230
1.0
 70
             0
 71
             3
 72
            10
 73
             6
 74
             5
 42
0.00000000001
 43
0.00000000001
 44
0.00000000001
 40
0.0
 40
0.0
 40
0.0
 40
0.0
 40
1.0
 40
1.0
 40
2.0
 40
2.0
 40
2.0
 40
2.0
 10
-424.30597527054618
 20
106.20923631881141
 30
0.0
 10
-423.95960013952248
 20
107.2935309777514
 30
0.0
 10
-423.45042272836417
 20
108.30172275428561
 30
0.0
 10
-422.151507928797
 20
110.0767104544102
 30
0.0
 10
-421.37155317201928
 20
110.83013825652969
 30
0.0
 10
-420.49560056276471
 20
111.4161738650084
 30
0.0
 11
-424.30597527054618
 21
106.20923631881141
 31
0.0
 11
-423.66712615034834
 21
107.77302676490879
 31
0.0
 11
-422.80096532858056
 21
109.18921660434791
 31
0.0
 11
-421.73321864922423
 21
110.41574207527199
 31
0.0
 11
-420.49560056276471
 21
111.4161738650084
 31
0.0
  0
SPLINE
  5
2D8
100
AcDbEntity
  8
0
  6
CONTINUOUS
 62
             7
100
AcDbSpline
210
0.0
220
0.0
230
1.0
 70
             0
 71
             3
 72
            12
 73
             8
 74
             7
 42
0.00000000001
 43
0.00000000001
 44
0.00000000001
 40
0.0
 40
0.0
 40
0.0
 40
0.0
 40
1.0
 40
1.0
 40
2.0
 40
2.0
 40
3.0
 40
3.0
 40
3.0
 40
3.0
 10
-414.26635957596818
 20
106.20923631881141
 30
0.0
 10
-413.99371617259811
 20
107.18296969661741
 30
0.0
 10
-413.60580018850243
 20
108.0960068896546
 30
0.0
 10
-412.62717677746599
 20
109.7353650258372
 30
0.0
 10
-412.04240574360898
 20
110.45174151620149
 30
0.0
 10
-410.72378286913391
 20
111.62663568773471
 30
0.0
 10
-409.99792988039678
 20
112.0780263846566
 30
0.0
 10
-409.23150116836098
 20
112.3772131622151
 30
0.0
 11
-414.26635957596818
 21
106.20923631881141
 31
0.0
 11
-413.77267464278174
 21
107.62023150442165
 31
0.0
 11
-413.11648848298421
 21
108.91568595774589
 31
0.0
 11
-412.31354129407259
 21
110.06452427322877
 31
0.0
 11
-411.38309430637145
 21
111.03918860196811
 31
0.0
 11
-410.34746671541552
 21
111.81629849766964
 31
0.0
 11
-409.23150116836098
 21
112.3772131622151
 31
0.0
  0
SPLINE
  5
2D7
100
AcDbEntity
  8
0
  6
CONTINUOUS
 62
             7
100
AcDbSpline
210
0.0
220
0.0
230
1.0
 70
             0
 71
             3
 72
             8
 73
             4
 74
             3
 42
0.00000000001
 43
0.00000000001
 44
0.00000000001
 40
0.0
 40
0.0
 40
0.0
 40
0.0
 40
1.0
 40
1.0
 40
1.0
 40
1.0
 10
-414.96175793131653
 20
107.80324859426131
 30
0.0
 10
-414.9617071698483
 20
107.8033623436198
 30
0.0
 10
-414.96165640663378
 20
107.80347609171569
 30
0.0
 10
-414.961605641701
 20
107.8035898384866
 30
0.0
 11
-414.96175793131653
 21
107.80324859426131
 31
0.0
 11
-414.96168178780795
 21
107.80341921734428
 31
0.0
 11
-414.961605641701
 21
107.8035898384866
 31
0.0
  0
SPLINE
  5
2D6
100
AcDbEntity
  8
0
  6
CONTINUOUS
 62
             7
100
AcDbSpline
210
0.0
220
0.0
230
1.0
 70
             0
 71
             3
 72
            12
 73
             8
 74
             7
 42
0.00000000001
 43
0.00000000001
 44
0.00000000001
 40
0.0
 40
0.0
 40
0.0
 40
0.0
 40
1.0
 40
1.0
 40
2.0
 40
2.0
 40
3.0
 40
3.0
 40
3.0
 40
3.0
 10
-414.961605641701
 20
107.8035898384866
 30
0.0
 10
-414.55956699110237
 20
108.7044203077435
 30
0.0
 10
-414.05134166436733
 20
109.51859104140961
 30
0.0
 10
-412.85919514730261
 20
110.9148561510075
 30
0.0
 10
-412.18256957043923
 20
111.4884057630278
 30
0.0
 10
-410.71704433931097
 20
112.34494730481281
 30
0.0
 10
-409.93711330212318
 20
112.62269743256969
 30
0.0
 10
-409.13815678531171
 20
112.7399046134702
 30
0.0
 11
-414.961605641701
 21
107.8035898384866
 31
0.0
 11
-414.28120000174317
 21
109.08616843526931
 31
0.0
 11
-413.455268405835
 21
110.21672359620855
 31
0.0
 11
-412.50379618924194
 21
111.16789823402935
 31
0.0
 11
-411.4498069548751
 21
111.91667653392031
 31
0.0
 11
-410.31880458306119
 21
112.44493941994226
 31
0.0
 11
-409.13815678531171
 21
112.7399046134702
 31
0.0
  0
SPLINE
  5
2D5
100
AcDbEntity
  8
0
  6
CONTINUOUS
 62
             7
100
AcDbSpline
210
0.0
220
0.0
230
1.0
 70
             0
 71
             3
 72
            12
 73
             8
 74
             7
 42
0.00000000001
 43
0.00000000001
 44
0.00000000001
 40
0.0
 40
0.0
 40
0.0
 40
0.0
 40
1.0
 40
1.0
 40
2.0
 40
2.0
 40
3.0
 40
3.0
 40
3.0
 40
3.0
 10
-406.19963483882412
 20
158.8035898384868
 30
0.0
 10
-407.45812897643361
 20
158.8035898384868
 30
0.0
 10
-408.70336514211101
 20
158.5252845218412
 30
0.0
 10
-411.01450431724589
 20
157.4462172927382
 30
0.0
 10
-412.05605995995808
 20
156.6568231273435
 30
0.0
 10
-413.7833221164409
 20
154.6751893070053
 30
0.0
 10
-414.4508322854644
 20
153.5038257489656
 30
0.0
 10
-414.88126263078578
 20
152.2237912717446
 30
0.0
 11
-406.19963483882412
 21
158.8035898384868
 31
0.0
 11
-408.06788149051704
 21
158.59699547834506
 31
0.0
 11
-409.85893472967848
 21
157.98575090728968
 31
0.0
 11
-411.49878982493624
 21
156.99510979808863
 31
0.0
 11
-412.91969103819952
 21
155.66600621717441
 31
0.0
 11
-414.06292710933764
 21
154.05335533210399
 31
0.0
 11
-414.88126263078578
 21
152.2237912717446
 31
0.0
  0
SPLINE
  5
2D4
100
AcDbEntity
  8
0
  6
CONTINUOUS
 62
             7
100
AcDbSpline
210
0.0
220
0.0
230
1.0
 70
             0
 71
             3
 72
            12
 73
             8
 74
             7
 42
0.00000000001
 43
0.00000000001
 44
0.00000000001
 40
0.0
 40
0.0
 40
0.0
 40
0.0
 40
1.0
 40
1.0
 40
2.0
 40
2.0
 40
3.0
 40
3.0
 40
3.0
 40
3.0
 10
-405.2046579146749
 20
158.8035898384868
 30
0.0
 10
-406.46315205228439
 20
158.8035898384868
 30
0.0
 10
-407.70838821796178
 20
158.5252845218412
 30
0.0
 10
-410.01952739309672
 20
157.4462172927382
 30
0.0
 10
-411.06108303580891
 20
156.6568231273435
 30
0.0
 10
-412.78834519229167
 20
154.6751893070053
 30
0.0
 10
-413.45585536131517
 20
153.5038257489656
 30
0.0
 10
-413.88628570663673
 20
152.2237912717446
 30
0.0
 11
-405.2046579146749
 21
158.8035898384868
 31
0.0
 11
-407.07290456636781
 21
158.59699547834506
 31
0.0
 11
-408.86395780552925
 21
157.98575090728968
 31
0.0
 11
-410.50381290078701
 21
156.99510979808863
 31
0.0
 11
-411.92471411405029
 21
155.66600621717441
 31
0.0
 11
-413.06795018518847
 21
154.05335533210399
 31
0.0
 11
-413.88628570663673
 21
152.2237912717446
 31
0.0
  0
SPLINE
  5
2D3
100
AcDbEntity
  8
0
  6
CONTINUOUS
 62
             7
100
AcDbSpline
210
0.0
220
0.0
230
1.0
 70
             0
 71
             3
 72
            12
 73
             8
 74
             7
 42
0.00000000001
 43
0.00000000001
 44
0.00000000001
 40
0.0
 40
0.0
 40
0.0
 40
0.0
 40
1.0
 40
1.0
 40
2.0
 40
2.0
 40
3.0
 40
3.0
 40
3.0
 40
3.0
 10
-368.82545161461638
 20
158.8035898384868
 30
0.0
 10
-369.3467369545811
 20
158.8035898384868
 30
0.0
 10
-369.8625306627622
 20
158.5252845218412
 30
0.0
 10
-370.8198358536348
 20
157.44621729273811
 30
0.0
 10
-371.25126232681248
 20
156.6568231273435
 30
0.0
 10
-371.9667177378015
 20
154.6751893070053
 30
0.0
 10
-372.24320950283288
 20
153.5038257489656
 30
0.0
 10
-372.421499589522
 20
152.2237912717446
 30
0.0
 11
-368.82545161461638
 21
158.8035898384868
 31
0.0
 11
-369.59930471560557
 21
158.59699547834506
 31
0.0
 11
-370.3411832581985
 21
157.98575090728966
 31
0.0
 11
-371.02043347898092
 21
156.99510979808863
 31
0.0
 11
-371.60899003230702
 21
155.66600621717441
 31
0.0
 11
-372.08253391796654
 21
154.05335533210399
 31
0.0
 11
-372.421499589522
 21
152.2237912717446
 31
0.0
  0
SPLINE
  5
2D2
100
AcDbEntity
  8
0
  6
CONTINUOUS
 62
             7
100
AcDbSpline
210
0.0
220
0.0
230
1.0
 70
             0
 71
             3
 72
            12
 73
             8
 74
             7
 42
0.00000000001
 43
0.00000000001
 44
0.00000000001
 40
0.0
 40
0.0
 40
0.0
 40
0.0
 40
1.0
 40
1.0
 40
2.0
 40
2.0
 40
3.0
 40
3.0
 40
3.0
 40
3.0
 10
-400.33272497997359
 20
158.8035898384868
 30
0.0
 10
-401.46533978077872
 20
158.8035898384868
 30
0.0
 10
-402.58602272207793
 20
158.5252845218412
 30
0.0
 10
-404.66599302805838
 20
157.4462172927382
 30
0.0
 10
-405.60336834157312
 20
156.6568231273435
 30
0.0
 10
-407.1578632135309
 20
154.6751893070053
 30
0.0
 10
-407.75860649435378
 20
153.5038257489656
 30
0.0
 10
-408.14598357085788
 20
152.22379127174389
 30
0.0
 11
-400.33272497997359
 21
158.8035898384868
 31
0.0
 11
-402.01410254545146
 21
158.59699547834506
 31
0.0
 11
-403.62600787506813
 21
157.98575090728968
 31
0.0
 11
-405.10183847018931
 21
156.99510979808863
 31
0.0
 11
-406.38061577755201
 21
155.66600621717441
 31
0.0
 11
-407.40950105900794
 21
154.05335533210391
 31
0.0
 11
-408.14598357085788
 21
152.22379127174389
 31
0.0
  0
SPLINE
  5
2D1
100
AcDbEntity
  8
0
  6
CONTINUOUS
 62
             7
100
AcDbSpline
210
0.0
220
0.0
230
1.0
 70
             0
 71
             3
 72
            12
 73
             8
 74
             7
 42
0.00000000001
 43
0.00000000001
 44
0.00000000001
 40
0.0
 40
0.0
 40
0.0
 40
0.0
 40
1.0
 40
1.0
 40
2.0
 40
2.0
 40
3.0
 40
3.0
 40
3.0
 40
3.0
 10
-371.22753839914571
 20
158.8035898384868
 30
0.0
 10
-371.74882373911049
 20
158.8035898384868
 30
0.0
 10
-372.26461744729158
 20
158.5252845218412
 30
0.0
 10
-373.22192263816419
 20
157.4462172927382
 30
0.0
 10
-373.65334911134181
 20
156.6568231273435
 30
0.0
 10
-374.36880452233078
 20
154.6751893070053
 30
0.0
 10
-374.64529628736233
 20
153.5038257489656
 30
0.0
 10
-374.82358637405071
 20
152.22379127174389
 30
0.0
 11
-371.22753839914571
 21
158.8035898384868
 31
0.0
 11
-372.00139150013496
 21
158.59699547834506
 31
0.0
 11
-372.74327004272789
 21
157.98575090728968
 31
0.0
 11
-373.42252026351031
 21
156.99510979808863
 31
0.0
 11
-374.01107681683629
 21
155.66600621717441
 31
0.0
 11
-374.48462070249576
 21
154.05335533210391
 31
0.0
 11
-374.82358637405071
 21
152.22379127174389
 31
0.0
  0
SPLINE
  5
2D0
100
AcDbEntity
  8
0
  6
CONTINUOUS
 62
             7
100
AcDbSpline
210
0.0
220
0.0
230
1.0
 70
             0
 71
             3
 72
            12
 73
             8
 74
             7
 42
0.00000000001
 43
0.00000000001
 44
0.00000000001
 40
0.0
 40
0.0
 40
0.0
 40
0.0
 40
1.0
 40
1.0
 40
2.0
 40
2.0
 40
3.0
 40
3.0
 40
3.0
 40
3.0
 10
-382.50410482302129
 20
158.8035898384868
 30
0.0
 10
-383.26089383791037
 20
158.8035898384868
 30
0.0
 10
-384.00971023916708
 20
158.5252845218412
 30
0.0
 10
-385.39950196512967
 20
157.4462172927382
 30
0.0
 10
-386.02583612533311
 20
156.6568231273435
 30
0.0
 10
-387.06451639153039
 20
154.6751893070053
 30
0.0
 10
-387.46592021864979
 20
153.5038257489656
 30
0.0
 10
-387.7247573059895
 20
152.22379127174389
 30
0.0
 11
-382.50410482302129
 21
158.8035898384868
 31
0.0
 11
-383.62756539455023
 21
158.59699547834506
 31
0.0
 11
-384.70460610214838
 21
157.98575090728968
 31
0.0
 11
-385.69072457899608
 21
156.99510979808863
 31
0.0
 11
-386.54517625843175
 21
155.66600621717441
 31
0.0
 11
-387.23265542437019
 21
154.05335533210391
 31
0.0
 11
-387.7247573059895
 21
152.22379127174389
 31
0.0
  0
SPLINE
  5
2CF
100
AcDbEntity
  8
0
  6
CONTINUOUS
 62
             7
100
AcDbSpline
210
0.0
220
0.0
230
1.0
 70
             0
 71
             3
 72
            12
 73
             8
 74
             7
 42
0.00000000001
 43
0.00000000001
 44
0.00000000001
 40
0.0
 40
0.0
 40
0.0
 40
0.0
 40
1.0
 40
1.0
 40
2.0
 40
2.0
 40
3.0
 40
3.0
 40
3.0
 40
3.0
 10
-380.34228383103471
 20
158.8035898384868
 30
0.0
 10
-381.09907284592379
 20
158.8035898384868
 30
0.0
 10
-381.84788924718049
 20
158.5252845218412
 30
0.0
 10
-383.23768097314309
 20
157.4462172927382
 30
0.0
 10
-383.86401513334653
 20
156.6568231273435
 30
0.0
 10
-384.9026953995438
 20
154.6751893070053
 30
0.0
 10
-385.3040992266632
 20
153.5038257489656
 30
0.0
 10
-385.56293631400291
 20
152.22379127174389
 30
0.0
 11
-380.34228383103471
 21
158.8035898384868
 31
0.0
 11
-381.4657444025637
 21
158.59699547834506
 31
0.0
 11
-382.54278511016179
 21
157.98575090728968
 31
0.0
 11
-383.52890358700944
 21
156.99510979808863
 31
0.0
 11
-384.38335526644516
 21
155.66600621717441
 31
0.0
 11
-385.07083443238361
 21
154.05335533210391
 31
0.0
 11
-385.56293631400291
 21
152.22379127174389
 31
0.0
  0
SPLINE
  5
2CE
100
AcDbEntity
  8
0
  6
CONTINUOUS
 62
             7
100
AcDbSpline
210
0.0
220
0.0
230
1.0
 70
             0
 71
             3
 72
            12
 73
             8
 74
             7
 42
0.00000000001
 43
0.00000000001
 44
0.00000000001
 40
0.0
 40
0.0
 40
0.0
 40
0.0
 40
1.0
 40
1.0
 40
2.0
 40
2.0
 40
3.0
 40
3.0
 40
3.0
 40
3.0
 10
-392.33172364325361
 20
158.8035898384868
 30
0.0
 10
-393.29493335563711
 20
158.8035898384868
 30
0.0
 10
-394.24799585561033
 20
158.5252845218412
 30
0.0
 10
-396.01686520003841
 20
157.44621729273811
 30
0.0
 10
-396.8140373767431
 20
156.6568231273435
 30
0.0
 10
-398.13602659801739
 20
154.6751893070053
 30
0.0
 10
-398.64691676325839
 20
153.5038257489656
 30
0.0
 10
-398.97635388714048
 20
152.22379127174381
 30
0.0
 11
-392.33172364325361
 21
158.8035898384868
 31
0.0
 11
-393.76161772560255
 21
158.59699547834506
 31
0.0
 11
-395.13243052782434
 21
157.98575090728966
 31
0.0
 11
-396.38752128069365
 21
156.99510979808863
 31
0.0
 11
-397.47503198738025
 21
155.66600621717441
 31
0.0
 11
-398.35002699479355
 21
154.05335533210388
 31
0.0
 11
-398.97635388714048
 21
152.22379127174381
 31
0.0
  0
SPLINE
  5
2CD
100
AcDbEntity
  8
0
  6
CONTINUOUS
 62
             7
100
AcDbSpline
210
0.0
220
0.0
230
1.0
 70
             0
 71
             3
 72
            12
 73
             8
 74
             7
 42
0.00000000001
 43
0.00000000001
 44
0.00000000001
 40
0.0
 40
0.0
 40
0.0
 40
0.0
 40
1.0
 40
1.0
 40
2.0
 40
2.0
 40
3.0
 40
3.0
 40
3.0
 40
3.0
 10
-390.49324601216858
 20
158.8035898384868
 30
0.0
 10
-391.45645572455209
 20
158.8035898384868
 30
0.0
 10
-392.4095182245253
 20
158.5252845218412
 30
0.0
 10
-394.17838756895338
 20
157.44621729273811
 30
0.0
 10
-394.97555974565807
 20
156.6568231273435
 30
0.0
 10
-396.29754896693242
 20
154.6751893070053
 30
0.0
 10
-396.80843913217342
 20
153.5038257489656
 30
0.0
 10
-397.13787625605539
 20
152.22379127174381
 30
0.0
 11
-390.49324601216858
 21
158.8035898384868
 31
0.0
 11
-391.92314009451746
 21
158.59699547834506
 31
0.0
 11
-393.29395289673937
 21
157.98575090728966
 31
0.0
 11
-394.54904364960862
 21
156.99510979808863
 31
0.0
 11
-395.63655435629528
 21
155.66600621717441
 31
0.0
 11
-396.51154936370853
 21
154.05335533210388
 31
0.0
 11
-397.13787625605539
 21
152.22379127174381
 31
0.0
  0
SPLINE
  5
2CC
100
AcDbEntity
  8
0
  6
CONTINUOUS
 62
             7
100
AcDbSpline
210
0.0
220
0.0
230
1.0
 70
             0
 71
             3
 72
            12
 73
             8
 74
             7
 42
0.00000000001
 43
0.00000000001
 44
0.00000000001
 40
0.0
 40
0.0
 40
0.0
 40
0.0
 40
1.0
 40
1.0
 40
2.0
 40
2.0
 40
3.0
 40
3.0
 40
3.0
 40
3.0
 10
-398.88824237412263
 20
158.8035898384868
 30
0.0
 10
-400.0208571749277
 20
158.8035898384868
 30
0.0
 10
-401.14154011622702
 20
158.5252845218412
 30
0.0
 10
-403.22151042220747
 20
157.4462172927382
 30
0.0
 10
-404.15888573572209
 20
156.6568231273435
 30
0.0
 10
-405.71338060767988
 20
154.6751893070053
 30
0.0
 10
-406.31412388850282
 20
153.5038257489656
 30
0.0
 10
-406.70150096500703
 20
152.22379127174389
 30
0.0
 11
-398.88824237412263
 21
158.8035898384868
 31
0.0
 11
-400.5696199396005
 21
158.59699547834506
 31
0.0
 11
-402.18152526921722
 21
157.98575090728968
 31
0.0
 11
-403.6573558643384
 21
156.99510979808863
 31
0.0
 11
-404.93613317170099
 21
155.66600621717441
 31
0.0
 11
-405.96501845315703
 21
154.05335533210391
 31
0.0
 11
-406.70150096500703
 21
152.22379127174389
 31
0.0
  0
SPLINE
  5
2CB
100
AcDbEntity
  8
0
  6
CONTINUOUS
 62
             7
100
AcDbSpline
210
0.0
220
0.0
230
1.0
 70
             0
 71
             3
 72
            12
 73
             8
 74
             7
 42
0.00000000001
 43
0.00000000001
 44
0.00000000001
 40
0.0
 40
0.0
 40
0.0
 40
0.0
 40
1.0
 40
1.0
 40
2.0
 40
2.0
 40
3.0
 40
3.0
 40
3.0
 40
3.0
 10
-356.3853347662768
 20
158.8035898384868
 30
0.0
 10
-356.65108372804258
 20
158.8035898384868
 30
0.0
 10
-356.91403308020313
 20
158.5252845218412
 30
0.0
 10
-357.40206303436338
 20
157.4462172927382
 30
0.0
 10
-357.6220023430979
 20
156.6568231273435
 30
0.0
 10
-357.98673834866622
 20
154.6751893070053
 30
0.0
 10
-358.12769262813788
 20
153.5038257489656
 30
0.0
 10
-358.21858412612983
 20
152.22379127174389
 30
0.0
 11
-356.3853347662768
 21
158.8035898384868
 31
0.0
 11
-356.77984165603715
 21
158.59699547834506
 31
0.0
 11
-357.15804805728328
 21
157.98575090728968
 31
0.0
 11
-357.50432681694366
 21
156.99510979808863
 31
0.0
 11
-357.80437034588203
 21
155.66600621717441
 31
0.0
 11
-358.04578092530301
 21
154.05335533210391
 31
0.0
 11
-358.21858412612983
 21
152.22379127174389
 31
0.0
  0
SPLINE
  5
2CA
100
AcDbEntity
  8
0
  6
CONTINUOUS
 62
             7
100
AcDbSpline
210
0.0
220
0.0
230
1.0
 70
             0
 71
             3
 72
            12
 73
             8
 74
             7
 42
0.00000000001
 43
0.00000000001
 44
0.00000000001
 40
0.0
 40
0.0
 40
0.0
 40
0.0
 40
1.0
 40
1.0
 40
2.0
 40
2.0
 40
3.0
 40
3.0
 40
3.0
 40
3.0
 10
-358.93537649532522
 20
158.8035898384868
 30
0.0
 10
-359.201125457091
 20
158.8035898384868
 30
0.0
 10
-359.46407480925149
 20
158.5252845218412
 30
0.0
 10
-359.9521047634118
 20
157.4462172927382
 30
0.0
 10
-360.17204407214632
 20
156.6568231273435
 30
0.0
 10
-360.53678007771458
 20
154.6751893070053
 30
0.0
 10
-360.6777343571863
 20
153.5038257489656
 30
0.0
 10
-360.76862585517819
 20
152.22379127174389
 30
0.0
 11
-358.93537649532522
 21
158.8035898384868
 31
0.0
 11
-359.32988338508551
 21
158.59699547834506
 31
0.0
 11
-359.70808978633164
 21
157.98575090728968
 31
0.0
 11
-360.05436854599208
 21
156.99510979808863
 31
0.0
 11
-360.35441207493045
 21
155.66600621717441
 31
0.0
 11
-360.59582265435142
 21
154.05335533210391
 31
0.0
 11
-360.76862585517819
 21
152.22379127174389
 31
0.0
  0
SPLINE
  5
2C9
100
AcDbEntity
  8
0
  6
CONTINUOUS
 62
             7
100
AcDbSpline
210
0.0
220
0.0
230
1.0
 70
             0
 71
             3
 72
             8
 73
             4
 74
             3
 42
0.00000000001
 43
0.00000000001
 44
0.00000000001
 40
0.0
 40
0.0
 40
0.0
 40
0.0
 40
1.0
 40
1.0
 40
1.0
 40
1.0
 10
-372.0815189113199
 20
106.20923631881141
 30
0.0
 10
-372.02345630851602
 20
106.761444476101
 30
0.0
 10
-371.95138478077843
 20
107.2949581013247
 30
0.0
 10
-371.86614016842748
 20
107.8035898384866
 30
0.0
 11
-372.0815189113199
 21
106.20923631881141
 31
0.0
 11
-371.98402279345385
 21
107.02275423619689
 31
0.0
 11
-371.86614016842748
 21
107.8035898384866
 31
0.0
  0
SPLINE
  5
2C8
100
AcDbEntity
  8
0
  6
CONTINUOUS
 62
             7
100
AcDbSpline
210
0.0
220
0.0
230
1.0
 70
             0
 71
             3
 72
            12
 73
             8
 74
             7
 42
0.00000000001
 43
0.00000000001
 44
0.00000000001
 40
0.0
 40
0.0
 40
0.0
 40
0.0
 40
1.0
 40
1.0
 40
2.0
 40
2.0
 40
3.0
 40
3.0
 40
3.0
 40
3.0
 10
-371.86614016842748
 20
107.8035898384866
 30
0.0
 10
-371.69682963943791
 20
108.81382035164989
 30
0.0
 10
-371.47751383810828
 20
109.7142137055785
 30
0.0
 10
-370.95871627853239
 20
111.21385483377411
 30
0.0
 10
-370.6632328987339
 20
111.8015448575166
 30
0.0
 10
-370.02683347988273
 20
112.59948723517481
 30
0.0
 10
-369.69082217808921
 20
112.8035898384866
 30
0.0
 10
-369.35220112011018
 20
112.8035898384866
 30
0.0
 11
-371.86614016842748
 21
107.8035898384866
 31
0.0
 11
-371.5759107074233
 21
109.23146578498101
 31
0.0
 11
-371.21811505832034
 21
110.4640342696763
 31
0.0
 11
-370.80362447242845
 21
111.46384367373676
 31
0.0
 11
-370.34503318930831
 21
112.20051604634571
 31
0.0
 11
-369.85627516041677
 21
112.65166713822707
 31
0.0
 11
-369.35220112011018
 21
112.8035898384866
 31
0.0
  0
SPLINE
  5
2C7
100
AcDbEntity
  8
0
  6
CONTINUOUS
 62
             7
100
AcDbSpline
210
0.0
220
0.0
230
1.0
 70
             0
 71
             3
 72
            12
 73
             8
 74
             7
 42
0.00000000001
 43
0.00000000001
 44
0.00000000001
 40
0.0
 40
0.0
 40
0.0
 40
0.0
 40
1.0
 40
1.0
 40
2.0
 40
2.0
 40
3.0
 40
3.0
 40
3.0
 40
3.0
 10
-370.16763823985548
 20
106.20923631881141
 30
0.0
 10
-370.03279988675638
 20
107.49162523871949
 30
0.0
 10
-369.82323335334399
 20
108.665446656976
 30
0.0
 10
-369.28042659733251
 20
110.6515409167796
 30
0.0
 10
-368.95291946673268
 20
111.442836751345
 30
0.0
 10
-368.22599043509189
 20
112.52457383288601
 30
0.0
 10
-367.83424631434582
 20
112.8035898384866
 30
0.0
 10
-367.43832044864581
 20
112.8035898384866
 30
0.0
 11
-370.16763823985548
 21
106.20923631881141
 31
0.0
 11
-369.91094599193684
 21
108.04236822409696
 31
0.0
 11
-369.55182997533825
 21
109.6584937868778
 31
0.0
 11
-369.10516538980579
 21
110.99066651042089
 31
0.0
 11
-368.58945495091228
 21
111.9837052921155
 31
0.0
 11
-368.02606070598392
 21
112.59647326808998
 31
0.0
 11
-367.43832044864581
 21
112.8035898384866
 31
0.0
  0
SPLINE
  5
2C6
100
AcDbEntity
  8
0
  6
CONTINUOUS
 62
             7
100
AcDbSpline
210
0.0
220
0.0
230
1.0
 70
             0
 71
             3
 72
            12
 73
             8
 74
             7
 42
0.00000000001
 43
0.00000000001
 44
0.00000000001
 40
0.0
 40
0.0
 40
0.0
 40
0.0
 40
1.0
 40
1.0
 40
2.0
 40
2.0
 40
3.0
 40
3.0
 40
3.0
 40
3.0
 10
-402.63251902063388
 20
107.8035898384866
 30
0.0
 10
-402.26250478652059
 20
108.81382035164989
 30
0.0
 10
-401.78320814299673
 20
109.7142137055785
 30
0.0
 10
-400.64941875132689
 20
111.21385483377421
 30
0.0
 10
-400.00366413038341
 20
111.8015448575166
 30
0.0
 10
-398.6128655488551
 20
112.59948723517481
 30
0.0
 10
-397.87854048810112
 20
112.8035898384866
 30
0.0
 10
-397.13851201987438
 20
112.8035898384866
 30
0.0
 11
-402.63251902063388
 21
107.8035898384866
 31
0.0
 11
-401.99824640704344
 21
109.23146578498101
 31
0.0
 11
-401.21631344716184
 21
110.46403426967635
 31
0.0
 11
-400.31047836648906
 21
111.46384367373682
 31
0.0
 11
-399.30826483961926
 21
112.20051604634571
 31
0.0
 11
-398.24012437129528
 21
112.65166713822707
 31
0.0
 11
-397.13851201987438
 21
112.8035898384866
 31
0.0
  0
SPLINE
  5
2C5
100
AcDbEntity
  8
0
  6
CONTINUOUS
 62
             7
100
AcDbSpline
210
0.0
220
0.0
230
1.0
 70
             0
 71
             3
 72
             8
 73
             4
 74
             3
 42
0.00000000001
 43
0.00000000001
 44
0.00000000001
 40
0.0
 40
0.0
 40
0.0
 40
0.0
 40
1.0
 40
1.0
 40
1.0
 40
1.0
 10
-403.1032115467944
 20
106.20923631881141
 30
0.0
 10
-402.97632050442769
 20
106.761444476101
 30
0.0
 10
-402.81881410895232
 20
107.2949581013247
 30
0.0
 10
-402.63251902063388
 20
107.8035898384866
 30
0.0
 11
-403.1032115467944
 21
106.20923631881141
 31
0.0
 11
-402.89014180094608
 21
107.02275423619689
 31
0.0
 11
-402.63251902063388
 21
107.8035898384866
 31
0.0
  0
SPLINE
  5
2C4
100
AcDbEntity
  8
0
  6
CONTINUOUS
 62
             7
100
AcDbSpline
210
0.0
220
0.0
230
1.0
 70
             0
 71
             3
 72
            11
 73
             7
 74
             5
 42
0.00000000001
 43
0.00000000001
 44
0.00000000001
 40
0.0
 40
0.0
 40
0.0
 40
0.0
 40
0.1162715990647265
 40
0.1162715990647265
 40
0.1162715990647265
 40
0.2325425854972618
 40
0.2325425854972618
 40
0.2325425854972618
 40
0.2325425854972618
 10
-366.57524305615613
 20
34.770836691056957
 30
0.0
 10
-366.55241353920201
 20
34.802156443014212
 30
0.0
 10
-366.5295836809529
 20
34.833476524094749
 30
0.0
 10
-366.5067541503617
 20
34.864796014873953
 30
0.0
 10
-366.48392422313322
 20
34.896116049793648
 30
0.0
 10
-366.46109514439752
 20
34.927434779891307
 30
0.0
 10
-366.43826520337092
 20
34.958754550548413
 30
0.0
 11
-366.57524305615613
 21
34.770836691056957
 31
0.0
 11
-366.54099860837277
 21
34.817816450907216
 31
0.0
 11
-366.5067541503617
 21
34.864796014873953
 31
0.0
 11
-366.4725096820406
 21
34.911775381809655
 31
0.0
 11
-366.43826520337092
 21
34.958754550548413
 31
0.0
  0
SPLINE
  5
2C3
100
AcDbEntity
  8
0
  6
CONTINUOUS
 62
             7
100
AcDbSpline
210
0.0
220
0.0
230
1.0
 70
             0
 71
             3
 72
            12
 73
             8
 74
             7
 42
0.00000000001
 43
0.00000000001
 44
0.00000000001
 40
0.0
 40
0.0
 40
0.0
 40
0.0
 40
1.0
 40
1.0
 40
2.0
 40
2.0
 40
3.0
 40
3.0
 40
3.0
 40
3.0
 10
-401.55719064006888
 20
106.20923631881141
 30
0.0
 10
-401.26647858224487
 20
107.4743655726875
 30
0.0
 10
-400.81677838869388
 20
108.6340101627229
 30
0.0
 10
-399.65327760633897
 20
110.6033999695704
 30
0.0
 10
-398.95143440158171
 20
111.3929056209134
 30
0.0
 10
-397.39164597917841
 20
112.4869524945443
 30
0.0
 10
-396.54973082311977
 20
112.7802501157696
 30
0.0
 10
-395.69622711846529
 20
112.80225280918491
 30
0.0
 11
-401.55719064006888
 21
106.20923631881141
 31
0.0
 11
-401.00524869380018
 21
108.01913357389866
 31
0.0
 11
-400.23502799751645
 21
109.61870506614665
 31
0.0
 11
-399.27758802645729
 21
110.94344386191585
 31
0.0
 11
-398.17154019038003
 21
111.93992905772885
 31
0.0
 11
-396.96148721446747
 21
112.56797371223193
 31
0.0
 11
-395.69622711846529
 21
112.80225280918491
 31
0.0
  0
SPLINE
  5
2C2
100
AcDbEntity
  8
0
  6
CONTINUOUS
 62
             7
100
AcDbSpline
210
0.0
220
0.0
230
1.0
 70
             0
 71
             3
 72
            12
 73
             8
 74
             7
 42
0.00000000001
 43
0.00000000001
 44
0.00000000001
 40
0.0
 40
0.0
 40
0.0
 40
0.0
 40
1.0
 40
1.0
 40
2.0
 40
2.0
 40
3.0
 40
3.0
 40
3.0
 40
3.0
 10
-386.66687469767112
 20
106.20923631881141
 30
0.0
 10
-386.44790909379878
 20
107.49162523871949
 30
0.0
 10
-386.10759150992578
 20
108.665446656976
 30
0.0
 10
-385.22612116870408
 20
110.6515409167796
 30
0.0
 10
-384.69427844757888
 20
111.442836751345
 30
0.0
 10
-383.5138097550506
 20
112.52457383288601
 30
0.0
 10
-382.87765182230311
 20
112.8035898384866
 30
0.0
 10
-382.23470310423352
 20
112.8035898384866
 30
0.0
 11
-386.66687469767112
 21
106.20923631881141
 31
0.0
 11
-386.25002910601995
 21
108.04236822409696
 31
0.0
 11
-385.6668563393149
 21
109.6584937868778
 31
0.0
 11
-384.94151241118487
 21
110.99066651042089
 31
0.0
 11
-384.10404410131474
 21
111.9837052921155
 31
0.0
 11
-383.1891414922012
 21
112.59647326808998
 31
0.0
 11
-382.23470310423352
 21
112.8035898384866
 31
0.0
  0
SPLINE
  5
2C1
100
AcDbEntity
  8
0
  6
CONTINUOUS
 62
             7
100
AcDbSpline
210
0.0
220
0.0
230
1.0
 70
             0
 71
             3
 72
            12
 73
             8
 74
             7
 42
0.00000000001
 43
0.00000000001
 44
0.00000000001
 40
0.0
 40
0.0
 40
0.0
 40
0.0
 40
1.0
 40
1.0
 40
2.0
 40
2.0
 40
3.0
 40
3.0
 40
3.0
 40
3.0
 10
-388.43071722636779
 20
106.20923631881141
 30
0.0
 10
-388.21175162249551
 20
107.49162523871949
 30
0.0
 10
-387.87143403862251
 20
108.665446656976
 30
0.0
 10
-386.98996369740081
 20
110.6515409167796
 30
0.0
 10
-386.4581209762755
 20
111.442836751345
 30
0.0
 10
-385.27765228374727
 20
112.52457383288601
 30
0.0
 10
-384.64149435099978
 20
112.8035898384866
 30
0.0
 10
-383.99854563293019
 20
112.8035898384866
 30
0.0
 11
-388.43071722636779
 21
106.20923631881141
 31
0.0
 11
-388.01387163471668
 21
108.04236822409696
 31
0.0
 11
-387.43069886801163
 21
109.6584937868778
 31
0.0
 11
-386.70535493988149
 21
110.99066651042089
 31
0.0
 11
-385.86788663001141
 21
111.9837052921155
 31
0.0
 11
-384.95298402089782
 21
112.59647326808998
 31
0.0
 11
-383.99854563293019
 21
112.8035898384866
 31
0.0
  0
SPLINE
  5
2C0
100
AcDbEntity
  8
0
  6
CONTINUOUS
 62
             7
100
AcDbSpline
210
0.0
220
0.0
230
1.0
 70
             0
 71
             3
 72
            12
 73
             8
 74
             7
 42
0.00000000001
 43
0.00000000001
 44
0.00000000001
 40
0.0
 40
0.0
 40
0.0
 40
0.0
 40
1.0
 40
1.0
 40
2.0
 40
2.0
 40
3.0
 40
3.0
 40
3.0
 40
3.0
 10
-354.68390712416209
 20
106.20923631881141
 30
0.0
 10
-354.63837778412761
 20
107.49162523871949
 30
0.0
 10
-354.56761582552838
 20
108.665446656976
 30
0.0
 10
-354.38433241395109
 20
110.6515409167796
 30
0.0
 10
-354.27374678923769
 20
111.442836751345
 30
0.0
 10
-354.0282928935037
 20
112.52457383288601
 30
0.0
 10
-353.89601709162667
 20
112.8035898384866
 30
0.0
 10
-353.76232928727728
 20
112.8035898384866
 30
0.0
 11
-354.68390712416209
 21
106.20923631881141
 31
0.0
 11
-354.59723275910869
 21
108.04236822409696
 31
0.0
 11
-354.4759741197397
 21
109.6584937868778
 31
0.0
 11
-354.32515394633464
 21
110.99066651042089
 31
0.0
 11
-354.15101984137073
 21
111.9837052921155
 31
0.0
 11
-353.96078488550489
 21
112.59647326808998
 31
0.0
 11
-353.76232928727728
 21
112.8035898384866
 31
0.0
  0
SPLINE
  5
2BF
100
AcDbEntity
  8
0
  6
CONTINUOUS
 62
             7
100
AcDbSpline
210
0.0
220
0.0
230
1.0
 70
             0
 71
             3
 72
            12
 73
             8
 74
             7
 42
0.00000000001
 43
0.00000000001
 44
0.00000000001
 40
0.0
 40
0.0
 40
0.0
 40
0.0
 40
1.0
 40
1.0
 40
2.0
 40
2.0
 40
3.0
 40
3.0
 40
3.0
 40
3.0
 10
-352.6935376708177
 20
106.20923631881141
 30
0.0
 10
-352.64800833078323
 20
107.49162523871949
 30
0.0
 10
-352.57724637218399
 20
108.665446656976
 30
0.0
 10
-352.3939629606067
 20
110.6515409167796
 30
0.0
 10
-352.28337733589331
 20
111.442836751345
 30
0.0
 10
-352.03792344015937
 20
112.52457383288601
 30
0.0
 10
-351.90564763828229
 20
112.8035898384866
 30
0.0
 10
-351.7719598339329
 20
112.8035898384866
 30
0.0
 11
-352.6935376708177
 21
106.20923631881141
 31
0.0
 11
-352.60686330576431
 21
108.04236822409696
 31
0.0
 11
-352.48560466639537
 21
109.6584937868778
 31
0.0
 11
-352.33478449299025
 21
110.99066651042089
 31
0.0
 11
-352.16065038802634
 21
111.9837052921155
 31
0.0
 11
-351.97041543216051
 21
112.59647326808998
 31
0.0
 11
-351.7719598339329
 21
112.8035898384866
 31
0.0
  0
SPLINE
  5
2BE
100
AcDbEntity
  8
0
  6
CONTINUOUS
 62
             7
100
AcDbSpline
210
0.0
220
0.0
230
1.0
 70
             0
 71
             3
 72
            11
 73
             7
 74
             5
 42
0.00000000001
 43
0.00000000001
 44
0.00000000001
 40
0.0
 40
0.0
 40
0.0
 40
0.0
 40
0.2654255776715999
 40
0.2654255776715999
 40
0.2654255776715999
 40
0.530851294855338
 40
0.530851294855338
 40
0.530851294855338
 40
0.530851294855338
 10
-404.9016216711475
 20
34.958754550548413
 30
0.0
 10
-404.98436721434018
 20
34.927435461741311
 30
0.0
 10
-405.06711503643908
 20
34.896115367937909
 30
0.0
 10
-405.14986052962098
 20
34.864796014873953
 30
0.0
 10
-405.23260638664379
 20
34.833476524095317
 30
0.0
 10
-405.31535343135772
 20
34.80215644301353
 30
0.0
 10
-405.39809923895211
 20
34.770836691056957
 30
0.0
 11
-404.9016216711475
 21
34.958754550548413
 31
0.0
 11
-405.02574111913827
 21
34.911775381807502
 31
0.0
 11
-405.14986052962098
 21
34.864796014873953
 31
0.0
 11
-405.27397990282219
 21
34.817816450907181
 31
0.0
 11
-405.39809923895211
 21
34.770836691056957
 31
0.0
  0
SPLINE
  5
2BD
100
AcDbEntity
  8
0
  6
CONTINUOUS
 62
             7
100
AcDbSpline
210
0.0
220
0.0
230
1.0
 70
             0
 71
             3
 72
            11
 73
             7
 74
             5
 42
0.00000000001
 43
0.00000000001
 44
0.00000000001
 40
0.0
 40
0.0
 40
0.0
 40
0.0
 40
0.7952906389023625
 40
0.7952906389023625
 40
0.7952906389023625
 40
1.590582559905154
 40
1.590582559905154
 40
1.590582559905154
 40
1.590582559905154
 10
-403.91050680118502
 20
33.696410161513427
 30
0.0
 10
-404.15843888928708
 20
33.79024866988226
 30
0.0
 10
-404.40637208277298
 20
33.884088937133917
 30
0.0
 10
-404.65430370570192
 20
33.97792990355066
 30
0.0
 10
-404.90223451550952
 20
34.07177056220462
 30
0.0
 10
-405.1501688781475
 20
34.165613859218517
 30
0.0
 10
-405.39809923895223
 20
34.259456890408558
 30
0.0
 11
-403.91050680118502
 21
33.696410161513427
 31
0.0
 11
-404.28240542788336
 21
33.83716911076408
 31
0.0
 11
-404.65430370570192
 21
33.97792990355066
 31
0.0
 11
-405.02620164070316
 21
34.118692507278581
 31
0.0
 11
-405.39809923895223
 21
34.259456890408558
 31
0.0
  0
SPLINE
  5
2BC
100
AcDbEntity
  8
0
  6
CONTINUOUS
 62
             7
100
AcDbSpline
210
0.0
220
0.0
230
1.0
 70
             0
 71
             3
 72
            11
 73
             7
 74
             5
 42
0.00000000001
 43
0.00000000001
 44
0.00000000001
 40
0.0
 40
0.0
 40
0.0
 40
0.0
 40
0.3483815540694478
 40
0.3483815540694478
 40
0.3483815540694478
 40
0.6967574764870768
 40
0.6967574764870768
 40
0.6967574764870768
 40
0.6967574764870768
 10
-366.57524305615613
 20
34.259456890408558
 30
0.0
 10
-366.50683889177287
 20
34.165613404116527
 30
0.0
 10
-366.43843461848229
 20
34.071771017295021
 30
0.0
 10
-366.37003033021892
 20
33.97792990355066
 30
0.0
 10
-366.30162599482082
 20
33.884088725143947
 30
0.0
 10
-366.23322168968963
 20
33.790248881866717
 30
0.0
 10
-366.16481722595017
 20
33.696410161513427
 30
0.0
 11
-366.57524305615613
 21
34.259456890408558
 31
0.0
 11
-366.4726367396425
 21
34.118692507274226
 31
0.0
 11
-366.37003033021892
 21
33.97792990355066
 31
0.0
 11
-366.26742382621262
 21
33.837169110762012
 31
0.0
 11
-366.16481722595017
 21
33.696410161513427
 31
0.0
  0
SPLINE
  5
2BB
100
AcDbEntity
  8
0
  6
CONTINUOUS
 62
             7
100
AcDbSpline
210
0.0
220
0.0
230
1.0
 70
             0
 71
             3
 72
            11
 73
             7
 74
             5
 42
0.00000000001
 43
0.00000000001
 44
0.00000000001
 40
0.0
 40
0.0
 40
0.0
 40
0.0
 40
0.9188045939831662
 40
0.9188045939831662
 40
0.9188045939831662
 40
1.837608503024073
 40
1.837608503024073
 40
1.837608503024073
 40
1.837608503024073
 10
-267.57990221704318
 20
34.259456890408558
 30
0.0
 10
-267.87143960016482
 20
34.165613176564143
 30
0.0
 10
-268.16297532668352
 20
34.071771244841841
 30
0.0
 10
-268.45451323778059
 20
33.97792990355066
 30
0.0
 10
-268.74605130143891
 20
33.884088513152513
 30
0.0
 10
-269.03758726031049
 20
33.790249093852651
 30
0.0
 10
-269.32912587095711
 20
33.696410161513427
 30
0.0
 11
-267.57990221704318
 21
34.259456890408558
 31
0.0
 11
-268.01720752942106
 21
34.118692507272137
 31
0.0
 11
-268.45451323778059
 21
33.97792990355066
 31
0.0
 11
-268.89181934924824
 21
33.837169110759945
 31
0.0
 11
-269.32912587095711
 21
33.696410161513427
 31
0.0
  0
SPLINE
  5
2BA
100
AcDbEntity
  8
0
  6
CONTINUOUS
 62
             7
100
AcDbSpline
210
0.0
220
0.0
230
1.0
 70
             0
 71
             3
 72
            11
 73
             7
 74
             5
 42
0.00000000001
 43
0.00000000001
 44
0.00000000001
 40
0.0
 40
0.0
 40
0.0
 40
0.0
 40
0.6486729509543626
 40
0.6486729509543626
 40
0.6486729509543626
 40
1.297343728300473
 40
1.297343728300473
 40
1.297343728300473
 40
1.297343728300473
 10
-298.37474627103012
 20
34.259456890408558
 30
0.0
 10
-298.56954437789511
 20
34.165613631665849
 30
0.0
 10
-298.76434421193039
 20
34.071770789751611
 30
0.0
 10
-298.95914267157559
 20
33.97792990355066
 30
0.0
 10
-299.15394173779117
 20
33.884088725144522
 30
0.0
 10
-299.34874071781792
 20
33.790248881866148
 30
0.0
 10
-299.54354014951849
 20
33.696410161513427
 30
0.0
 11
-298.37474627103012
 21
34.259456890408558
 31
0.0
 11
-298.66694433901029
 21
34.11869250727645
 31
0.0
 11
-298.95914267157559
 21
33.97792990355066
 31
0.0
 11
-299.2513412734902
 21
33.837169110762012
 31
0.0
 11
-299.54354014951849
 21
33.696410161513427
 31
0.0
  0
SPLINE
  5
2B9
100
AcDbEntity
  8
0
  6
CONTINUOUS
 62
             7
100
AcDbSpline
210
0.0
220
0.0
230
1.0
 70
             0
 71
             3
 72
            11
 73
             7
 74
             5
 42
0.00000000001
 43
0.00000000001
 44
0.00000000001
 40
0.0
 40
0.0
 40
0.0
 40
0.0
 40
0.3483815540694541
 40
0.3483815540694541
 40
0.3483815540694541
 40
0.6967574764870841
 40
0.6967574764870841
 40
0.6967574764870841
 40
0.6967574764870841
 10
-323.02475694384327
 20
34.259456890408558
 30
0.0
 10
-323.09316094235959
 20
34.165613631668862
 30
0.0
 10
-323.1615655473841
 20
34.071770789748662
 30
0.0
 10
-323.22996966978047
 20
33.97792990355066
 30
0.0
 10
-323.29837400517857
 20
33.884088725143947
 30
0.0
 10
-323.36677831030983
 20
33.790248881866717
 30
0.0
 10
-323.43518277404928
 20
33.696410161513427
 30
0.0
 11
-323.02475694384327
 21
34.259456890408558
 31
0.0
 11
-323.12736326035684
 21
34.118692507276478
 31
0.0
 11
-323.22996966978047
 21
33.97792990355066
 31
0.0
 11
-323.33257617378683
 21
33.837169110762005
 31
0.0
 11
-323.43518277404928
 21
33.696410161513427
 31
0.0
  0
SPLINE
  5
2B8
100
AcDbEntity
  8
0
  6
CONTINUOUS
 62
             7
100
AcDbSpline
210
0.0
220
0.0
230
1.0
 70
             0
 71
             3
 72
            11
 73
             7
 74
             5
 42
0.00000000001
 43
0.00000000001
 44
0.00000000001
 40
0.0
 40
0.0
 40
0.0
 40
0.0
 40
0.9188045939832424
 40
0.9188045939832424
 40
0.9188045939832424
 40
1.8376085030241001
 40
1.8376085030241001
 40
1.8376085030241001
 40
1.8376085030241001
 10
-422.02009778295621
 20
34.259456890408558
 30
0.0
 10
-421.72856110675201
 20
34.165613404115561
 30
0.0
 10
-421.43702396639708
 20
34.071771017296157
 30
0.0
 10
-421.14548676221881
 20
33.97792990355066
 30
0.0
 10
-420.85394935715709
 20
33.884088725144132
 30
0.0
 10
-420.56241208109088
 20
33.790248881866553
 30
0.0
 10
-420.27087412904228
 20
33.696410161513427
 30
0.0
 11
-422.02009778295621
 21
34.259456890408558
 31
0.0
 11
-421.58279247057777
 21
34.118692507274297
 31
0.0
 11
-421.14548676221881
 21
33.97792990355066
 31
0.0
 11
-420.70818065075065
 21
33.837169110762019
 31
0.0
 11
-420.27087412904228
 21
33.696410161513427
 31
0.0
  0
ARC
  5
2B7
100
AcDbEntity
  8
0
  6
CONTINUOUS
 62
             7
100
AcDbCircle
 10
-278.87999178073778
 20
148.80358983848541
 40
10.00000000000056
100
AcDbArc
 50
20.00000000001412
 51
90.00000000001336
  0
ARC
  5
2B6
100
AcDbEntity
  8
0
  6
CONTINUOUS
 62
             7
100
AcDbCircle
 10
-410.7200082192611
 20
148.80358983848581
 40
10.000000000001
100
AcDbArc
 50
89.99999999998958
 51
159.99999999998926
  0
LINE
  5
2B5
100
AcDbEntity
  8
0
  6
CONTINUOUS
 62
             7
100
AcDbLine
 10
-296.49933799999968
 20
159.303589838486
 11
-296.79933799999969
 21
159.303589838486
  0
LINE
  5
2B4
100
AcDbEntity
  8
0
  6
CONTINUOUS
 62
             7
100
AcDbLine
 10
-296.19933799999973
 20
159.303589838486
 11
-296.19933799999973
 21
158.803589838486
  0
LINE
  5
2B3
100
AcDbEntity
  8
0
  6
CONTINUOUS
 62
             7
100
AcDbLine
 10
-295.89933799999972
 20
159.303589838486
 11
-296.19933799999973
 21
159.303589838486
  0
LINE
  5
2B2
100
AcDbEntity
  8
0
  6
CONTINUOUS
 62
             7
100
AcDbLine
 10
-291.50004499999972
 20
159.303589838486
 11
-291.20004499999959
 21
159.303589838486
  0
LINE
  5
2B1
100
AcDbEntity
  8
0
  6
CONTINUOUS
 62
             7
100
AcDbLine
 10
-292.39999999999969
 20
159.303589838486
 11
-292.6999999999997
 21
159.303589838486
  0
LINE
  5
2B0
100
AcDbEntity
  8
0
  6
CONTINUOUS
 62
             7
100
AcDbLine
 10
-292.99999999999972
 20
159.303589838486
 11
-292.6999999999997
 21
159.303589838486
  0
LINE
  5
2AF
100
AcDbEntity
  8
0
  6
CONTINUOUS
 62
             7
100
AcDbLine
 10
-294.6999999999997
 20
159.303589838486
 11
-294.99999999999972
 21
159.303589838486
  0
LINE
  5
2AE
100
AcDbEntity
  8
0
  6
CONTINUOUS
 62
             7
100
AcDbLine
 10
-294.6999999999997
 20
159.303589838486
 11
-294.69999999999959
 21
158.803589838486
  0
LINE
  5
2AD
100
AcDbEntity
  8
0
  6
CONTINUOUS
 62
             3
100
AcDbLine
 10
-294.99999999999972
 20
159.303589838486
 11
-294.99999999999972
 21
158.803589838486
  0
LINE
  5
2AC
100
AcDbEntity
  8
0
  6
CONTINUOUS
 62
             3
100
AcDbLine
 10
-295.89933799999972
 20
159.303589838486
 11
-295.89933799999972
 21
158.803589838486
  0
LINE
  5
2AB
100
AcDbEntity
  8
0
  6
CONTINUOUS
 62
             7
100
AcDbLine
 10
-291.20004499999959
 20
159.303589838486
 11
-291.20004499999959
 21
158.803589838486
  0
LINE
  5
2AA
100
AcDbEntity
  8
0
  6
CONTINUOUS
 62
             3
100
AcDbLine
 10
-292.39999999999969
 20
159.303589838486
 11
-292.39999999999969
 21
158.803589838486
  0
LINE
  5
2A9
100
AcDbEntity
  8
0
  6
CONTINUOUS
 62
             7
100
AcDbLine
 10
-292.6999999999997
 20
159.303589838486
 11
-292.6999999999997
 21
158.803589838486
  0
LINE
  5
2A8
100
AcDbEntity
  8
0
  6
CONTINUOUS
 62
             7
100
AcDbLine
 10
-294.39999999999969
 20
159.303589838486
 11
-294.6999999999997
 21
159.303589838486
  0
LINE
  5
2A7
100
AcDbEntity
  8
0
  6
CONTINUOUS
 62
             7
100
AcDbLine
 10
-292.99999999999972
 20
159.303589838486
 11
-293.29999999999973
 21
159.303589838486
  0
LINE
  5
2A6
100
AcDbEntity
  8
0
  6
CONTINUOUS
 62
             7
100
AcDbLine
 10
-294.39999999999969
 20
159.303589838486
 11
-294.09999999999968
 21
159.303589838486
  0
LINE
  5
2A5
100
AcDbEntity
  8
0
  6
CONTINUOUS
 62
             7
100
AcDbLine
 10
-293.29999999999973
 20
159.303589838486
 11
-293.29999999999973
 21
158.803589838486
  0
LINE
  5
2A4
100
AcDbEntity
  8
0
  6
CONTINUOUS
 62
             3
100
AcDbLine
 10
-292.99999999999972
 20
159.303589838486
 11
-292.99999999999972
 21
158.803589838486
  0
LINE
  5
2A3
100
AcDbEntity
  8
0
  6
CONTINUOUS
 62
             3
100
AcDbLine
 10
-294.39999999999969
 20
159.303589838486
 11
-294.39999999999969
 21
158.803589838486
  0
LINE
  5
2A2
100
AcDbEntity
  8
0
  6
CONTINUOUS
 62
             7
100
AcDbLine
 10
-294.09999999999968
 20
159.303589838486
 11
-294.09999999999968
 21
158.803589838486
  0
LINE
  5
2A1
100
AcDbEntity
  8
0
  6
CONTINUOUS
 62
             3
100
AcDbLine
 10
-291.50004499999972
 20
159.303589838486
 11
-291.50004499999972
 21
158.803589838486
  0
LINE
  5
2A0
100
AcDbEntity
  8
0
  6
CONTINUOUS
 62
             7
100
AcDbLine
 10
-274.30145391570289
 20
57.80358983848402
 11
-275.0593286796302
 21
53.80358983848402
  0
LINE
  5
29F
100
AcDbEntity
  8
0
  6
CONTINUOUS
 62
             7
100
AcDbLine
 10
-271.19671734750068
 20
53.80358983848402
 11
-271.19671734750068
 21
67.79932414053553
  0
LINE
  5
29E
100
AcDbEntity
  8
0
  6
CONTINUOUS
 62
             7
100
AcDbLine
 10
-270.1616013464772
 20
53.80358983848402
 11
-270.16160134647708
 21
33.69641016151343
  0
LINE
  5
29D
100
AcDbEntity
  8
0
  6
CONTINUOUS
 62
             7
100
AcDbLine
 10
-281.45401642913993
 20
152.2237912717446
 11
-262.2611488465061
 21
88.80358983848404
  0
LINE
  5
29C
100
AcDbEntity
  8
0
  6
CONTINUOUS
 62
             7
100
AcDbLine
 10
-260.41485524547232
 20
53.80358983848402
 11
-260.41485524547238
 21
33.69641016151343
  0
LINE
  5
29B
100
AcDbEntity
  8
0
  6
CONTINUOUS
 62
             7
100
AcDbLine
 10
-295.89933799999972
 20
159.303589838486
 11
-294.99999999999972
 21
159.303589838486
  0
LINE
  5
29A
100
AcDbEntity
  8
0
  6
CONTINUOUS
 62
             7
100
AcDbLine
 10
-292.39999999999969
 20
159.303589838486
 11
-291.50004499999972
 21
159.303589838486
  0
LINE
  5
299
100
AcDbEntity
  8
0
  6
CONTINUOUS
 62
             3
100
AcDbLine
 10
-296.49933799999968
 20
159.303589838486
 11
-296.49933799999968
 21
158.803589838486
  0
LINE
  5
298
100
AcDbEntity
  8
0
  6
CONTINUOUS
 62
             7
100
AcDbLine
 10
-296.49933799999968
 20
159.303589838486
 11
-296.19933799999973
 21
159.303589838486
  0
LINE
  5
297
100
AcDbEntity
  8
0
  6
CONTINUOUS
 62
             7
100
AcDbLine
 10
-296.79933799999969
 20
159.303589838486
 11
-296.79933799999969
 21
158.803589838486
  0
LINE
  5
296
100
AcDbEntity
  8
0
  6
CONTINUOUS
 62
             7
100
AcDbLine
 10
-340.4999999999996
 20
34.77083669105696
 11
-340.49999999999972
 21
34.95875455054841
  0
LINE
  5
295
100
AcDbEntity
  8
0
  6
CONTINUOUS
 62
             7
100
AcDbLine
 10
-298.37474627103012
 20
34.77083669105696
 11
-298.37474627103012
 21
34.25945689040856
  0
LINE
  5
294
100
AcDbEntity
  8
0
  6
CONTINUOUS
 62
             7
100
AcDbLine
 10
-434.09652848795372
 20
34.95875455054841
 11
-434.1999999999997
 21
34.95875455054841
  0
LINE
  5
293
100
AcDbEntity
  8
0
  6
CONTINUOUS
 62
             7
100
AcDbLine
 10
-257.36953348372242
 20
34.77083669105696
 11
-257.36953348372242
 21
34.25945689040856
  0
LINE
  5
292
100
AcDbEntity
  8
0
  6
CONTINUOUS
 62
             7
100
AcDbLine
 10
-278.6172600106475
 20
34.95875455054841
 11
-298.76482619300651
 21
34.95875455054841
  0
LINE
  5
291
100
AcDbEntity
  8
0
  6
CONTINUOUS
 62
             7
100
AcDbLine
 10
-340.4999999999996
 20
34.77083669105696
 11
-340.4999999999996
 21
34.25945689040856
  0
LINE
  5
290
100
AcDbEntity
  8
0
  6
CONTINUOUS
 62
             7
100
AcDbLine
 10
-298.7648261930064
 20
53.80358983848402
 11
-300.09978247885272
 21
53.80358983848402
  0
LINE
  5
28F
100
AcDbEntity
  8
0
  6
CONTINUOUS
 62
             7
100
AcDbLine
 10
-298.76482619300651
 20
34.95875455054841
 11
-298.7648261930064
 21
53.80358983848402
  0
LINE
  5
28E
100
AcDbEntity
  8
0
  6
CONTINUOUS
 62
             7
100
AcDbLine
 10
-278.6172600106475
 20
34.95875455054841
 11
-278.6172600106475
 21
53.80358983848402
  0
LINE
  5
28D
100
AcDbEntity
  8
0
  6
CONTINUOUS
 62
             7
100
AcDbLine
 10
-271.19671734750068
 20
53.80358983848402
 11
-275.0593286796302
 21
53.80358983848402
  0
LINE
  5
28C
100
AcDbEntity
  8
0
  6
CONTINUOUS
 62
             7
100
AcDbLine
 10
-258.05816765257589
 20
34.95875455054841
 11
-258.05816765257589
 21
53.80358983848402
  0
LINE
  5
28B
100
AcDbEntity
  8
0
  6
CONTINUOUS
 62
             7
100
AcDbLine
 10
-289.05097857487908
 20
57.80358983848402
 11
-289.64643695598562
 21
53.80358983848402
  0
LINE
  5
28A
100
AcDbEntity
  8
0
  6
CONTINUOUS
 62
             7
100
AcDbLine
 10
-435.21225753703311
 20
57.80358983848402
 11
-434.2220464384713
 21
53.80358983848402
  0
LINE
  5
289
100
AcDbEntity
  8
0
  6
CONTINUOUS
 62
             7
100
AcDbLine
 10
-324.32809144908902
 20
57.80358983848402
 11
-324.53718862603068
 21
53.80358983848402
  0
LINE
  5
288
100
AcDbEntity
  8
0
  6
CONTINUOUS
 62
             7
100
AcDbLine
 10
-443.19999999999692
 20
57.80358983848402
 11
-442.12820323027188
 21
53.80358983848402
  0
LINE
  5
287
100
AcDbEntity
  8
0
  6
CONTINUOUS
 62
             7
100
AcDbLine
 10
-296.21818313681928
 20
77.80358983848663
 11
-297.32407213008469
 21
77.80358983848663
  0
LINE
  5
286
100
AcDbEntity
  8
0
  6
CONTINUOUS
 62
             7
100
AcDbLine
 10
-303.53905299210379
 20
77.80358983848663
 11
-304.49469886715508
 21
77.80358983848663
  0
LINE
  5
285
100
AcDbEntity
  8
0
  6
CONTINUOUS
 62
             7
100
AcDbLine
 10
-296.21818313681928
 20
53.80358983848402
 11
-296.21818313681928
 21
77.80358983848663
  0
LINE
  5
284
100
AcDbEntity
  8
0
  6
CONTINUOUS
 62
             7
100
AcDbLine
 10
-282.51057643450463
 20
53.80358983848402
 11
-282.51057643450463
 21
70.37248066341505
  0
LINE
  5
283
100
AcDbEntity
  8
0
  6
CONTINUOUS
 62
             7
100
AcDbLine
 10
-288.8582508491325
 20
77.80358983848663
 11
-289.05097857487908
 21
77.80358983848663
  0
LINE
  5
282
100
AcDbEntity
  8
0
  6
CONTINUOUS
 62
             7
100
AcDbLine
 10
-246.40000000000251
 20
88.80358983848404
 11
-246.40000000000251
 21
57.80358983848402
  0
LINE
  5
281
100
AcDbEntity
  8
0
  6
CONTINUOUS
 62
             7
100
AcDbLine
 10
-246.40000000000251
 20
57.80358983848402
 11
-247.4717967697276
 21
53.80358983848402
  0
LINE
  5
280
100
AcDbEntity
  8
0
  6
CONTINUOUS
 62
             7
100
AcDbLine
 10
-346.09999999999962
 20
107.8035898384866
 11
-351.29433632732781
 21
107.8035898384866
  0
LINE
  5
27F
100
AcDbEntity
  8
0
  6
CONTINUOUS
 62
             7
100
AcDbLine
 10
-346.09999999999968
 20
112.8035898384866
 11
-351.29369491306772
 21
112.8035898384866
  0
LINE
  5
27E
100
AcDbEntity
  8
0
  6
CONTINUOUS
 62
             7
100
AcDbLine
 10
-346.09999999999962
 20
158.803589838486
 11
-343.49999999999972
 21
158.8035898384849
  0
LINE
  5
27D
100
AcDbEntity
  8
0
  6
CONTINUOUS
 62
             7
100
AcDbLine
 10
-346.09999999999968
 20
152.2237912717446
 11
-346.09999999999962
 21
158.803589838486
  0
LINE
  5
27C
100
AcDbEntity
  8
0
  6
CONTINUOUS
 62
             7
100
AcDbLine
 10
-346.09999999999968
 20
112.8035898384866
 11
-346.09999999999968
 21
88.80358983848404
  0
LINE
  5
27B
100
AcDbEntity
  8
0
  6
CONTINUOUS
 62
             3
100
AcDbLine
 10
-343.49999999999977
 20
152.2237912717446
 11
-346.09999999999968
 21
152.2237912717446
  0
LINE
  5
27A
100
AcDbEntity
  8
0
  6
CONTINUOUS
 62
             7
100
AcDbLine
 10
-346.09999999999968
 20
152.2237912717446
 11
-346.09999999999968
 21
147.80358984056511
  0
LINE
  5
279
100
AcDbEntity
  8
0
  6
CONTINUOUS
 62
             7
100
AcDbLine
 10
-355.6027158336446
 20
158.803589838486
 11
-346.09999999999962
 21
158.803589838486
  0
LINE
  5
278
100
AcDbEntity
  8
0
  6
CONTINUOUS
 62
             7
100
AcDbLine
 10
-355.6027158336446
 20
147.8035898405501
 11
-346.09999999999968
 21
147.80358984056511
  0
LINE
  5
277
100
AcDbEntity
  8
0
  6
CONTINUOUS
 62
             7
100
AcDbLine
 10
-323.57809486125439
 20
112.8035898384866
 11
-322.1616795513537
 21
112.8035898384866
  0
LINE
  5
276
100
AcDbEntity
  8
0
  6
CONTINUOUS
 62
             7
100
AcDbLine
 10
-323.57809486125439
 20
107.8214980237278
 11
-323.57809486125439
 21
112.8035898384866
  0
LINE
  5
275
100
AcDbEntity
  8
0
  6
CONTINUOUS
 62
             7
100
AcDbLine
 10
-317.5837675613015
 20
88.62806105586543
 11
-319.43236176014392
 21
106.20923631881141
  0
LINE
  5
274
100
AcDbEntity
  8
0
  6
CONTINUOUS
 62
             3
100
AcDbLine
 10
-317.51848108867949
 20
106.20923631881141
 11
-319.43236176014392
 21
106.20923631881141
  0
LINE
  5
273
100
AcDbEntity
  8
0
  6
CONTINUOUS
 62
             7
100
AcDbLine
 10
-316.76431217597008
 20
108.0278733699663
 11
-316.76431217597008
 21
112.8035898384866
  0
LINE
  5
272
100
AcDbEntity
  8
0
  6
CONTINUOUS
 62
             7
100
AcDbLine
 10
-320.24779887988927
 20
112.8035898384866
 11
-322.1616795513537
 21
112.8035898384866
  0
LINE
  5
271
100
AcDbEntity
  8
0
  6
CONTINUOUS
 62
             7
100
AcDbLine
 10
-317.42949965202899
 20
112.8035898384866
 11
-322.30448790078862
 21
147.80358984056511
  0
LINE
  5
270
100
AcDbEntity
  8
0
  6
CONTINUOUS
 62
             7
100
AcDbLine
 10
-317.42949965202899
 20
112.8035898384866
 11
-320.24779887988927
 21
112.8035898384866
  0
LINE
  5
26F
100
AcDbEntity
  8
0
  6
CONTINUOUS
 62
             7
100
AcDbLine
 10
-315.66988688983702
 20
88.62806105586543
 11
-317.51848108867949
 21
106.20923631881141
  0
LINE
  5
26E
100
AcDbEntity
  8
0
  6
CONTINUOUS
 62
             7
100
AcDbLine
 10
-323.57809486125439
 20
107.8214980237278
 11
-320.39397401339579
 21
77.80358983848663
  0
LINE
  5
26D
100
AcDbEntity
  8
0
  6
CONTINUOUS
 62
             7
100
AcDbLine
 10
-312.55451140355888
 20
77.80358983848663
 11
-316.76431217597008
 21
108.0278733699663
  0
LINE
  5
26C
100
AcDbEntity
  8
0
  6
CONTINUOUS
 62
             7
100
AcDbLine
 10
-328.83137414482132
 20
152.22379127174389
 11
-328.51750859146682
 21
147.80358984056511
  0
LINE
  5
26B
100
AcDbEntity
  8
0
  6
CONTINUOUS
 62
             7
100
AcDbLine
 10
-328.51750859146682
 20
147.80358984056511
 11
-324.32809144908902
 21
88.80358983848404
  0
LINE
  5
26A
100
AcDbEntity
  8
0
  6
CONTINUOUS
 62
             7
100
AcDbLine
 10
-331.17026454300048
 20
108.0278733699663
 11
-331.17026454300048
 21
112.8035898384866
  0
LINE
  5
269
100
AcDbEntity
  8
0
  6
CONTINUOUS
 62
             7
100
AcDbLine
 10
-329.02412672031602
 20
77.80358983848663
 11
-331.15433882653451
 21
107.8035898384866
  0
LINE
  5
268
100
AcDbEntity
  8
0
  6
CONTINUOUS
 62
             7
100
AcDbLine
 10
-331.38141587386968
 20
152.22379127174389
 11
-326.87813317813738
 21
88.80358983848404
  0
LINE
  5
267
100
AcDbEntity
  8
0
  6
CONTINUOUS
 62
             7
100
AcDbLine
 10
-320.77454838538313
 20
158.8035898384868
 11
-318.37246160085368
 21
158.8035898384868
  0
LINE
  5
266
100
AcDbEntity
  8
0
  6
CONTINUOUS
 62
             3
100
AcDbLine
 10
-314.77641362594881
 20
152.22379127174389
 11
-317.17850041047808
 21
152.22379127174389
  0
LINE
  5
265
100
AcDbEntity
  8
0
  6
CONTINUOUS
 62
             7
100
AcDbLine
 10
-322.30971064396391
 20
158.803589838486
 11
-322.30971064396391
 21
147.80358984056491
  0
LINE
  5
264
100
AcDbEntity
  8
0
  6
CONTINUOUS
 62
             7
100
AcDbLine
 10
-331.50937417757081
 20
112.8035898384866
 11
-335.83767071272217
 21
112.8035898384866
  0
LINE
  5
263
100
AcDbEntity
  8
0
  6
CONTINUOUS
 62
             7
100
AcDbLine
 10
-331.15433882653451
 20
107.8035898384866
 11
-334.9888173774051
 21
107.8035898384866
  0
LINE
  5
262
100
AcDbEntity
  8
0
  6
CONTINUOUS
 62
             7
100
AcDbLine
 10
-335.83767071272217
 20
112.8035898384866
 11
-337.8280401660665
 21
112.8035898384866
  0
LINE
  5
261
100
AcDbEntity
  8
0
  6
CONTINUOUS
 62
             7
100
AcDbLine
 10
-334.29189900272593
 20
88.62806105586543
 11
-334.91609287583731
 21
106.20923631881141
  0
LINE
  5
260
100
AcDbEntity
  8
0
  6
CONTINUOUS
 62
             3
100
AcDbLine
 10
-334.91609287583731
 20
106.20923631881141
 11
-336.90646232918169
 21
106.20923631881141
  0
LINE
  5
25F
100
AcDbEntity
  8
0
  6
CONTINUOUS
 62
             7
100
AcDbLine
 10
-331.50937417757081
 20
112.8035898384866
 11
-333.99462163497321
 21
147.80358984056511
  0
LINE
  5
25E
100
AcDbEntity
  8
0
  6
CONTINUOUS
 62
             7
100
AcDbLine
 10
-336.28226845607031
 20
88.62806105586543
 11
-336.90646232918169
 21
106.20923631881141
  0
LINE
  5
25D
100
AcDbEntity
  8
0
  6
CONTINUOUS
 62
             7
100
AcDbLine
 10
-338.30630508693167
 20
107.8214980237276
 11
-337.23115905124462
 21
77.80358983848663
  0
LINE
  5
25C
100
AcDbEntity
  8
0
  6
CONTINUOUS
 62
             7
100
AcDbLine
 10
-322.30448790078862
 20
147.80358984056511
 11
-322.30971064396391
 21
147.80358984056491
  0
LINE
  5
25B
100
AcDbEntity
  8
0
  6
CONTINUOUS
 62
             7
100
AcDbLine
 10
-333.99462163497321
 20
147.80358984056511
 11
-333.99728416635469
 21
147.803589840565
  0
LINE
  5
25A
100
AcDbEntity
  8
0
  6
CONTINUOUS
 62
             7
100
AcDbLine
 10
-328.51750859146682
 20
147.80358984056511
 11
-322.30971064396391
 21
147.80358984056491
  0
LINE
  5
259
100
AcDbEntity
  8
0
  6
CONTINUOUS
 62
             7
100
AcDbLine
 10
-314.16074419643729
 20
147.80358984056511
 11
-311.48642632882598
 21
147.8035898405501
  0
LINE
  5
258
100
AcDbEntity
  8
0
  6
CONTINUOUS
 62
             7
100
AcDbLine
 10
-343.49999999999972
 20
147.80358984056511
 11
-333.99728416635469
 21
147.803589840565
  0
LINE
  5
257
100
AcDbEntity
  8
0
  6
CONTINUOUS
 62
             7
100
AcDbLine
 10
-338.30566367267159
 20
107.8035898384866
 11
-343.49999999999977
 21
107.8035898384866
  0
LINE
  5
256
100
AcDbEntity
  8
0
  6
CONTINUOUS
 62
             7
100
AcDbLine
 10
-338.30630508693167
 20
112.8035898384866
 11
-343.49999999999972
 21
112.8035898384866
  0
LINE
  5
255
100
AcDbEntity
  8
0
  6
CONTINUOUS
 62
             7
100
AcDbLine
 10
-338.30630508693167
 20
112.8035898384866
 11
-337.8280401660665
 21
112.8035898384866
  0
LINE
  5
254
100
AcDbEntity
  8
0
  6
CONTINUOUS
 62
             7
100
AcDbLine
 10
-343.49999999999977
 20
152.2237912717446
 11
-343.49999999999972
 21
158.8035898384849
  0
LINE
  5
253
100
AcDbEntity
  8
0
  6
CONTINUOUS
 62
             7
100
AcDbLine
 10
-343.49999999999972
 20
112.8035898384866
 11
-343.49999999999977
 21
107.8035898384866
  0
LINE
  5
252
100
AcDbEntity
  8
0
  6
CONTINUOUS
 62
             7
100
AcDbLine
 10
-343.49999999999977
 20
152.2237912717446
 11
-343.49999999999972
 21
147.80358984056511
  0
LINE
  5
251
100
AcDbEntity
  8
0
  6
CONTINUOUS
 62
             7
100
AcDbLine
 10
-343.49999999999972
 20
112.8035898384866
 11
-343.49999999999972
 21
147.80358984056511
  0
LINE
  5
250
100
AcDbEntity
  8
0
  6
CONTINUOUS
 62
             7
100
AcDbLine
 10
-338.30630508693167
 20
107.8214980237276
 11
-338.30630508693167
 21
112.8035898384866
  0
LINE
  5
24F
100
AcDbEntity
  8
0
  6
CONTINUOUS
 62
             7
100
AcDbLine
 10
-343.49999999999977
 20
107.8035898384866
 11
-343.49999999999977
 21
88.80358983848404
  0
LINE
  5
24E
100
AcDbEntity
  8
0
  6
CONTINUOUS
 62
             7
100
AcDbLine
 10
-316.76431217597008
 20
112.8035898384866
 11
-317.42949965202899
 21
112.8035898384866
  0
LINE
  5
24D
100
AcDbEntity
  8
0
  6
CONTINUOUS
 62
             7
100
AcDbLine
 10
-316.7330727593905
 20
107.8035898384866
 11
-317.73385983157192
 21
107.8035898384866
  0
LINE
  5
24C
100
AcDbEntity
  8
0
  6
CONTINUOUS
 62
             7
100
AcDbLine
 10
-311.47884408094819
 20
147.80358984056511
 11
-311.48642632882598
 21
147.8035898405501
  0
LINE
  5
24B
100
AcDbEntity
  8
0
  6
CONTINUOUS
 62
             7
100
AcDbLine
 10
-314.77641362594881
 20
152.22379127174389
 11
-305.94290686301122
 21
88.80358983848404
  0
LINE
  5
24A
100
AcDbEntity
  8
0
  6
CONTINUOUS
 62
             7
100
AcDbLine
 10
-318.37246160085368
 20
158.8035898384868
 11
-311.48642632882598
 21
158.8035898384849
  0
LINE
  5
249
100
AcDbEntity
  8
0
  6
CONTINUOUS
 62
             7
100
AcDbLine
 10
-311.48642632882598
 20
158.8035898384849
 11
-311.48642632882598
 21
147.8035898405501
  0
LINE
  5
248
100
AcDbEntity
  8
0
  6
CONTINUOUS
 62
             7
100
AcDbLine
 10
-317.17850041047808
 20
152.22379127174389
 11
-308.3449936475406
 21
88.80358983848404
  0
LINE
  5
247
100
AcDbEntity
  8
0
  6
CONTINUOUS
 62
             7
100
AcDbLine
 10
-311.48642632882598
 20
158.8035898384849
 11
-309.25771616896481
 21
158.8035898384868
  0
LINE
  5
246
100
AcDbEntity
  8
0
  6
CONTINUOUS
 62
             7
100
AcDbLine
 10
-322.30971064396391
 20
158.803589838486
 11
-320.77454838538313
 21
158.8035898384868
  0
LINE
  5
245
100
AcDbEntity
  8
0
  6
CONTINUOUS
 62
             7
100
AcDbLine
 10
-343.49999999999972
 20
158.8035898384849
 11
-333.99728416635469
 21
158.8035898384849
  0
LINE
  5
244
100
AcDbEntity
  8
0
  6
CONTINUOUS
 62
             7
100
AcDbLine
 10
-330.6646235046743
 20
158.8035898384868
 11
-322.30971064396391
 21
158.803589838486
  0
LINE
  5
243
100
AcDbEntity
  8
0
  6
CONTINUOUS
 62
             7
100
AcDbLine
 10
-333.99728416635469
 20
158.8035898384849
 11
-333.21466523372271
 21
158.8035898384868
  0
LINE
  5
242
100
AcDbEntity
  8
0
  6
CONTINUOUS
 62
             7
100
AcDbLine
 10
-331.15433882653451
 20
107.8035898384866
 11
-331.17026454300048
 21
108.0278733699663
  0
LINE
  5
241
100
AcDbEntity
  8
0
  6
CONTINUOUS
 62
             7
100
AcDbLine
 10
-323.57619526766439
 20
107.8035898384866
 11
-325.67722578302761
 21
107.8035898384866
  0
LINE
  5
240
100
AcDbEntity
  8
0
  6
CONTINUOUS
 62
             7
100
AcDbLine
 10
-331.17026454300048
 20
112.8035898384866
 11
-331.50937417757081
 21
112.8035898384866
  0
LINE
  5
23F
100
AcDbEntity
  8
0
  6
CONTINUOUS
 62
             3
100
AcDbLine
 10
-328.83137414482132
 20
152.22379127174389
 11
-331.38141587386968
 21
152.22379127174389
  0
LINE
  5
23E
100
AcDbEntity
  8
0
  6
CONTINUOUS
 62
             7
100
AcDbLine
 10
-333.99728416635469
 20
158.8035898384849
 11
-333.99728416635469
 21
147.803589840565
  0
LINE
  5
23D
100
AcDbEntity
  8
0
  6
CONTINUOUS
 62
             7
100
AcDbLine
 10
-333.21466523372271
 20
158.8035898384868
 11
-330.6646235046743
 21
158.8035898384868
  0
LINE
  5
23C
100
AcDbEntity
  8
0
  6
CONTINUOUS
 62
             7
100
AcDbLine
 10
-323.57809486125439
 20
112.8035898384866
 11
-326.03226113406407
 21
112.8035898384866
  0
LINE
  5
23B
100
AcDbEntity
  8
0
  6
CONTINUOUS
 62
             7
100
AcDbLine
 10
-304.4014581053064
 20
112.8035898384866
 11
-311.47884408094819
 21
147.80358984056511
  0
LINE
  5
23A
100
AcDbEntity
  8
0
  6
CONTINUOUS
 62
             7
100
AcDbLine
 10
-299.93117121611277
 20
88.62806105586543
 11
-302.93312530232828
 21
106.20923631881141
  0
LINE
  5
239
100
AcDbEntity
  8
0
  6
CONTINUOUS
 62
             3
100
AcDbLine
 10
-301.16928277363172
 20
106.20923631881141
 11
-302.93312530232828
 21
106.20923631881141
  0
LINE
  5
238
100
AcDbEntity
  8
0
  6
CONTINUOUS
 62
             7
100
AcDbLine
 10
-304.4014581053064
 20
112.8035898384866
 11
-305.60145436706921
 21
112.8035898384866
  0
LINE
  5
237
100
AcDbEntity
  8
0
  6
CONTINUOUS
 62
             7
100
AcDbLine
 10
-303.43575556942238
 20
112.8035898384866
 11
-304.4014581053064
 21
112.8035898384866
  0
LINE
  5
236
100
AcDbEntity
  8
0
  6
CONTINUOUS
 62
             7
100
AcDbLine
 10
-309.28575594767722
 20
112.8035898384866
 11
-307.36529689576588
 21
112.8035898384866
  0
LINE
  5
235
100
AcDbEntity
  8
0
  6
CONTINUOUS
 62
             7
100
AcDbLine
 10
-305.60145436706921
 20
112.8035898384866
 11
-307.36529689576588
 21
112.8035898384866
  0
LINE
  5
234
100
AcDbEntity
  8
0
  6
CONTINUOUS
 62
             7
100
AcDbLine
 10
-303.43575556942238
 20
111.6857726891338
 11
-303.43575556942238
 21
112.8035898384866
  0
LINE
  5
233
100
AcDbEntity
  8
0
  6
CONTINUOUS
 62
             3
100
AcDbLine
 10
-301.87524269400882
 20
152.2237912717446
 11
-304.0370636859966
 21
152.22379127174389
  0
LINE
  5
232
100
AcDbEntity
  8
0
  6
CONTINUOUS
 62
             7
100
AcDbLine
 10
-304.0370636859966
 20
152.22379127174389
 11
-291.21279956686573
 21
88.80358983848404
  0
LINE
  5
231
100
AcDbEntity
  8
0
  6
CONTINUOUS
 62
             7
100
AcDbLine
 10
-309.25771616896481
 20
158.8035898384868
 11
-307.0958951769781
 21
158.8035898384868
  0
LINE
  5
230
100
AcDbEntity
  8
0
  6
CONTINUOUS
 62
             7
100
AcDbLine
 10
-307.0958951769781
 20
158.8035898384868
 11
-301.9433639674038
 21
158.8035898384849
  0
LINE
  5
22F
100
AcDbEntity
  8
0
  6
CONTINUOUS
 62
             7
100
AcDbLine
 10
-298.1673286874161
 20
88.62806105586543
 11
-301.16928277363172
 21
106.20923631881141
  0
LINE
  5
22E
100
AcDbEntity
  8
0
  6
CONTINUOUS
 62
             3
100
AcDbLine
 10
-286.496788453205
 20
106.20923631881141
 11
-288.04280935993052
 21
106.20923631881141
  0
LINE
  5
22D
100
AcDbEntity
  8
0
  6
CONTINUOUS
 62
             7
100
AcDbLine
 10
-284.0028587983598
 20
88.62806105586543
 11
-288.04280935993052
 21
106.20923631881141
  0
LINE
  5
22C
100
AcDbEntity
  8
0
  6
CONTINUOUS
 62
             7
100
AcDbLine
 10
-282.45683789163439
 20
88.62806105586543
 11
-286.496788453205
 21
106.20923631881141
  0
LINE
  5
22B
100
AcDbEntity
  8
0
  6
CONTINUOUS
 62
             7
100
AcDbLine
 10
-291.69680367900611
 20
112.7306771063363
 11
-291.69680367900611
 21
112.8035898384866
  0
LINE
  5
22A
100
AcDbEntity
  8
0
  6
CONTINUOUS
 62
             7
100
AcDbLine
 10
-297.49012062278803
 20
130.53792123017129
 11
-289.05097857487908
 21
88.80358983848413
  0
LINE
  5
229
100
AcDbEntity
  8
0
  6
CONTINUOUS
 62
             7
100
AcDbLine
 10
-292.46212374394258
 20
152.2237912717446
 11
-276.13993154678792
 21
88.80358983848404
  0
LINE
  5
228
100
AcDbEntity
  8
0
  6
CONTINUOUS
 62
             7
100
AcDbLine
 10
-291.69680367900611
 20
112.8035898384866
 11
-292.46148798012501
 21
112.8035898384866
  0
LINE
  5
227
100
AcDbEntity
  8
0
  6
CONTINUOUS
 62
             7
100
AcDbLine
 10
-292.92590986783341
 20
112.8035898384866
 11
-293.9040432436035
 21
112.8035898384866
  0
LINE
  5
226
100
AcDbEntity
  8
0
  6
CONTINUOUS
 62
             7
100
AcDbLine
 10
-292.46148798012501
 20
112.8035898384866
 11
-292.92590986783341
 21
112.8035898384866
  0
LINE
  5
225
100
AcDbEntity
  8
0
  6
CONTINUOUS
 62
             7
100
AcDbLine
 10
-301.87524269400882
 20
152.2237912717446
 11
-297.49012062278803
 21
130.53792123017129
  0
LINE
  5
224
100
AcDbEntity
  8
0
  6
CONTINUOUS
 62
             7
100
AcDbLine
 10
-292.92590986783341
 20
112.8035898384866
 11
-297.49012062278803
 21
130.53792123017129
  0
LINE
  5
223
100
AcDbEntity
  8
0
  6
CONTINUOUS
 62
             3
100
AcDbLine
 10
-274.71873736921532
 20
152.22379127174389
 11
-275.71371429336278
 21
152.2237912717446
  0
LINE
  5
222
100
AcDbEntity
  8
0
  6
CONTINUOUS
 62
             3
100
AcDbLine
 10
-281.45401642913993
 20
152.2237912717446
 11
-282.89849903499248
 21
152.22379127174389
  0
LINE
  5
221
100
AcDbEntity
  8
0
  6
CONTINUOUS
 62
             7
100
AcDbLine
 10
-280.40024367311088
 20
158.8035898384868
 11
-279.89300883586901
 21
158.8035898384868
  0
LINE
  5
220
100
AcDbEntity
  8
0
  6
CONTINUOUS
 62
             7
100
AcDbLine
 10
-283.40036516117527
 20
158.8035898384868
 11
-280.40024367311088
 21
158.8035898384868
  0
LINE
  5
21F
100
AcDbEntity
  8
0
  6
CONTINUOUS
 62
             7
100
AcDbLine
 10
-279.89300883586901
 20
158.8035898384868
 11
-278.87999178074011
 21
158.803589838486
  0
LINE
  5
21E
100
AcDbEntity
  8
0
  6
CONTINUOUS
 62
             7
100
AcDbLine
 10
-294.04725809443607
 20
158.803589838486
 11
-293.29999999999973
 21
158.803589838486
  0
LINE
  5
21D
100
AcDbEntity
  8
0
  6
CONTINUOUS
 62
             7
100
AcDbLine
 10
-301.9433639674038
 20
158.8035898384849
 11
-299.1067539878307
 21
158.8035898384868
  0
LINE
  5
21C
100
AcDbEntity
  8
0
  6
CONTINUOUS
 62
             7
100
AcDbLine
 10
-290.7117576258766
 20
158.8035898384868
 11
-289.26727502002592
 21
158.8035898384868
  0
LINE
  5
21B
100
AcDbEntity
  8
0
  6
CONTINUOUS
 62
             7
100
AcDbLine
 10
-292.6999999999997
 20
158.803589838486
 11
-292.39999999999969
 21
158.803589838486
  0
LINE
  5
21A
100
AcDbEntity
  8
0
  6
CONTINUOUS
 62
             7
100
AcDbLine
 10
-301.9433639674038
 20
158.8035898384849
 11
-301.9433639674038
 21
152.54353002478459
  0
LINE
  5
219
100
AcDbEntity
  8
0
  6
CONTINUOUS
 62
             3
100
AcDbLine
 10
-290.62364611285892
 20
152.22379127174389
 11
-292.46212374394258
 21
152.2237912717446
  0
LINE
  5
218
100
AcDbEntity
  8
0
  6
CONTINUOUS
 62
             7
100
AcDbLine
 10
-294.04725809443607
 20
158.803589838486
 11
-294.04725809443607
 21
157.7058413911974
  0
LINE
  5
217
100
AcDbEntity
  8
0
  6
CONTINUOUS
 62
             7
100
AcDbLine
 10
-299.1067539878307
 20
158.8035898384868
 11
-297.26827635674562
 21
158.8035898384868
  0
LINE
  5
216
100
AcDbEntity
  8
0
  6
CONTINUOUS
 62
             7
100
AcDbLine
 10
-297.26827635674562
 20
158.8035898384868
 11
-296.79933799999969
 21
158.803589838486
  0
LINE
  5
215
100
AcDbEntity
  8
0
  6
CONTINUOUS
 62
             7
100
AcDbLine
 10
-294.99999999999972
 20
158.803589838486
 11
-294.69999999999959
 21
158.803589838486
  0
LINE
  5
214
100
AcDbEntity
  8
0
  6
CONTINUOUS
 62
             7
100
AcDbLine
 10
-296.19933799999973
 20
158.803589838486
 11
-295.89933799999972
 21
158.803589838486
  0
LINE
  5
213
100
AcDbEntity
  8
0
  6
CONTINUOUS
 62
             7
100
AcDbLine
 10
-296.49933799999968
 20
158.803589838486
 11
-296.19933799999973
 21
158.803589838486
  0
LINE
  5
212
100
AcDbEntity
  8
0
  6
CONTINUOUS
 62
             7
100
AcDbLine
 10
-296.79933799999969
 20
158.803589838486
 11
-296.49933799999968
 21
158.803589838486
  0
LINE
  5
211
100
AcDbEntity
  8
0
  6
CONTINUOUS
 62
             7
100
AcDbLine
 10
-294.69999999999959
 20
158.803589838486
 11
-294.39999999999969
 21
158.803589838486
  0
LINE
  5
210
100
AcDbEntity
  8
0
  6
CONTINUOUS
 62
             7
100
AcDbLine
 10
-294.09999999999968
 20
158.803589838486
 11
-294.04725809443607
 21
158.803589838486
  0
LINE
  5
20F
100
AcDbEntity
  8
0
  6
CONTINUOUS
 62
             7
100
AcDbLine
 10
-294.39999999999969
 20
158.803589838486
 11
-294.09999999999968
 21
158.803589838486
  0
LINE
  5
20E
100
AcDbEntity
  8
0
  6
CONTINUOUS
 62
             7
100
AcDbLine
 10
-291.50004499999972
 20
158.803589838486
 11
-291.20004499999959
 21
158.803589838486
  0
LINE
  5
20D
100
AcDbEntity
  8
0
  6
CONTINUOUS
 62
             7
100
AcDbLine
 10
-292.39999999999969
 20
158.803589838486
 11
-291.50004499999972
 21
158.803589838486
  0
LINE
  5
20C
100
AcDbEntity
  8
0
  6
CONTINUOUS
 62
             7
100
AcDbLine
 10
-292.99999999999972
 20
158.803589838486
 11
-292.6999999999997
 21
158.803589838486
  0
LINE
  5
20B
100
AcDbEntity
  8
0
  6
CONTINUOUS
 62
             7
100
AcDbLine
 10
-293.29999999999973
 20
158.803589838486
 11
-292.99999999999972
 21
158.803589838486
  0
LINE
  5
20A
100
AcDbEntity
  8
0
  6
CONTINUOUS
 62
             7
100
AcDbLine
 10
-291.20004499999959
 20
158.803589838486
 11
-290.7117576258766
 21
158.8035898384868
  0
LINE
  5
209
100
AcDbEntity
  8
0
  6
CONTINUOUS
 62
             7
100
AcDbLine
 10
-288.10155163043351
 20
158.803589838486
 11
-288.10155163043362
 21
158.70482137330521
  0
LINE
  5
208
100
AcDbEntity
  8
0
  6
CONTINUOUS
 62
             7
100
AcDbLine
 10
-288.10155163043351
 20
158.803589838486
 11
-284.39534208532461
 21
158.8035898384868
  0
LINE
  5
207
100
AcDbEntity
  8
0
  6
CONTINUOUS
 62
             7
100
AcDbLine
 10
-284.39534208532461
 20
158.8035898384868
 11
-283.40036516117527
 21
158.8035898384868
  0
LINE
  5
206
100
AcDbEntity
  8
0
  6
CONTINUOUS
 62
             7
100
AcDbLine
 10
-289.26727502002592
 20
158.8035898384868
 11
-288.10155163043351
 21
158.803589838486
  0
LINE
  5
205
100
AcDbEntity
  8
0
  6
CONTINUOUS
 62
             7
100
AcDbLine
 10
-295.89933799999972
 20
158.803589838486
 11
-294.99999999999972
 21
158.803589838486
  0
LINE
  5
204
100
AcDbEntity
  8
0
  6
CONTINUOUS
 62
             7
100
AcDbLine
 10
-290.62364611285892
 20
152.22379127174389
 11
-274.30145391570289
 21
88.80358983848404
  0
LINE
  5
203
100
AcDbEntity
  8
0
  6
CONTINUOUS
 62
             3
100
AcDbLine
 10
-274.06485385570397
 20
106.20923631881141
 11
-275.33364042403127
 21
106.20923631881141
  0
LINE
  5
202
100
AcDbEntity
  8
0
  6
CONTINUOUS
 62
             7
100
AcDbLine
 10
-270.41094642155628
 20
88.62806105586543
 11
-275.33364042403127
 21
106.20923631881141
  0
LINE
  5
201
100
AcDbEntity
  8
0
  6
CONTINUOUS
 62
             7
100
AcDbLine
 10
-269.14215985322897
 20
88.62806105586543
 11
-274.06485385570397
 21
106.20923631881141
  0
LINE
  5
200
100
AcDbEntity
  8
0
  6
CONTINUOUS
 62
             3
100
AcDbLine
 10
-270.67664193016532
 20
152.22379127174389
 11
-271.18387676740718
 21
152.22379127174389
  0
LINE
  5
1FF
100
AcDbEntity
  8
0
  6
CONTINUOUS
 62
             7
100
AcDbLine
 10
-251.635211341359
 20
88.62806105586543
 11
-257.72920972254877
 21
106.20923631881141
  0
LINE
  5
1FE
100
AcDbEntity
  8
0
  6
CONTINUOUS
 62
             7
100
AcDbLine
 10
-252.21578069586789
 20
88.62806105586543
 11
-258.30977907705773
 21
106.20923631881141
  0
LINE
  5
1FD
100
AcDbEntity
  8
0
  6
CONTINUOUS
 62
             3
100
AcDbLine
 10
-257.72920972254877
 20
106.20923631881141
 11
-258.30977907705773
 21
106.20923631881141
  0
LINE
  5
1FC
100
AcDbEntity
  8
0
  6
CONTINUOUS
 62
             3
100
AcDbLine
 10
-264.35123125580122
 20
106.20923631881141
 11
-265.29402472945321
 21
106.20923631881141
  0
LINE
  5
1FB
100
AcDbEntity
  8
0
  6
CONTINUOUS
 62
             7
100
AcDbLine
 10
-259.6777636559105
 20
88.62806105586543
 11
-265.29402472945321
 21
106.20923631881141
  0
LINE
  5
1FA
100
AcDbEntity
  8
0
  6
CONTINUOUS
 62
             7
100
AcDbLine
 10
-258.73497018225851
 20
88.62806105586543
 11
-264.35123125580122
 21
106.20923631881141
  0
LINE
  5
1F9
100
AcDbEntity
  8
0
  6
CONTINUOUS
 62
             7
100
AcDbLine
 10
-282.89849903499248
 20
152.22379127174389
 11
-263.70563145235712
 21
88.80358983848404
  0
LINE
  5
1F8
100
AcDbEntity
  8
0
  6
CONTINUOUS
 62
             7
100
AcDbLine
 10
-274.71873736921532
 20
152.22379127174389
 11
-253.39276553881709
 21
88.80358983848413
  0
LINE
  5
1F7
100
AcDbEntity
  8
0
  6
CONTINUOUS
 62
             7
100
AcDbLine
 10
-275.71371429336278
 20
152.2237912717446
 11
-254.3877424629664
 21
88.80358983848404
  0
LINE
  5
1F6
100
AcDbEntity
  8
0
  6
CONTINUOUS
 62
             7
100
AcDbLine
 10
-270.67664193016532
 20
152.22379127174389
 11
-248.03711098970359
 21
88.80358983848404
  0
LINE
  5
1F5
100
AcDbEntity
  8
0
  6
CONTINUOUS
 62
             7
100
AcDbLine
 10
-271.18387676740718
 20
152.22379127174389
 11
-248.5443458269456
 21
88.80358983848404
  0
LINE
  5
1F4
100
AcDbEntity
  8
0
  6
CONTINUOUS
 62
             7
100
AcDbLine
 10
-254.69868100072779
 20
34.77083669105696
 11
-255.39999999999981
 21
34.95875455054841
  0
LINE
  5
1F3
100
AcDbEntity
  8
0
  6
CONTINUOUS
 62
             7
100
AcDbLine
 10
-256.79999999999973
 20
33.69641016151343
 11
-259.43288346850528
 21
33.69641016151343
  0
LINE
  5
1F2
100
AcDbEntity
  8
0
  6
CONTINUOUS
 62
             7
100
AcDbLine
 10
-254.69868100072779
 20
34.25945689040856
 11
-257.36953348372242
 21
34.25945689040856
  0
LINE
  5
1F1
100
AcDbEntity
  8
0
  6
CONTINUOUS
 62
             7
100
AcDbLine
 10
-254.69868100072779
 20
34.25945689040856
 11
-256.79999999999973
 21
33.69641016151343
  0
LINE
  5
1F0
100
AcDbEntity
  8
0
  6
CONTINUOUS
 62
             7
100
AcDbLine
 10
-257.36953348372242
 20
34.77083669105696
 11
-254.69868100072779
 21
34.77083669105696
  0
LINE
  5
1EF
100
AcDbEntity
  8
0
  6
CONTINUOUS
 62
             7
100
AcDbLine
 10
-254.69868100072779
 20
34.77083669105696
 11
-254.69868100072779
 21
34.25945689040856
  0
LINE
  5
1EE
100
AcDbEntity
  8
0
  6
CONTINUOUS
 62
             7
100
AcDbLine
 10
-255.39999999999981
 20
34.95875455054841
 11
-258.05816765257589
 21
34.95875455054841
  0
LINE
  5
1ED
100
AcDbEntity
  8
0
  6
CONTINUOUS
 62
             7
100
AcDbLine
 10
-255.39999999999981
 20
34.95875455054841
 11
-255.39999999999981
 21
53.80358983848402
  0
LINE
  5
1EC
100
AcDbEntity
  8
0
  6
CONTINUOUS
 62
             7
100
AcDbLine
 10
-323.02475694384339
 20
34.77083669105696
 11
-323.02475694384327
 21
34.25945689040856
  0
LINE
  5
1EB
100
AcDbEntity
  8
0
  6
CONTINUOUS
 62
             7
100
AcDbLine
 10
-300.09978247885272
 20
53.80358983848402
 11
-300.09978247885277
 21
33.69641016151343
  0
LINE
  5
1EA
100
AcDbEntity
  8
0
  6
CONTINUOUS
 62
             7
100
AcDbLine
 10
-323.63050910490568
 20
33.69641016151343
 11
-323.63050910490568
 21
53.80358983848402
  0
LINE
  5
1E9
100
AcDbEntity
  8
0
  6
CONTINUOUS
 62
             7
100
AcDbLine
 10
-278.12078244284299
 20
34.77083669105696
 11
-278.12078244284299
 21
34.25945689040856
  0
LINE
  5
1E8
100
AcDbEntity
  8
0
  6
CONTINUOUS
 62
             7
100
AcDbLine
 10
-267.57990221704318
 20
34.77083669105696
 11
-267.57990221704318
 21
34.25945689040856
  0
LINE
  5
1E7
100
AcDbEntity
  8
0
  6
CONTINUOUS
 62
             7
100
AcDbLine
 10
-248.5443458269456
 20
57.80358983848402
 11
-249.59554832227681
 21
53.80358983848402
  0
LINE
  5
1E6
100
AcDbEntity
  8
0
  6
CONTINUOUS
 62
             7
100
AcDbLine
 10
-434.1999999999997
 20
34.95875455054841
 11
-434.1999999999997
 21
53.80358983848402
  0
LINE
  5
1E5
100
AcDbEntity
  8
0
  6
CONTINUOUS
 62
             7
100
AcDbLine
 10
-268.16369807617309
 20
34.95875455054841
 11
-268.16369807617298
 21
53.80358983848402
  0
LINE
  5
1E4
100
AcDbEntity
  8
0
  6
CONTINUOUS
 62
             7
100
AcDbLine
 10
-366.57524305615613
 20
34.77083669105696
 11
-340.4999999999996
 21
34.77083669105696
  0
LINE
  5
1E3
100
AcDbEntity
  8
0
  6
CONTINUOUS
 62
             7
100
AcDbLine
 10
-323.16173479662848
 20
34.95875455054841
 11
-323.16173479662842
 21
53.80358983848402
  0
LINE
  5
1E2
100
AcDbEntity
  8
0
  6
CONTINUOUS
 62
             7
100
AcDbLine
 10
-340.49999999999972
 20
34.95875455054841
 11
-340.49999999999972
 21
53.80358983848402
  0
LINE
  5
1E1
100
AcDbEntity
  8
0
  6
CONTINUOUS
 62
             7
100
AcDbLine
 10
-298.37474627103012
 20
34.77083669105696
 11
-278.12078244284299
 21
34.77083669105696
  0
LINE
  5
1E0
100
AcDbEntity
  8
0
  6
CONTINUOUS
 62
             7
100
AcDbLine
 10
-340.49999999999972
 20
34.95875455054841
 11
-366.43826520337092
 21
34.95875455054841
  0
LINE
  5
1DF
100
AcDbEntity
  8
0
  6
CONTINUOUS
 62
             7
100
AcDbLine
 10
-434.09652848795372
 20
34.95875455054841
 11
-434.09652848795378
 21
53.80358983848402
  0
LINE
  5
1DE
100
AcDbEntity
  8
0
  6
CONTINUOUS
 62
             7
100
AcDbLine
 10
-441.56288901029581
 20
88.80358983848404
 11
-441.05565417305388
 21
88.80358983848404
  0
LINE
  5
1DD
100
AcDbEntity
  8
0
  6
CONTINUOUS
 62
             7
100
AcDbLine
 10
-441.05565417305388
 20
57.80358983848402
 11
-441.56288901029569
 21
57.80358983848402
  0
LINE
  5
1DC
100
AcDbEntity
  8
0
  6
CONTINUOUS
 62
             7
100
AcDbLine
 10
-441.56288901029569
 20
57.80358983848402
 11
-440.51168651496567
 21
53.80358983848402
  0
LINE
  5
1DB
100
AcDbEntity
  8
0
  6
CONTINUOUS
 62
             7
100
AcDbLine
 10
-443.19999999999692
 20
88.80358983848404
 11
-443.19999999999692
 21
57.80358983848402
  0
LINE
  5
1DA
100
AcDbEntity
  8
0
  6
CONTINUOUS
 62
             7
100
AcDbLine
 10
-440.51168651496567
 20
53.80358983848402
 11
-442.12820323027188
 21
53.80358983848402
  0
LINE
  5
1D9
100
AcDbEntity
  8
0
  6
CONTINUOUS
 62
             7
100
AcDbLine
 10
-441.05565417305388
 20
57.80358983848402
 11
-440.00445167772381
 21
53.80358983848402
  0
LINE
  5
1D8
100
AcDbEntity
  8
0
  6
CONTINUOUS
 62
             7
100
AcDbLine
 10
-441.56288901029581
 20
88.80358983848404
 11
-441.56288901029569
 21
57.80358983848402
  0
LINE
  5
1D7
100
AcDbEntity
  8
0
  6
CONTINUOUS
 62
             7
100
AcDbLine
 10
-441.05565417305388
 20
88.80358983848404
 11
-441.05565417305388
 21
57.80358983848402
  0
LINE
  5
1D6
100
AcDbEntity
  8
0
  6
CONTINUOUS
 62
             7
100
AcDbLine
 10
-440.51168651496567
 20
53.80358983848402
 11
-440.00445167772381
 21
53.80358983848402
  0
LINE
  5
1D5
100
AcDbEntity
  8
0
  6
CONTINUOUS
 62
             7
100
AcDbLine
 10
-440.00445167772381
 20
53.80358983848402
 11
-435.21702336262172
 21
53.80358983848402
  0
LINE
  5
1D4
100
AcDbEntity
  8
0
  6
CONTINUOUS
 62
             7
100
AcDbLine
 10
-435.21225753703311
 20
57.80358983848402
 11
-436.20723446118228
 21
57.80358983848402
  0
LINE
  5
1D3
100
AcDbEntity
  8
0
  6
CONTINUOUS
 62
             7
100
AcDbLine
 10
-436.20723446118228
 20
57.80358983848402
 11
-435.21702336262172
 21
53.80358983848402
  0
LINE
  5
1D2
100
AcDbEntity
  8
0
  6
CONTINUOUS
 62
             7
100
AcDbLine
 10
-435.21225753703322
 20
88.80358983848404
 11
-435.21225753703311
 21
57.80358983848402
  0
LINE
  5
1D1
100
AcDbEntity
  8
0
  6
CONTINUOUS
 62
             7
100
AcDbLine
 10
-436.20723446118228
 20
88.80358983848404
 11
-435.21225753703322
 21
88.80358983848404
  0
LINE
  5
1D0
100
AcDbEntity
  8
0
  6
CONTINUOUS
 62
             7
100
AcDbLine
 10
-436.20723446118228
 20
88.80358983848404
 11
-436.20723446118228
 21
57.80358983848402
  0
LINE
  5
1CF
100
AcDbEntity
  8
0
  6
CONTINUOUS
 62
             7
100
AcDbLine
 10
-434.1999999999997
 20
53.80358983848402
 11
-434.09652848795378
 21
53.80358983848402
  0
LINE
  5
1CE
100
AcDbEntity
  8
0
  6
CONTINUOUS
 62
             7
100
AcDbLine
 10
-434.2220464384713
 20
53.80358983848402
 11
-434.1999999999997
 21
53.80358983848402
  0
LINE
  5
1CD
100
AcDbEntity
  8
0
  6
CONTINUOUS
 62
             7
100
AcDbLine
 10
-435.21702336262172
 20
53.80358983848402
 11
-434.2220464384713
 21
53.80358983848402
  0
LINE
  5
1CC
100
AcDbEntity
  8
0
  6
CONTINUOUS
 62
             7
100
AcDbLine
 10
-434.09652848795378
 20
53.80358983848402
 11
-431.69367065557742
 21
53.80358983848402
  0
LINE
  5
1CB
100
AcDbEntity
  8
0
  6
CONTINUOUS
 62
             7
100
AcDbLine
 10
-427.33885115349329
 20
88.80358983848404
 11
-427.33885115349341
 21
57.80358983848402
  0
LINE
  5
1CA
100
AcDbEntity
  8
0
  6
CONTINUOUS
 62
             7
100
AcDbLine
 10
-248.03711098970359
 20
88.80358983848404
 11
-248.03711098970371
 21
57.80358983848402
  0
LINE
  5
1C9
100
AcDbEntity
  8
0
  6
CONTINUOUS
 62
             7
100
AcDbLine
 10
-251.635211341359
 20
70.45718922545632
 11
-251.635211341359
 21
88.62806105586543
  0
LINE
  5
1C8
100
AcDbEntity
  8
0
  6
CONTINUOUS
 62
             7
100
AcDbLine
 10
-252.21578069586789
 20
88.62806105586543
 11
-251.635211341359
 21
88.62806105586543
  0
LINE
  5
1C7
100
AcDbEntity
  8
0
  6
CONTINUOUS
 62
             7
100
AcDbLine
 10
-252.21578069586789
 20
70.45718922545632
 11
-252.21578069586789
 21
88.62806105586543
  0
LINE
  5
1C6
100
AcDbEntity
  8
0
  6
CONTINUOUS
 62
             7
100
AcDbLine
 10
-248.5443458269456
 20
88.80358983848404
 11
-248.5443458269456
 21
57.80358983848402
  0
LINE
  5
1C5
100
AcDbEntity
  8
0
  6
CONTINUOUS
 62
             7
100
AcDbLine
 10
-253.39276553881709
 20
88.80358983848413
 11
-253.39276553881709
 21
57.80358983848402
  0
LINE
  5
1C4
100
AcDbEntity
  8
0
  6
CONTINUOUS
 62
             7
100
AcDbLine
 10
-258.73497018225851
 20
70.45718922545632
 11
-258.73497018225851
 21
88.62806105586543
  0
LINE
  5
1C3
100
AcDbEntity
  8
0
  6
CONTINUOUS
 62
             7
100
AcDbLine
 10
-259.6777636559105
 20
88.62806105586543
 11
-258.73497018225851
 21
88.62806105586543
  0
LINE
  5
1C2
100
AcDbEntity
  8
0
  6
CONTINUOUS
 62
             7
100
AcDbLine
 10
-259.6777636559105
 20
70.45718922545632
 11
-259.6777636559105
 21
88.62806105586543
  0
LINE
  5
1C1
100
AcDbEntity
  8
0
  6
CONTINUOUS
 62
             7
100
AcDbLine
 10
-254.3877424629664
 20
88.80358983848404
 11
-254.38774246296629
 21
57.80358983848402
  0
LINE
  5
1C0
100
AcDbEntity
  8
0
  6
CONTINUOUS
 62
             7
100
AcDbLine
 10
-262.2611488465061
 20
88.80358983848404
 11
-262.2611488465061
 21
57.80358983848402
  0
LINE
  5
1BF
100
AcDbEntity
  8
0
  6
CONTINUOUS
 62
             7
100
AcDbLine
 10
-263.70563145235712
 20
88.80358983848404
 11
-263.70563145235712
 21
57.80358983848402
  0
LINE
  5
1BE
100
AcDbEntity
  8
0
  6
CONTINUOUS
 62
             7
100
AcDbLine
 10
-269.14215985322897
 20
70.45718922545632
 11
-269.14215985322897
 21
88.62806105586543
  0
LINE
  5
1BD
100
AcDbEntity
  8
0
  6
CONTINUOUS
 62
             7
100
AcDbLine
 10
-270.41094642155628
 20
88.62806105586543
 11
-269.14215985322897
 21
88.62806105586543
  0
LINE
  5
1BC
100
AcDbEntity
  8
0
  6
CONTINUOUS
 62
             7
100
AcDbLine
 10
-270.41094642155628
 20
70.45718922545632
 11
-270.41094642155628
 21
88.62806105586543
  0
LINE
  5
1BB
100
AcDbEntity
  8
0
  6
CONTINUOUS
 62
             7
100
AcDbLine
 10
-282.45683789163439
 20
70.45718922545632
 11
-282.45683789163439
 21
88.62806105586543
  0
LINE
  5
1BA
100
AcDbEntity
  8
0
  6
CONTINUOUS
 62
             7
100
AcDbLine
 10
-284.0028587983598
 20
70.45718922545632
 11
-284.0028587983598
 21
88.62806105586543
  0
LINE
  5
1B9
100
AcDbEntity
  8
0
  6
CONTINUOUS
 62
             7
100
AcDbLine
 10
-299.93117121611277
 20
70.45718922545632
 11
-299.93117121611277
 21
88.62806105586543
  0
LINE
  5
1B8
100
AcDbEntity
  8
0
  6
CONTINUOUS
 62
             7
100
AcDbLine
 10
-317.5837675613015
 20
70.45718922545643
 11
-317.5837675613015
 21
88.62806105586543
  0
LINE
  5
1B7
100
AcDbEntity
  8
0
  6
CONTINUOUS
 62
             7
100
AcDbLine
 10
-336.28226845607031
 20
70.45718922545632
 11
-336.28226845607031
 21
88.62806105586543
  0
LINE
  5
1B6
100
AcDbEntity
  8
0
  6
CONTINUOUS
 62
             7
100
AcDbLine
 10
-326.87813317813738
 20
88.80358983848404
 11
-326.87813317813738
 21
57.80358983848402
  0
LINE
  5
1B5
100
AcDbEntity
  8
0
  6
CONTINUOUS
 62
             7
100
AcDbLine
 10
-308.3449936475406
 20
88.80358983848404
 11
-308.3449936475406
 21
57.80358983848402
  0
LINE
  5
1B4
100
AcDbEntity
  8
0
  6
CONTINUOUS
 62
             7
100
AcDbLine
 10
-291.21279956686573
 20
88.80358983848404
 11
-291.21279956686573
 21
57.80358983848402
  0
LINE
  5
1B3
100
AcDbEntity
  8
0
  6
CONTINUOUS
 62
             7
100
AcDbLine
 10
-276.13993154678792
 20
88.80358983848404
 11
-276.13993154678792
 21
57.80358983848402
  0
LINE
  5
1B2
100
AcDbEntity
  8
0
  6
CONTINUOUS
 62
             7
100
AcDbLine
 10
-346.09999999999968
 20
88.80358983848404
 11
-346.09999999999968
 21
77.80358983848663
  0
LINE
  5
1B1
100
AcDbEntity
  8
0
  6
CONTINUOUS
 62
             7
100
AcDbLine
 10
-415.2985460842965
 20
88.80358983848404
 11
-413.46006845321148
 21
88.80358983848404
  0
LINE
  5
1B0
100
AcDbEntity
  8
0
  6
CONTINUOUS
 62
             7
100
AcDbLine
 10
-308.3449936475406
 20
88.80358983848404
 11
-305.94290686301122
 21
88.80358983848404
  0
LINE
  5
1AF
100
AcDbEntity
  8
0
  6
CONTINUOUS
 62
             7
100
AcDbLine
 10
-291.21279956686573
 20
88.80358983848404
 11
-289.05097857487908
 21
88.80358983848413
  0
LINE
  5
1AE
100
AcDbEntity
  8
0
  6
CONTINUOUS
 62
             7
100
AcDbLine
 10
-276.13993154678792
 20
88.80358983848404
 11
-274.30145391570289
 21
88.80358983848404
  0
LINE
  5
1AD
100
AcDbEntity
  8
0
  6
CONTINUOUS
 62
             7
100
AcDbLine
 10
-263.70563145235712
 20
88.80358983848404
 11
-262.2611488465061
 21
88.80358983848404
  0
LINE
  5
1AC
100
AcDbEntity
  8
0
  6
CONTINUOUS
 62
             7
100
AcDbLine
 10
-254.3877424629664
 20
88.80358983848404
 11
-253.39276553881709
 21
88.80358983848413
  0
LINE
  5
1AB
100
AcDbEntity
  8
0
  6
CONTINUOUS
 62
             7
100
AcDbLine
 10
-248.5443458269456
 20
88.80358983848404
 11
-248.03711098970359
 21
88.80358983848404
  0
LINE
  5
1AA
100
AcDbEntity
  8
0
  6
CONTINUOUS
 62
             7
100
AcDbLine
 10
-284.0028587983598
 20
88.62806105586543
 11
-282.45683789163439
 21
88.62806105586543
  0
LINE
  5
1A9
100
AcDbEntity
  8
0
  6
CONTINUOUS
 62
             7
100
AcDbLine
 10
-274.30145391570289
 20
88.80358983848404
 11
-274.30145391570289
 21
57.80358983848402
  0
LINE
  5
1A8
100
AcDbEntity
  8
0
  6
CONTINUOUS
 62
             7
100
AcDbLine
 10
-298.1673286874161
 20
81.97377069479802
 11
-298.1673286874161
 21
88.62806105586543
  0
LINE
  5
1A7
100
AcDbEntity
  8
0
  6
CONTINUOUS
 62
             7
100
AcDbLine
 10
-298.1673286874161
 20
77.80358983848663
 11
-298.1673286874161
 21
81.97377069479802
  0
LINE
  5
1A6
100
AcDbEntity
  8
0
  6
CONTINUOUS
 62
             7
100
AcDbLine
 10
-297.32407213008469
 20
77.80358983848663
 11
-298.1673286874161
 21
81.97377069479802
  0
LINE
  5
1A5
100
AcDbEntity
  8
0
  6
CONTINUOUS
 62
             7
100
AcDbLine
 10
-289.05097857487908
 20
88.80358983848413
 11
-289.05097857487908
 21
77.80358983848663
  0
LINE
  5
1A4
100
AcDbEntity
  8
0
  6
CONTINUOUS
 62
             7
100
AcDbLine
 10
-299.93117121611277
 20
88.62806105586543
 11
-298.1673286874161
 21
88.62806105586543
  0
LINE
  5
1A3
100
AcDbEntity
  8
0
  6
CONTINUOUS
 62
             7
100
AcDbLine
 10
-305.94290686301122
 20
88.80358983848404
 11
-305.94290686301122
 21
77.80358983848663
  0
LINE
  5
1A2
100
AcDbEntity
  8
0
  6
CONTINUOUS
 62
             7
100
AcDbLine
 10
-315.66988688983702
 20
77.80358983848663
 11
-315.66988688983702
 21
88.62806105586543
  0
LINE
  5
1A1
100
AcDbEntity
  8
0
  6
CONTINUOUS
 62
             7
100
AcDbLine
 10
-317.5837675613015
 20
88.62806105586543
 11
-315.66988688983702
 21
88.62806105586543
  0
LINE
  5
1A0
100
AcDbEntity
  8
0
  6
CONTINUOUS
 62
             7
100
AcDbLine
 10
-334.29189900272593
 20
77.80358983848663
 11
-334.29189900272593
 21
88.62806105586543
  0
LINE
  5
19F
100
AcDbEntity
  8
0
  6
CONTINUOUS
 62
             7
100
AcDbLine
 10
-336.28226845607031
 20
88.62806105586543
 11
-334.29189900272593
 21
88.62806105586543
  0
LINE
  5
19E
100
AcDbEntity
  8
0
  6
CONTINUOUS
 62
             7
100
AcDbLine
 10
-346.09999999999968
 20
88.80358983848404
 11
-343.49999999999977
 21
88.80358983848404
  0
LINE
  5
19D
100
AcDbEntity
  8
0
  6
CONTINUOUS
 62
             7
100
AcDbLine
 10
-326.87813317813738
 20
88.80358983848404
 11
-324.32809144908902
 21
88.80358983848404
  0
LINE
  5
19C
100
AcDbEntity
  8
0
  6
CONTINUOUS
 62
             7
100
AcDbLine
 10
-324.32809144908902
 20
88.80358983848404
 11
-324.32809144908902
 21
57.80358983848402
  0
LINE
  5
19B
100
AcDbEntity
  8
0
  6
CONTINUOUS
 62
             7
100
AcDbLine
 10
-343.49999999999977
 20
88.80358983848404
 11
-343.49999999999977
 21
77.80358983848663
  0
LINE
  5
19A
100
AcDbEntity
  8
0
  6
CONTINUOUS
 62
             7
100
AcDbLine
 10
-305.94290686301122
 20
86.21094441232535
 11
-304.49469886715508
 21
77.80358983848663
  0
LINE
  5
199
100
AcDbEntity
  8
0
  6
CONTINUOUS
 62
             7
100
AcDbLine
 10
-425.89436854764227
 20
88.80358983848404
 11
-425.89436854764227
 21
57.80358983848402
  0
LINE
  5
198
100
AcDbEntity
  8
0
  6
CONTINUOUS
 62
             7
100
AcDbLine
 10
-413.46006845321148
 20
88.80358983848404
 11
-413.46006845321148
 21
57.80358983848402
  0
LINE
  5
197
100
AcDbEntity
  8
0
  6
CONTINUOUS
 62
             7
100
AcDbLine
 10
-427.33885115349329
 20
88.80358983848404
 11
-425.89436854764227
 21
88.80358983848404
  0
LINE
  5
196
100
AcDbEntity
  8
0
  6
CONTINUOUS
 62
             7
100
AcDbLine
 10
-415.2985460842965
 20
88.80358983848404
 11
-415.2985460842965
 21
57.80358983848402
  0
LINE
  5
195
100
AcDbEntity
  8
0
  6
CONTINUOUS
 62
             7
100
AcDbLine
 10
-315.66988688983702
 20
70.45718922545643
 11
-317.5837675613015
 21
70.45718922545643
  0
LINE
  5
194
100
AcDbEntity
  8
0
  6
CONTINUOUS
 62
             7
100
AcDbLine
 10
-319.80549018918288
 20
62.80358983848663
 11
-317.89160951771851
 21
62.80358983848663
  0
LINE
  5
193
100
AcDbEntity
  8
0
  6
CONTINUOUS
 62
             7
100
AcDbLine
 10
-334.29189900272593
 20
70.45718922545632
 11
-336.28226845607031
 21
70.45718922545632
  0
LINE
  5
192
100
AcDbEntity
  8
0
  6
CONTINUOUS
 62
             7
100
AcDbLine
 10
-337.03245238120911
 20
77.80358983848663
 11
-337.23115905124462
 21
77.80358983848663
  0
LINE
  5
191
100
AcDbEntity
  8
0
  6
CONTINUOUS
 62
             7
100
AcDbLine
 10
-328.63579014829048
 20
77.80358983848663
 11
-329.02412672031602
 21
77.80358983848663
  0
LINE
  5
190
100
AcDbEntity
  8
0
  6
CONTINUOUS
 62
             7
100
AcDbLine
 10
-329.02412672031602
 20
77.80358983848663
 11
-334.29189900272593
 21
77.80358983848663
  0
LINE
  5
18F
100
AcDbEntity
  8
0
  6
CONTINUOUS
 62
             7
100
AcDbLine
 10
-337.23115905124462
 20
77.80358983848663
 11
-343.49999999999977
 21
77.80358983848663
  0
LINE
  5
18E
100
AcDbEntity
  8
0
  6
CONTINUOUS
 62
             7
100
AcDbLine
 10
-319.80549018918288
 20
77.80358983848663
 11
-320.39397401339579
 21
77.80358983848663
  0
LINE
  5
18D
100
AcDbEntity
  8
0
  6
CONTINUOUS
 62
             7
100
AcDbLine
 10
-346.09999999999968
 20
77.80358983848663
 11
-352.36884094875478
 21
77.80358983848663
  0
LINE
  5
18C
100
AcDbEntity
  8
0
  6
CONTINUOUS
 62
             7
100
AcDbLine
 10
-319.80549018918288
 20
77.80358983848663
 11
-319.80549018918288
 21
62.80358983848663
  0
LINE
  5
18B
100
AcDbEntity
  8
0
  6
CONTINUOUS
 62
             7
100
AcDbLine
 10
-319.80549018918288
 20
62.80358983848663
 11
-317.5837675613015
 21
70.45718922545643
  0
LINE
  5
18A
100
AcDbEntity
  8
0
  6
CONTINUOUS
 62
             7
100
AcDbLine
 10
-317.89160951771851
 20
62.80358983848663
 11
-315.66988688983702
 21
70.45718922545643
  0
LINE
  5
189
100
AcDbEntity
  8
0
  6
CONTINUOUS
 62
             7
100
AcDbLine
 10
-328.63579014829048
 20
53.80358983848402
 11
-328.63579014829048
 21
77.80358983848663
  0
LINE
  5
188
100
AcDbEntity
  8
0
  6
CONTINUOUS
 62
             7
100
AcDbLine
 10
-337.03245238120911
 20
62.80358983848652
 11
-335.04208292786473
 21
62.80358983848652
  0
LINE
  5
187
100
AcDbEntity
  8
0
  6
CONTINUOUS
 62
             7
100
AcDbLine
 10
-337.03245238120911
 20
77.80358983848663
 11
-337.03245238120911
 21
62.80358983848652
  0
LINE
  5
186
100
AcDbEntity
  8
0
  6
CONTINUOUS
 62
             7
100
AcDbLine
 10
-343.49999999999977
 20
77.80358983848663
 11
-343.49999999999977
 21
57.80358983848402
  0
LINE
  5
185
100
AcDbEntity
  8
0
  6
CONTINUOUS
 62
             7
100
AcDbLine
 10
-346.09999999999968
 20
77.80358983848663
 11
-346.09999999999968
 21
57.80358983848402
  0
LINE
  5
184
100
AcDbEntity
  8
0
  6
CONTINUOUS
 62
             7
100
AcDbLine
 10
-343.49999999999977
 20
57.80358983848402
 11
-346.09999999999968
 21
57.80358983848402
  0
LINE
  5
183
100
AcDbEntity
  8
0
  6
CONTINUOUS
 62
             7
100
AcDbLine
 10
-335.04208292786473
 20
62.80358983848652
 11
-334.29189900272593
 21
70.45718922545632
  0
LINE
  5
182
100
AcDbEntity
  8
0
  6
CONTINUOUS
 62
             7
100
AcDbLine
 10
-337.03245238120911
 20
62.80358983848652
 11
-336.28226845607031
 21
70.45718922545632
  0
LINE
  5
181
100
AcDbEntity
  8
0
  6
CONTINUOUS
 62
             7
100
AcDbLine
 10
-407.08942356549483
 20
53.80358983848402
 11
-407.08942356549488
 21
70.37248066341505
  0
LINE
  5
180
100
AcDbEntity
  8
0
  6
CONTINUOUS
 62
             7
100
AcDbLine
 10
-413.46006845321148
 20
57.80358983848402
 11
-415.2985460842965
 21
57.80358983848402
  0
LINE
  5
17F
100
AcDbEntity
  8
0
  6
CONTINUOUS
 62
             7
100
AcDbLine
 10
-418.40328265249872
 20
53.80358983848402
 11
-418.40328265249872
 21
67.79932414053542
  0
LINE
  5
17E
100
AcDbEntity
  8
0
  6
CONTINUOUS
 62
             7
100
AcDbLine
 10
-413.46006845321148
 20
57.80358983848402
 11
-412.70219368928508
 21
53.80358983848402
  0
LINE
  5
17D
100
AcDbEntity
  8
0
  6
CONTINUOUS
 62
             7
100
AcDbLine
 10
-334.29189900272593
 20
70.45718922545632
 11
-334.29189900272593
 21
77.80358983848663
  0
LINE
  5
17C
100
AcDbEntity
  8
0
  6
CONTINUOUS
 62
             7
100
AcDbLine
 10
-251.635211341359
 20
70.45718922545632
 11
-252.21578069586789
 21
70.45718922545632
  0
LINE
  5
17B
100
AcDbEntity
  8
0
  6
CONTINUOUS
 62
             7
100
AcDbLine
 10
-304.49469886715508
 20
77.80358983848663
 11
-305.94290686301122
 21
77.80358983848663
  0
LINE
  5
17A
100
AcDbEntity
  8
0
  6
CONTINUOUS
 62
             7
100
AcDbLine
 10
-311.79276181618911
 20
77.80358983848663
 11
-312.55451140355888
 21
77.80358983848663
  0
LINE
  5
179
100
AcDbEntity
  8
0
  6
CONTINUOUS
 62
             7
100
AcDbLine
 10
-312.55451140355888
 20
77.80358983848663
 11
-315.66988688983702
 21
77.80358983848663
  0
LINE
  5
178
100
AcDbEntity
  8
0
  6
CONTINUOUS
 62
             7
100
AcDbLine
 10
-320.39397401339579
 20
77.80358983848663
 11
-324.32809144908902
 21
77.80358983848663
  0
LINE
  5
177
100
AcDbEntity
  8
0
  6
CONTINUOUS
 62
             7
100
AcDbLine
 10
-315.66988688983702
 20
70.45718922545643
 11
-315.66988688983702
 21
77.80358983848663
  0
LINE
  5
176
100
AcDbEntity
  8
0
  6
CONTINUOUS
 62
             7
100
AcDbLine
 10
-248.03711098970371
 20
57.80358983848402
 11
-248.5443458269456
 21
57.80358983848402
  0
LINE
  5
175
100
AcDbEntity
  8
0
  6
CONTINUOUS
 62
             7
100
AcDbLine
 10
-253.39276553881709
 20
57.80358983848402
 11
-254.38774246296629
 21
57.80358983848402
  0
LINE
  5
174
100
AcDbEntity
  8
0
  6
CONTINUOUS
 62
             7
100
AcDbLine
 10
-291.21279956686573
 20
57.80358983848402
 11
-291.80825794797153
 21
53.80358983848402
  0
LINE
  5
173
100
AcDbEntity
  8
0
  6
CONTINUOUS
 62
             7
100
AcDbLine
 10
-343.49999999999977
 20
57.80358983848402
 11
-343.49999999999977
 21
53.80358983848402
  0
LINE
  5
172
100
AcDbEntity
  8
0
  6
CONTINUOUS
 62
             7
100
AcDbLine
 10
-346.09999999999968
 20
57.80358983848402
 11
-346.09999999999968
 21
53.80358983848402
  0
LINE
  5
171
100
AcDbEntity
  8
0
  6
CONTINUOUS
 62
             7
100
AcDbLine
 10
-276.13993154678792
 20
57.80358983848402
 11
-276.89780631071437
 21
53.80358983848402
  0
LINE
  5
170
100
AcDbEntity
  8
0
  6
CONTINUOUS
 62
             7
100
AcDbLine
 10
-326.87813317813738
 20
57.80358983848402
 11
-327.08723035507882
 21
53.80358983848402
  0
LINE
  5
16F
100
AcDbEntity
  8
0
  6
CONTINUOUS
 62
             7
100
AcDbLine
 10
-262.2611488465061
 20
57.80358983848402
 11
-263.70563145235712
 21
57.80358983848402
  0
LINE
  5
16E
100
AcDbEntity
  8
0
  6
CONTINUOUS
 62
             7
100
AcDbLine
 10
-274.30145391570289
 20
57.80358983848402
 11
-276.13993154678792
 21
57.80358983848402
  0
LINE
  5
16D
100
AcDbEntity
  8
0
  6
CONTINUOUS
 62
             7
100
AcDbLine
 10
-324.32809144908902
 20
57.80358983848402
 11
-326.87813317813738
 21
57.80358983848402
  0
LINE
  5
16C
100
AcDbEntity
  8
0
  6
CONTINUOUS
 62
             7
100
AcDbLine
 10
-289.05097857487908
 20
57.80358983848402
 11
-291.21279956686573
 21
57.80358983848402
  0
LINE
  5
16B
100
AcDbEntity
  8
0
  6
CONTINUOUS
 62
             7
100
AcDbLine
 10
-305.94290686301122
 20
57.80358983848402
 11
-308.3449936475406
 21
57.80358983848402
  0
LINE
  5
16A
100
AcDbEntity
  8
0
  6
CONTINUOUS
 62
             7
100
AcDbLine
 10
-263.70563145235712
 20
57.80358983848402
 11
-264.5967978969469
 21
53.80358983848402
  0
LINE
  5
169
100
AcDbEntity
  8
0
  6
CONTINUOUS
 62
             7
100
AcDbLine
 10
-254.38774246296629
 20
57.80358983848402
 11
-255.37795356152691
 21
53.80358983848402
  0
LINE
  5
168
100
AcDbEntity
  8
0
  6
CONTINUOUS
 62
             7
100
AcDbLine
 10
-253.39276553881709
 20
57.80358983848402
 11
-254.38297663737771
 21
53.80358983848402
  0
LINE
  5
167
100
AcDbEntity
  8
0
  6
CONTINUOUS
 62
             7
100
AcDbLine
 10
-248.03711098970371
 20
57.80358983848402
 11
-249.08831348503369
 21
53.80358983848402
  0
LINE
  5
166
100
AcDbEntity
  8
0
  6
CONTINUOUS
 62
             7
100
AcDbLine
 10
-426.8886088643635
 20
53.80358983848402
 11
-426.88860886436339
 21
55.78267762006311
  0
LINE
  5
165
100
AcDbEntity
  8
0
  6
CONTINUOUS
 62
             7
100
AcDbLine
 10
-427.33885115349341
 20
57.80358983848402
 11
-426.44768470890301
 21
53.80358983848402
  0
LINE
  5
164
100
AcDbEntity
  8
0
  6
CONTINUOUS
 62
             7
100
AcDbLine
 10
-253.39276553881709
 20
69.22724332496455
 11
-252.21578069586789
 21
70.45718922545632
  0
LINE
  5
163
100
AcDbEntity
  8
0
  6
CONTINUOUS
 62
             7
100
AcDbLine
 10
-253.39276553881709
 20
68.62054995774986
 11
-251.635211341359
 21
70.45718922545632
  0
LINE
  5
162
100
AcDbEntity
  8
0
  6
CONTINUOUS
 62
             7
100
AcDbLine
 10
-258.73497018225851
 20
70.45718922545632
 11
-259.6777636559105
 21
70.45718922545632
  0
LINE
  5
161
100
AcDbEntity
  8
0
  6
CONTINUOUS
 62
             7
100
AcDbLine
 10
-262.2611488465061
 20
67.52791957857426
 11
-259.6777636559105
 21
70.45718922545632
  0
LINE
  5
160
100
AcDbEntity
  8
0
  6
CONTINUOUS
 62
             7
100
AcDbLine
 10
-305.94290686301122
 20
77.80358983848663
 11
-305.94290686301122
 21
57.80358983848402
  0
LINE
  5
15F
100
AcDbEntity
  8
0
  6
CONTINUOUS
 62
             7
100
AcDbLine
 10
-303.53905299210379
 20
77.80358983848663
 11
-303.53905299210379
 21
62.80358983848652
  0
LINE
  5
15E
100
AcDbEntity
  8
0
  6
CONTINUOUS
 62
             7
100
AcDbLine
 10
-262.71139113563601
 20
53.80358983848402
 11
-262.71139113563601
 21
55.78267762006311
  0
LINE
  5
15D
100
AcDbEntity
  8
0
  6
CONTINUOUS
 62
             7
100
AcDbLine
 10
-303.53905299210379
 20
62.80358983848652
 11
-301.77521046340712
 21
62.80358983848652
  0
LINE
  5
15C
100
AcDbEntity
  8
0
  6
CONTINUOUS
 62
             7
100
AcDbLine
 10
-308.3449936475406
 20
57.80358983848402
 11
-308.75515251417681
 21
53.80358983848402
  0
LINE
  5
15B
100
AcDbEntity
  8
0
  6
CONTINUOUS
 62
             7
100
AcDbLine
 10
-298.1673286874161
 20
70.45718922545632
 11
-299.93117121611277
 21
70.45718922545632
  0
LINE
  5
15A
100
AcDbEntity
  8
0
  6
CONTINUOUS
 62
             7
100
AcDbLine
 10
-297.32407213008469
 20
77.80358983848663
 11
-298.1673286874161
 21
77.80358983848663
  0
LINE
  5
159
100
AcDbEntity
  8
0
  6
CONTINUOUS
 62
             7
100
AcDbLine
 10
-298.1673286874161
 20
70.45718922545632
 11
-298.1673286874161
 21
77.80358983848663
  0
LINE
  5
158
100
AcDbEntity
  8
0
  6
CONTINUOUS
 62
             7
100
AcDbLine
 10
-311.79276181618911
 20
53.80358983848402
 11
-311.79276181618911
 21
77.80358983848663
  0
LINE
  5
157
100
AcDbEntity
  8
0
  6
CONTINUOUS
 62
             7
100
AcDbLine
 10
-288.8582508491325
 20
62.80358983848652
 11
-287.31222994240699
 21
62.80358983848652
  0
LINE
  5
156
100
AcDbEntity
  8
0
  6
CONTINUOUS
 62
             7
100
AcDbLine
 10
-282.45683789163439
 20
70.45718922545632
 11
-284.0028587983598
 21
70.45718922545632
  0
LINE
  5
155
100
AcDbEntity
  8
0
  6
CONTINUOUS
 62
             7
100
AcDbLine
 10
-289.05097857487908
 20
77.80358983848663
 11
-289.05097857487908
 21
57.80358983848402
  0
LINE
  5
154
100
AcDbEntity
  8
0
  6
CONTINUOUS
 62
             7
100
AcDbLine
 10
-288.8582508491325
 20
77.80358983848663
 11
-288.8582508491325
 21
62.80358983848652
  0
LINE
  5
153
100
AcDbEntity
  8
0
  6
CONTINUOUS
 62
             7
100
AcDbLine
 10
-269.14215985322897
 20
70.45718922545632
 11
-270.41094642155628
 21
70.45718922545632
  0
LINE
  5
152
100
AcDbEntity
  8
0
  6
CONTINUOUS
 62
             7
100
AcDbLine
 10
-305.94290686301122
 20
57.80358983848402
 11
-306.35306572964743
 21
53.80358983848402
  0
LINE
  5
151
100
AcDbEntity
  8
0
  6
CONTINUOUS
 62
             7
100
AcDbLine
 10
-262.2611488465061
 20
57.80358983848402
 11
-263.15231529109587
 21
53.80358983848402
  0
LINE
  5
150
100
AcDbEntity
  8
0
  6
CONTINUOUS
 62
             7
100
AcDbLine
 10
-274.30145391570289
 20
65.42425923437781
 11
-270.41094642155628
 21
70.45718922545632
  0
LINE
  5
14F
100
AcDbEntity
  8
0
  6
CONTINUOUS
 62
             7
100
AcDbLine
 10
-262.2611488465061
 20
66.45889730667261
 11
-258.73497018225851
 21
70.45718922545632
  0
LINE
  5
14E
100
AcDbEntity
  8
0
  6
CONTINUOUS
 62
             7
100
AcDbLine
 10
-303.53905299210379
 20
62.80358983848652
 11
-299.93117121611277
 21
70.45718922545632
  0
LINE
  5
14D
100
AcDbEntity
  8
0
  6
CONTINUOUS
 62
             7
100
AcDbLine
 10
-393.38181686318018
 20
53.80358983848402
 11
-393.38181686318018
 21
77.80358983848663
  0
LINE
  5
14C
100
AcDbEntity
  8
0
  6
CONTINUOUS
 62
             7
100
AcDbLine
 10
-415.2985460842965
 20
57.80358983848402
 11
-414.54067132037062
 21
53.80358983848402
  0
LINE
  5
14B
100
AcDbEntity
  8
0
  6
CONTINUOUS
 62
             7
100
AcDbLine
 10
-425.89436854764227
 20
57.80358983848402
 11
-427.33885115349341
 21
57.80358983848402
  0
LINE
  5
14A
100
AcDbEntity
  8
0
  6
CONTINUOUS
 62
             7
100
AcDbLine
 10
-425.89436854764227
 20
57.80358983848402
 11
-425.00320210305199
 21
53.80358983848402
  0
LINE
  5
149
100
AcDbEntity
  8
0
  6
CONTINUOUS
 62
             7
100
AcDbLine
 10
-327.08723035507882
 20
53.80358983848402
 11
-328.63579014829048
 21
53.80358983848402
  0
LINE
  5
148
100
AcDbEntity
  8
0
  6
CONTINUOUS
 62
             7
100
AcDbLine
 10
-328.63579014829048
 20
53.80358983848402
 11
-340.49999999999972
 21
53.80358983848402
  0
LINE
  5
147
100
AcDbEntity
  8
0
  6
CONTINUOUS
 62
             7
100
AcDbLine
 10
-327.08723035507882
 20
53.80358983848402
 11
-324.53718862603068
 21
53.80358983848402
  0
LINE
  5
146
100
AcDbEntity
  8
0
  6
CONTINUOUS
 62
             7
100
AcDbLine
 10
-346.09999999999968
 20
53.80358983848402
 11
-343.49999999999977
 21
53.80358983848402
  0
LINE
  5
145
100
AcDbEntity
  8
0
  6
CONTINUOUS
 62
             7
100
AcDbLine
 10
-323.16173479662842
 20
53.80358983848402
 11
-323.63050910490568
 21
53.80358983848402
  0
LINE
  5
144
100
AcDbEntity
  8
0
  6
CONTINUOUS
 62
             7
100
AcDbLine
 10
-323.63050910490568
 20
53.80358983848402
 11
-324.53718862603068
 21
53.80358983848402
  0
LINE
  5
143
100
AcDbEntity
  8
0
  6
CONTINUOUS
 62
             7
100
AcDbLine
 10
-308.75515251417681
 20
53.80358983848402
 11
-311.79276181618911
 21
53.80358983848402
  0
LINE
  5
142
100
AcDbEntity
  8
0
  6
CONTINUOUS
 62
             7
100
AcDbLine
 10
-306.35306572964743
 20
53.80358983848402
 11
-308.75515251417681
 21
53.80358983848402
  0
LINE
  5
141
100
AcDbEntity
  8
0
  6
CONTINUOUS
 62
             7
100
AcDbLine
 10
-311.79276181618911
 20
53.80358983848402
 11
-323.16173479662842
 21
53.80358983848402
  0
LINE
  5
140
100
AcDbEntity
  8
0
  6
CONTINUOUS
 62
             7
100
AcDbLine
 10
-260.41485524547232
 20
53.80358983848402
 11
-262.71139113563601
 21
53.80358983848402
  0
LINE
  5
13F
100
AcDbEntity
  8
0
  6
CONTINUOUS
 62
             7
100
AcDbLine
 10
-262.71139113563601
 20
53.80358983848402
 11
-263.15231529109587
 21
53.80358983848402
  0
LINE
  5
13E
100
AcDbEntity
  8
0
  6
CONTINUOUS
 62
             7
100
AcDbLine
 10
-278.6172600106475
 20
53.80358983848402
 11
-276.89780631071437
 21
53.80358983848402
  0
LINE
  5
13D
100
AcDbEntity
  8
0
  6
CONTINUOUS
 62
             7
100
AcDbLine
 10
-276.89780631071437
 20
53.80358983848402
 11
-275.0593286796302
 21
53.80358983848402
  0
LINE
  5
13C
100
AcDbEntity
  8
0
  6
CONTINUOUS
 62
             7
100
AcDbLine
 10
-282.51057643450463
 20
53.80358983848402
 11
-278.6172600106475
 21
53.80358983848402
  0
LINE
  5
13B
100
AcDbEntity
  8
0
  6
CONTINUOUS
 62
             7
100
AcDbLine
 10
-291.80825794797153
 20
53.80358983848402
 11
-296.21818313681928
 21
53.80358983848402
  0
LINE
  5
13A
100
AcDbEntity
  8
0
  6
CONTINUOUS
 62
             7
100
AcDbLine
 10
-289.64643695598562
 20
53.80358983848402
 11
-291.80825794797153
 21
53.80358983848402
  0
LINE
  5
139
100
AcDbEntity
  8
0
  6
CONTINUOUS
 62
             7
100
AcDbLine
 10
-300.09978247885272
 20
53.80358983848402
 11
-306.35306572964743
 21
53.80358983848402
  0
LINE
  5
138
100
AcDbEntity
  8
0
  6
CONTINUOUS
 62
             7
100
AcDbLine
 10
-258.05816765257589
 20
53.80358983848402
 11
-255.39999999999981
 21
53.80358983848402
  0
LINE
  5
137
100
AcDbEntity
  8
0
  6
CONTINUOUS
 62
             7
100
AcDbLine
 10
-260.41485524547232
 20
53.80358983848402
 11
-258.05816765257589
 21
53.80358983848402
  0
LINE
  5
136
100
AcDbEntity
  8
0
  6
CONTINUOUS
 62
             7
100
AcDbLine
 10
-407.08942356549483
 20
53.80358983848402
 11
-412.70219368928508
 21
53.80358983848402
  0
LINE
  5
135
100
AcDbEntity
  8
0
  6
CONTINUOUS
 62
             7
100
AcDbLine
 10
-426.8886088643635
 20
53.80358983848402
 11
-429.18514475452707
 21
53.80358983848402
  0
LINE
  5
134
100
AcDbEntity
  8
0
  6
CONTINUOUS
 62
             7
100
AcDbLine
 10
-418.40328265249872
 20
53.80358983848402
 11
-421.43630192382642
 21
53.80358983848402
  0
LINE
  5
133
100
AcDbEntity
  8
0
  6
CONTINUOUS
 62
             7
100
AcDbLine
 10
-389.50021752114668
 20
53.80358983848402
 11
-393.38181686318018
 21
53.80358983848402
  0
LINE
  5
132
100
AcDbEntity
  8
0
  6
CONTINUOUS
 62
             7
100
AcDbLine
 10
-412.70219368928508
 20
53.80358983848402
 11
-414.54067132037062
 21
53.80358983848402
  0
LINE
  5
131
100
AcDbEntity
  8
0
  6
CONTINUOUS
 62
             7
100
AcDbLine
 10
-383.24693427035203
 20
53.80358983848402
 11
-389.50021752114668
 21
53.80358983848402
  0
LINE
  5
130
100
AcDbEntity
  8
0
  6
CONTINUOUS
 62
             7
100
AcDbLine
 10
-429.18514475452707
 20
53.80358983848402
 11
-431.69367065557742
 21
53.80358983848402
  0
LINE
  5
12F
100
AcDbEntity
  8
0
  6
CONTINUOUS
 62
             7
100
AcDbLine
 10
-270.1616013464772
 20
53.80358983848402
 11
-271.19671734750068
 21
53.80358983848402
  0
LINE
  5
12E
100
AcDbEntity
  8
0
  6
CONTINUOUS
 62
             7
100
AcDbLine
 10
-268.16369807617298
 20
53.80358983848402
 11
-270.1616013464772
 21
53.80358983848402
  0
LINE
  5
12D
100
AcDbEntity
  8
0
  6
CONTINUOUS
 62
             7
100
AcDbLine
 10
-264.5967978969469
 20
53.80358983848402
 11
-263.15231529109587
 21
53.80358983848402
  0
LINE
  5
12C
100
AcDbEntity
  8
0
  6
CONTINUOUS
 62
             7
100
AcDbLine
 10
-268.16369807617298
 20
53.80358983848402
 11
-264.5967978969469
 21
53.80358983848402
  0
LINE
  5
12B
100
AcDbEntity
  8
0
  6
CONTINUOUS
 62
             7
100
AcDbLine
 10
-249.08831348503369
 20
53.80358983848402
 11
-249.59554832227681
 21
53.80358983848402
  0
LINE
  5
12A
100
AcDbEntity
  8
0
  6
CONTINUOUS
 62
             7
100
AcDbLine
 10
-247.4717967697276
 20
53.80358983848402
 11
-249.08831348503369
 21
53.80358983848402
  0
LINE
  5
129
100
AcDbEntity
  8
0
  6
CONTINUOUS
 62
             7
100
AcDbLine
 10
-255.37795356152691
 20
53.80358983848402
 11
-255.39999999999981
 21
53.80358983848402
  0
LINE
  5
128
100
AcDbEntity
  8
0
  6
CONTINUOUS
 62
             7
100
AcDbLine
 10
-254.38297663737771
 20
53.80358983848402
 11
-255.37795356152691
 21
53.80358983848402
  0
LINE
  5
127
100
AcDbEntity
  8
0
  6
CONTINUOUS
 62
             7
100
AcDbLine
 10
-249.59554832227681
 20
53.80358983848402
 11
-254.38297663737771
 21
53.80358983848402
  0
LINE
  5
126
100
AcDbEntity
  8
0
  6
CONTINUOUS
 62
             7
100
AcDbLine
 10
-274.30145391570278
 20
63.78290165272051
 11
-269.14215985322897
 21
70.45718922545632
  0
LINE
  5
125
100
AcDbEntity
  8
0
  6
CONTINUOUS
 62
             7
100
AcDbLine
 10
-287.31222994240699
 20
62.80358983848652
 11
-282.45683789163439
 21
70.45718922545632
  0
LINE
  5
124
100
AcDbEntity
  8
0
  6
CONTINUOUS
 62
             7
100
AcDbLine
 10
-288.8582508491325
 20
62.80358983848652
 11
-284.0028587983598
 21
70.45718922545632
  0
LINE
  5
123
100
AcDbEntity
  8
0
  6
CONTINUOUS
 62
             7
100
AcDbLine
 10
-301.77521046340712
 20
62.80358983848652
 11
-298.1673286874161
 21
70.45718922545632
  0
LINE
  5
122
100
AcDbEntity
  8
0
  6
CONTINUOUS
 62
             7
100
AcDbLine
 10
-437.96478865864037
 20
88.62806105586543
 11
-437.38421930413148
 21
88.62806105586543
  0
LINE
  5
121
100
AcDbEntity
  8
0
  6
CONTINUOUS
 62
             7
100
AcDbLine
 10
-437.38421930413148
 20
88.62806105586543
 11
-431.29022092294178
 21
106.20923631881141
  0
LINE
  5
120
100
AcDbEntity
  8
0
  6
CONTINUOUS
 62
             7
100
AcDbLine
 10
-437.96478865864037
 20
88.62806105586543
 11
-431.87079027745068
 21
106.20923631881141
  0
LINE
  5
11F
100
AcDbEntity
  8
0
  6
CONTINUOUS
 62
             7
100
AcDbLine
 10
-437.96478865864037
 20
70.45718922545632
 11
-437.96478865864037
 21
88.62806105586543
  0
LINE
  5
11E
100
AcDbEntity
  8
0
  6
CONTINUOUS
 62
             7
100
AcDbLine
 10
-436.20723446118228
 20
69.22724332496455
 11
-437.38421930413148
 21
70.45718922545632
  0
LINE
  5
11D
100
AcDbEntity
  8
0
  6
CONTINUOUS
 62
             7
100
AcDbLine
 10
-437.38421930413148
 20
70.45718922545632
 11
-437.96478865864037
 21
70.45718922545632
  0
LINE
  5
11C
100
AcDbEntity
  8
0
  6
CONTINUOUS
 62
             7
100
AcDbLine
 10
-436.20723446118228
 20
68.62054995774986
 11
-437.96478865864037
 21
70.45718922545632
  0
LINE
  5
11B
100
AcDbEntity
  8
0
  6
CONTINUOUS
 62
             7
100
AcDbLine
 10
-437.38421930413148
 20
70.45718922545632
 11
-437.38421930413148
 21
88.62806105586543
  0
LINE
  5
11A
100
AcDbEntity
  8
0
  6
CONTINUOUS
 62
             7
100
AcDbLine
 10
-418.92335806983419
 20
152.22379127174389
 11
-441.56288901029581
 21
88.80358983848404
  0
LINE
  5
119
100
AcDbEntity
  8
0
  6
CONTINUOUS
 62
             7
100
AcDbLine
 10
-432.69488039698302
 20
33.69641016151343
 11
-432.79999999999973
 21
33.69641016151343
  0
LINE
  5
118
100
AcDbEntity
  8
0
  6
CONTINUOUS
 62
             7
100
AcDbLine
 10
-434.90131899927172
 20
34.25945689040856
 11
-432.79999999999973
 21
33.69641016151343
  0
LINE
  5
117
100
AcDbEntity
  8
0
  6
CONTINUOUS
 62
             7
100
AcDbLine
 10
-434.90131899927172
 20
34.77083669105696
 11
-434.1999999999997
 21
34.95875455054841
  0
LINE
  5
116
100
AcDbEntity
  8
0
  6
CONTINUOUS
 62
             7
100
AcDbLine
 10
-431.69367065557742
 20
33.69641016151343
 11
-432.69488039698302
 21
33.69641016151343
  0
LINE
  5
115
100
AcDbEntity
  8
0
  6
CONTINUOUS
 62
             7
100
AcDbLine
 10
-434.90131899927172
 20
34.77083669105696
 11
-434.90131899927172
 21
34.25945689040856
  0
LINE
  5
114
100
AcDbEntity
  8
0
  6
CONTINUOUS
 62
             7
100
AcDbLine
 10
-434.90131899927172
 20
34.77083669105696
 11
-434.79865379775691
 21
34.77083669105696
  0
LINE
  5
113
100
AcDbEntity
  8
0
  6
CONTINUOUS
 62
             7
100
AcDbLine
 10
-434.79865379775691
 20
34.25945689040856
 11
-434.90131899927172
 21
34.25945689040856
  0
LINE
  5
112
100
AcDbEntity
  8
0
  6
CONTINUOUS
 62
             7
100
AcDbLine
 10
-434.79865379775691
 20
34.77083669105696
 11
-434.79865379775691
 21
34.25945689040856
  0
LINE
  5
111
100
AcDbEntity
  8
0
  6
CONTINUOUS
 62
             7
100
AcDbLine
 10
-431.69367065557742
 20
53.80358983848402
 11
-431.69367065557742
 21
33.69641016151343
  0
LINE
  5
110
100
AcDbEntity
  8
0
  6
CONTINUOUS
 62
             7
100
AcDbLine
 10
-430.86502981774089
 20
70.45718922545632
 11
-430.86502981774089
 21
88.62806105586543
  0
LINE
  5
10F
100
AcDbEntity
  8
0
  6
CONTINUOUS
 62
             7
100
AcDbLine
 10
-429.9222363440889
 20
70.45718922545632
 11
-430.86502981774089
 21
70.45718922545632
  0
LINE
  5
10E
100
AcDbEntity
  8
0
  6
CONTINUOUS
 62
             7
100
AcDbLine
 10
-429.18514475452707
 20
53.80358983848402
 11
-429.18514475452707
 21
33.69641016151343
  0
LINE
  5
10D
100
AcDbEntity
  8
0
  6
CONTINUOUS
 62
             7
100
AcDbLine
 10
-429.9222363440889
 20
70.45718922545632
 11
-429.9222363440889
 21
88.62806105586543
  0
LINE
  5
10C
100
AcDbEntity
  8
0
  6
CONTINUOUS
 62
             7
100
AcDbLine
 10
-430.86502981774089
 20
88.62806105586543
 11
-425.24876874419817
 21
106.20923631881141
  0
LINE
  5
10B
100
AcDbEntity
  8
0
  6
CONTINUOUS
 62
             3
100
AcDbLine
 10
-431.29022092294178
 20
106.20923631881141
 11
-431.87079027745068
 21
106.20923631881141
  0
LINE
  5
10A
100
AcDbEntity
  8
0
  6
CONTINUOUS
 62
             7
100
AcDbLine
 10
-430.86502981774089
 20
88.62806105586543
 11
-429.9222363440889
 21
88.62806105586543
  0
LINE
  5
109
100
AcDbEntity
  8
0
  6
CONTINUOUS
 62
             7
100
AcDbLine
 10
-429.9222363440889
 20
88.62806105586543
 11
-424.30597527054618
 21
106.20923631881141
  0
LINE
  5
108
100
AcDbEntity
  8
0
  6
CONTINUOUS
 62
             7
100
AcDbLine
 10
-413.88628570663673
 20
152.2237912717446
 11
-435.21225753703322
 21
88.80358983848404
  0
LINE
  5
107
100
AcDbEntity
  8
0
  6
CONTINUOUS
 62
             7
100
AcDbLine
 10
-431.69367065557742
 20
33.69641016151343
 11
-429.18514475452707
 21
33.69641016151343
  0
LINE
  5
106
100
AcDbEntity
  8
0
  6
CONTINUOUS
 62
             7
100
AcDbLine
 10
-427.33885115349329
 20
67.52791957857426
 11
-429.9222363440889
 21
70.45718922545632
  0
LINE
  5
105
100
AcDbEntity
  8
0
  6
CONTINUOUS
 62
             7
100
AcDbLine
 10
-427.33885115349329
 20
66.45889730667261
 11
-430.86502981774089
 21
70.45718922545632
  0
LINE
  5
104
100
AcDbEntity
  8
0
  6
CONTINUOUS
 62
             7
100
AcDbLine
 10
-419.18905357844312
 20
70.45718922545632
 11
-419.18905357844312
 21
88.62806105586543
  0
LINE
  5
103
100
AcDbEntity
  8
0
  6
CONTINUOUS
 62
             7
100
AcDbLine
 10
-422.02009778295621
 20
34.77083669105696
 11
-422.02009778295621
 21
34.25945689040856
  0
LINE
  5
102
100
AcDbEntity
  8
0
  6
CONTINUOUS
 62
             7
100
AcDbLine
 10
-419.18905357844312
 20
70.45718922545632
 11
-420.45784014677042
 21
70.45718922545632
  0
LINE
  5
101
100
AcDbEntity
  8
0
  6
CONTINUOUS
 62
             7
100
AcDbLine
 10
-420.45784014677042
 20
70.45718922545632
 11
-420.45784014677042
 21
88.62806105586543
  0
LINE
  5
100
100
AcDbEntity
  8
0
  6
CONTINUOUS
 62
             7
100
AcDbLine
 10
-419.18905357844312
 20
88.62806105586543
 11
-414.26635957596818
 21
106.20923631881141
  0
LINE
  5
FF
100
AcDbEntity
  8
0
  6
CONTINUOUS
 62
             7
100
AcDbLine
 10
-420.45784014677042
 20
88.62806105586543
 11
-415.53514614429548
 21
106.20923631881141
  0
LINE
  5
FE
100
AcDbEntity
  8
0
  6
CONTINUOUS
 62
             7
100
AcDbLine
 10
-408.14598357085788
 20
152.22379127174389
 11
-427.33885115349329
 21
88.80358983848404
  0
LINE
  5
FD
100
AcDbEntity
  8
0
  6
CONTINUOUS
 62
             7
100
AcDbLine
 10
-420.45784014677042
 20
88.62806105586543
 11
-419.18905357844312
 21
88.62806105586543
  0
LINE
  5
FC
100
AcDbEntity
  8
0
  6
CONTINUOUS
 62
             3
100
AcDbLine
 10
-424.30597527054618
 20
106.20923631881141
 11
-425.24876874419817
 21
106.20923631881141
  0
LINE
  5
FB
100
AcDbEntity
  8
0
  6
CONTINUOUS
 62
             7
100
AcDbLine
 10
-415.2985460842965
 20
65.42425923437781
 11
-419.18905357844312
 21
70.45718922545632
  0
LINE
  5
FA
100
AcDbEntity
  8
0
  6
CONTINUOUS
 62
             7
100
AcDbLine
 10
-425.00320210305199
 20
53.80358983848402
 11
-421.43630192382642
 21
53.80358983848402
  0
LINE
  5
F9
100
AcDbEntity
  8
0
  6
CONTINUOUS
 62
             7
100
AcDbLine
 10
-415.29854608429662
 20
63.78290165272051
 11
-420.45784014677042
 21
70.45718922545632
  0
LINE
  5
F8
100
AcDbEntity
  8
0
  6
CONTINUOUS
 62
             7
100
AcDbLine
 10
-404.9016216711475
 20
34.95875455054841
 11
-421.43630192382642
 21
34.95875455054841
  0
LINE
  5
F7
100
AcDbEntity
  8
0
  6
CONTINUOUS
 62
             7
100
AcDbLine
 10
-422.02009778295621
 20
34.77083669105696
 11
-405.39809923895211
 21
34.77083669105696
  0
LINE
  5
F6
100
AcDbEntity
  8
0
  6
CONTINUOUS
 62
             7
100
AcDbLine
 10
-426.44768470890301
 20
53.80358983848402
 11
-426.8886088643635
 21
53.80358983848402
  0
LINE
  5
F5
100
AcDbEntity
  8
0
  6
CONTINUOUS
 62
             7
100
AcDbLine
 10
-426.44768470890301
 20
53.80358983848402
 11
-425.00320210305199
 21
53.80358983848402
  0
LINE
  5
F4
100
AcDbEntity
  8
0
  6
CONTINUOUS
 62
             3
100
AcDbLine
 10
-414.26635957596818
 20
106.20923631881141
 11
-415.53514614429548
 21
106.20923631881141
  0
LINE
  5
F3
100
AcDbEntity
  8
0
  6
CONTINUOUS
 62
             3
100
AcDbLine
 10
-418.41612323259221
 20
152.22379127174389
 11
-418.92335806983419
 21
152.22379127174389
  0
LINE
  5
F2
100
AcDbEntity
  8
0
  6
CONTINUOUS
 62
             7
100
AcDbLine
 10
-421.43630192382642
 20
34.95875455054841
 11
-421.43630192382642
 21
53.80358983848402
  0
LINE
  5
F1
100
AcDbEntity
  8
0
  6
CONTINUOUS
 62
             7
100
AcDbLine
 10
-398.97635388714048
 20
152.22379127174381
 11
-415.2985460842965
 21
88.80358983848404
  0
LINE
  5
F0
100
AcDbEntity
  8
0
  6
CONTINUOUS
 62
             3
100
AcDbLine
 10
-413.88628570663673
 20
152.2237912717446
 11
-414.88126263078578
 21
152.2237912717446
  0
LINE
  5
EF
100
AcDbEntity
  8
0
  6
CONTINUOUS
 62
             7
100
AcDbLine
 10
-371.22753839914571
 20
158.8035898384868
 11
-368.82545161461638
 21
158.8035898384868
  0
LINE
  5
EE
100
AcDbEntity
  8
0
  6
CONTINUOUS
 62
             7
100
AcDbLine
 10
-378.11357367117341
 20
158.803589838486
 11
-380.34228383103471
 21
158.8035898384868
  0
LINE
  5
ED
100
AcDbEntity
  8
0
  6
CONTINUOUS
 62
             7
100
AcDbLine
 10
-380.34228383103471
 20
158.8035898384868
 11
-382.50410482302129
 21
158.8035898384868
  0
LINE
  5
EC
100
AcDbEntity
  8
0
  6
CONTINUOUS
 62
             7
100
AcDbLine
 10
-387.65663603259549
 20
158.803589838486
 11
-382.50410482302129
 21
158.8035898384868
  0
LINE
  5
EB
100
AcDbEntity
  8
0
  6
CONTINUOUS
 62
             7
100
AcDbLine
 10
-387.65663603259549
 20
158.803589838486
 11
-387.6566360325956
 21
152.54353002478459
  0
LINE
  5
EA
100
AcDbEntity
  8
0
  6
CONTINUOUS
 62
             7
100
AcDbLine
 10
-387.65663603259549
 20
158.803589838486
 11
-390.49324601216858
 21
158.8035898384868
  0
LINE
  5
E9
100
AcDbEntity
  8
0
  6
CONTINUOUS
 62
             7
100
AcDbLine
 10
-390.49324601216858
 20
158.8035898384868
 11
-392.33172364325361
 21
158.8035898384868
  0
LINE
  5
E8
100
AcDbEntity
  8
0
  6
CONTINUOUS
 62
             7
100
AcDbLine
 10
-395.55274190556332
 20
158.8035898384849
 11
-398.88824237412263
 21
158.8035898384868
  0
LINE
  5
E7
100
AcDbEntity
  8
0
  6
CONTINUOUS
 62
             7
100
AcDbLine
 10
-395.55274190556332
 20
158.8035898384849
 11
-392.33172364325361
 21
158.8035898384868
  0
LINE
  5
E6
100
AcDbEntity
  8
0
  6
CONTINUOUS
 62
             7
100
AcDbLine
 10
-378.11357367117341
 20
158.803589838486
 11
-378.11357367117341
 21
147.8035898405501
  0
LINE
  5
E5
100
AcDbEntity
  8
0
  6
CONTINUOUS
 62
             7
100
AcDbLine
 10
-378.11357367117341
 20
158.803589838486
 11
-371.22753839914571
 21
158.8035898384868
  0
LINE
  5
E4
100
AcDbEntity
  8
0
  6
CONTINUOUS
 62
             7
100
AcDbLine
 10
-374.82358637405071
 20
152.22379127174389
 11
-375.43925580356211
 21
147.80358984056511
  0
LINE
  5
E3
100
AcDbEntity
  8
0
  6
CONTINUOUS
 62
             7
100
AcDbLine
 10
-395.55274190556332
 20
158.8035898384849
 11
-395.55274190556332
 21
157.7058413911974
  0
LINE
  5
E2
100
AcDbEntity
  8
0
  6
CONTINUOUS
 62
             7
100
AcDbLine
 10
-401.49844836956589
 20
158.803589838486
 11
-405.2046579146749
 21
158.8035898384868
  0
LINE
  5
E1
100
AcDbEntity
  8
0
  6
CONTINUOUS
 62
             7
100
AcDbLine
 10
-409.7069911641305
 20
158.8035898384868
 11
-410.72000821925928
 21
158.8035898384868
  0
LINE
  5
E0
100
AcDbEntity
  8
0
  6
CONTINUOUS
 62
             7
100
AcDbLine
 10
-398.88824237412263
 20
158.8035898384868
 11
-400.33272497997359
 21
158.8035898384868
  0
LINE
  5
DF
100
AcDbEntity
  8
0
  6
CONTINUOUS
 62
             7
100
AcDbLine
 10
-401.49844836956589
 20
158.803589838486
 11
-400.33272497997359
 21
158.8035898384868
  0
LINE
  5
DE
100
AcDbEntity
  8
0
  6
CONTINUOUS
 62
             7
100
AcDbLine
 10
-401.49844836956589
 20
158.803589838486
 11
-401.49844836956589
 21
158.70482137330521
  0
LINE
  5
DD
100
AcDbEntity
  8
0
  6
CONTINUOUS
 62
             7
100
AcDbLine
 10
-406.19963483882412
 20
158.8035898384868
 11
-409.19975632688858
 21
158.8035898384868
  0
LINE
  5
DC
100
AcDbEntity
  8
0
  6
CONTINUOUS
 62
             7
100
AcDbLine
 10
-409.19975632688858
 20
158.8035898384868
 11
-409.7069911641305
 21
158.8035898384868
  0
LINE
  5
DB
100
AcDbEntity
  8
0
  6
CONTINUOUS
 62
             7
100
AcDbLine
 10
-405.2046579146749
 20
158.8035898384868
 11
-406.19963483882412
 21
158.8035898384868
  0
LINE
  5
DA
100
AcDbEntity
  8
0
  6
CONTINUOUS
 62
             7
100
AcDbLine
 10
-367.29028935603537
 20
158.8035898384849
 11
-368.82545161461638
 21
158.8035898384868
  0
LINE
  5
D9
100
AcDbEntity
  8
0
  6
CONTINUOUS
 62
             7
100
AcDbLine
 10
-355.6027158336446
 20
158.803589838486
 11
-356.3853347662768
 21
158.8035898384868
  0
LINE
  5
D8
100
AcDbEntity
  8
0
  6
CONTINUOUS
 62
             7
100
AcDbLine
 10
-356.3853347662768
 20
158.8035898384868
 11
-358.93537649532522
 21
158.8035898384868
  0
LINE
  5
D7
100
AcDbEntity
  8
0
  6
CONTINUOUS
 62
             7
100
AcDbLine
 10
-355.6027158336446
 20
158.803589838486
 11
-355.6027158336446
 21
147.8035898405501
  0
LINE
  5
D6
100
AcDbEntity
  8
0
  6
CONTINUOUS
 62
             7
100
AcDbLine
 10
-367.29028935603537
 20
158.8035898384849
 11
-358.93537649532522
 21
158.8035898384868
  0
LINE
  5
D5
100
AcDbEntity
  8
0
  6
CONTINUOUS
 62
             7
100
AcDbLine
 10
-367.29028935603537
 20
158.8035898384849
 11
-367.29028935603549
 21
147.80358984056491
  0
LINE
  5
D4
100
AcDbEntity
  8
0
  6
CONTINUOUS
 62
             7
100
AcDbLine
 10
-355.60537836502618
 20
147.80358984056511
 11
-355.6027158336446
 21
147.8035898405501
  0
LINE
  5
D3
100
AcDbEntity
  8
0
  6
CONTINUOUS
 62
             3
100
AcDbLine
 10
-358.21858412612983
 20
152.22379127174389
 11
-360.76862585517819
 21
152.22379127174389
  0
LINE
  5
D2
100
AcDbEntity
  8
0
  6
CONTINUOUS
 62
             7
100
AcDbLine
 10
-360.76862585517819
 20
152.22379127174389
 11
-361.08249140853258
 21
147.80358984056511
  0
LINE
  5
D1
100
AcDbEntity
  8
0
  6
CONTINUOUS
 62
             7
100
AcDbLine
 10
-358.21858412612983
 20
152.22379127174389
 11
-362.72186682186202
 21
88.80358983848404
  0
LINE
  5
D0
100
AcDbEntity
  8
0
  6
CONTINUOUS
 62
             3
100
AcDbLine
 10
-406.70150096500703
 20
152.22379127174389
 11
-408.14598357085788
 21
152.22379127174389
  0
LINE
  5
CF
100
AcDbEntity
  8
0
  6
CONTINUOUS
 62
             3
100
AcDbLine
 10
-385.56293631400291
 20
152.22379127174389
 11
-387.7247573059895
 21
152.22379127174389
  0
LINE
  5
CE
100
AcDbEntity
  8
0
  6
CONTINUOUS
 62
             3
100
AcDbLine
 10
-372.421499589522
 20
152.2237912717446
 11
-374.82358637405071
 21
152.22379127174389
  0
LINE
  5
CD
100
AcDbEntity
  8
0
  6
CONTINUOUS
 62
             7
100
AcDbLine
 10
-387.7247573059895
 20
152.22379127174389
 11
-392.10987937721143
 21
130.53792123017121
  0
LINE
  5
CC
100
AcDbEntity
  8
0
  6
CONTINUOUS
 62
             3
100
AcDbLine
 10
-397.13787625605539
 20
152.22379127174381
 11
-398.97635388714048
 21
152.22379127174381
  0
LINE
  5
CB
100
AcDbEntity
  8
0
  6
CONTINUOUS
 62
             7
100
AcDbLine
 10
-385.19854189469311
 20
112.8035898384865
 11
-378.1211559190512
 21
147.80358984056511
  0
LINE
  5
CA
100
AcDbEntity
  8
0
  6
CONTINUOUS
 62
             7
100
AcDbLine
 10
-372.1705003479704
 20
112.8035898384866
 11
-367.29551209921078
 21
147.80358984056511
  0
LINE
  5
C9
100
AcDbEntity
  8
0
  6
CONTINUOUS
 62
             7
100
AcDbLine
 10
-354.61118262259441
 20
107.8035898384866
 11
-358.445661173465
 21
107.8035898384866
  0
LINE
  5
C8
100
AcDbEntity
  8
0
  6
CONTINUOUS
 62
             3
100
AcDbLine
 10
-370.16763823985548
 20
106.20923631881141
 11
-372.0815189113199
 21
106.20923631881141
  0
LINE
  5
C7
100
AcDbEntity
  8
0
  6
CONTINUOUS
 62
             7
100
AcDbLine
 10
-372.0162324386979
 20
88.62806105586543
 11
-370.16763823985548
 21
106.20923631881141
  0
LINE
  5
C6
100
AcDbEntity
  8
0
  6
CONTINUOUS
 62
             7
100
AcDbLine
 10
-355.30810099727353
 20
77.80358983848663
 11
-360.57587327968338
 21
77.80358983848663
  0
LINE
  5
C5
100
AcDbEntity
  8
0
  6
CONTINUOUS
 62
             7
100
AcDbLine
 10
-358.09062582242859
 20
112.8035898384866
 11
-358.42973545699891
 21
112.8035898384866
  0
LINE
  5
C4
100
AcDbEntity
  8
0
  6
CONTINUOUS
 62
             7
100
AcDbLine
 10
-372.83568782402932
 20
108.0278733699663
 11
-372.83568782402932
 21
112.8035898384866
  0
LINE
  5
C3
100
AcDbEntity
  8
0
  6
CONTINUOUS
 62
             7
100
AcDbLine
 10
-358.09062582242859
 20
112.8035898384866
 11
-355.60537836502618
 21
147.80358984056511
  0
LINE
  5
C2
100
AcDbEntity
  8
0
  6
CONTINUOUS
 62
             7
100
AcDbLine
 10
-366.02190513874501
 20
107.8214980237278
 11
-369.20602598660361
 21
77.80358983848663
  0
LINE
  5
C1
100
AcDbEntity
  8
0
  6
CONTINUOUS
 62
             7
100
AcDbLine
 10
-353.76232928727728
 20
112.8035898384866
 11
-358.09062582242859
 21
112.8035898384866
  0
LINE
  5
C0
100
AcDbEntity
  8
0
  6
CONTINUOUS
 62
             7
100
AcDbLine
 10
-407.143162108365
 20
88.62806105586543
 11
-405.5971412016396
 21
88.62806105586543
  0
LINE
  5
BF
100
AcDbEntity
  8
0
  6
CONTINUOUS
 62
             7
100
AcDbLine
 10
-405.5971412016396
 20
70.45718922545632
 11
-407.143162108365
 21
70.45718922545632
  0
LINE
  5
BE
100
AcDbEntity
  8
0
  6
CONTINUOUS
 62
             7
100
AcDbLine
 10
-405.39809923895223
 20
34.25945689040856
 11
-422.02009778295621
 21
34.25945689040856
  0
LINE
  5
BD
100
AcDbEntity
  8
0
  6
CONTINUOUS
 62
             7
100
AcDbLine
 10
-405.5971412016396
 20
70.45718922545632
 11
-405.5971412016396
 21
88.62806105586543
  0
LINE
  5
BC
100
AcDbEntity
  8
0
  6
CONTINUOUS
 62
             7
100
AcDbLine
 10
-400.54902142512032
 20
88.80358983848413
 11
-398.38720043313373
 21
88.80358983848404
  0
LINE
  5
BB
100
AcDbEntity
  8
0
  6
CONTINUOUS
 62
             7
100
AcDbLine
 10
-397.90319632099329
 20
112.7306771063363
 11
-397.90319632099329
 21
112.8035898384866
  0
LINE
  5
BA
100
AcDbEntity
  8
0
  6
CONTINUOUS
 62
             7
100
AcDbLine
 10
-398.38720043313373
 20
88.80358983848404
 11
-398.38720043313373
 21
57.80358983848402
  0
LINE
  5
B9
100
AcDbEntity
  8
0
  6
CONTINUOUS
 62
             7
100
AcDbLine
 10
-400.74174915086689
 20
62.80358983848652
 11
-405.5971412016396
 21
70.45718922545632
  0
LINE
  5
B8
100
AcDbEntity
  8
0
  6
CONTINUOUS
 62
             3
100
AcDbLine
 10
-401.55719064006888
 20
106.20923631881141
 11
-403.1032115467944
 21
106.20923631881141
  0
LINE
  5
B7
100
AcDbEntity
  8
0
  6
CONTINUOUS
 62
             7
100
AcDbLine
 10
-407.143162108365
 20
88.62806105586543
 11
-403.1032115467944
 21
106.20923631881141
  0
LINE
  5
B6
100
AcDbEntity
  8
0
  6
CONTINUOUS
 62
             7
100
AcDbLine
 10
-400.54902142512032
 20
77.80358983848663
 11
-400.74174915086689
 21
77.80358983848663
  0
LINE
  5
B5
100
AcDbEntity
  8
0
  6
CONTINUOUS
 62
             7
100
AcDbLine
 10
-400.74174915086689
 20
77.80358983848663
 11
-400.74174915086689
 21
62.80358983848652
  0
LINE
  5
B4
100
AcDbEntity
  8
0
  6
CONTINUOUS
 62
             7
100
AcDbLine
 10
-400.54902142512032
 20
88.80358983848413
 11
-400.54902142512032
 21
57.80358983848402
  0
LINE
  5
B3
100
AcDbEntity
  8
0
  6
CONTINUOUS
 62
             7
100
AcDbLine
 10
-405.5971412016396
 20
88.62806105586543
 11
-401.55719064006888
 21
106.20923631881141
  0
LINE
  5
B2
100
AcDbEntity
  8
0
  6
CONTINUOUS
 62
             7
100
AcDbLine
 10
-386.06094700789561
 20
77.80358983848663
 11
-386.06094700789561
 21
62.80358983848652
  0
LINE
  5
B1
100
AcDbEntity
  8
0
  6
CONTINUOUS
 62
             7
100
AcDbLine
 10
-383.65709313698818
 20
77.80358983848663
 11
-383.65709313698818
 21
57.80358983848402
  0
LINE
  5
B0
100
AcDbEntity
  8
0
  6
CONTINUOUS
 62
             7
100
AcDbLine
 10
-371.70839048228089
 20
62.80358983848663
 11
-369.79450981081652
 21
62.80358983848663
  0
LINE
  5
AF
100
AcDbEntity
  8
0
  6
CONTINUOUS
 62
             7
100
AcDbLine
 10
-377.80723818381028
 20
53.80358983848402
 11
-380.84484748582258
 21
53.80358983848402
  0
LINE
  5
AE
100
AcDbEntity
  8
0
  6
CONTINUOUS
 62
             7
100
AcDbLine
 10
-381.25500635245879
 20
88.80358983848404
 11
-381.25500635245879
 21
57.80358983848402
  0
LINE
  5
AD
100
AcDbEntity
  8
0
  6
CONTINUOUS
 62
             7
100
AcDbLine
 10
-373.93011311016238
 20
77.80358983848663
 11
-373.93011311016238
 21
88.62806105586543
  0
LINE
  5
AC
100
AcDbEntity
  8
0
  6
CONTINUOUS
 62
             7
100
AcDbLine
 10
-373.93011311016238
 20
70.45718922545643
 11
-373.93011311016238
 21
77.80358983848663
  0
LINE
  5
AB
100
AcDbEntity
  8
0
  6
CONTINUOUS
 62
             7
100
AcDbLine
 10
-373.93011311016238
 20
88.62806105586543
 11
-372.0162324386979
 21
88.62806105586543
  0
LINE
  5
AA
100
AcDbEntity
  8
0
  6
CONTINUOUS
 62
             7
100
AcDbLine
 10
-372.0162324386979
 20
70.45718922545643
 11
-373.93011311016238
 21
70.45718922545643
  0
LINE
  5
A9
100
AcDbEntity
  8
0
  6
CONTINUOUS
 62
             7
100
AcDbLine
 10
-372.0162324386979
 20
70.45718922545643
 11
-372.0162324386979
 21
88.62806105586543
  0
LINE
  5
A8
100
AcDbEntity
  8
0
  6
CONTINUOUS
 62
             7
100
AcDbLine
 10
-369.20602598660361
 20
77.80358983848663
 11
-369.79450981081652
 21
77.80358983848663
  0
LINE
  5
A7
100
AcDbEntity
  8
0
  6
CONTINUOUS
 62
             7
100
AcDbLine
 10
-365.27190855091038
 20
77.80358983848663
 11
-369.20602598660361
 21
77.80358983848663
  0
LINE
  5
A6
100
AcDbEntity
  8
0
  6
CONTINUOUS
 62
             7
100
AcDbLine
 10
-377.04548859644052
 20
77.80358983848663
 11
-377.80723818381028
 21
77.80358983848663
  0
LINE
  5
A5
100
AcDbEntity
  8
0
  6
CONTINUOUS
 62
             7
100
AcDbLine
 10
-366.43826520337097
 20
53.80358983848402
 11
-377.80723818381028
 21
53.80358983848402
  0
LINE
  5
A4
100
AcDbEntity
  8
0
  6
CONTINUOUS
 62
             7
100
AcDbLine
 10
-369.79450981081652
 20
77.80358983848663
 11
-369.79450981081652
 21
62.80358983848663
  0
LINE
  5
A3
100
AcDbEntity
  8
0
  6
CONTINUOUS
 62
             7
100
AcDbLine
 10
-377.80723818381028
 20
53.80358983848402
 11
-377.80723818381028
 21
77.80358983848663
  0
LINE
  5
A2
100
AcDbEntity
  8
0
  6
CONTINUOUS
 62
             7
100
AcDbLine
 10
-366.43826520337092
 20
34.95875455054841
 11
-366.43826520337097
 21
53.80358983848402
  0
LINE
  5
A1
100
AcDbEntity
  8
0
  6
CONTINUOUS
 62
             7
100
AcDbLine
 10
-365.27190855091038
 20
88.80358983848404
 11
-365.27190855091038
 21
57.80358983848402
  0
LINE
  5
A0
100
AcDbEntity
  8
0
  6
CONTINUOUS
 62
             7
100
AcDbLine
 10
-371.70839048228089
 20
62.80358983848663
 11
-373.93011311016238
 21
70.45718922545643
  0
LINE
  5
9F
100
AcDbEntity
  8
0
  6
CONTINUOUS
 62
             7
100
AcDbLine
 10
-369.79450981081652
 20
62.80358983848663
 11
-372.0162324386979
 21
70.45718922545643
  0
LINE
  5
9E
100
AcDbEntity
  8
0
  6
CONTINUOUS
 62
             7
100
AcDbLine
 10
-407.143162108365
 20
70.45718922545632
 11
-407.143162108365
 21
88.62806105586543
  0
LINE
  5
9D
100
AcDbEntity
  8
0
  6
CONTINUOUS
 62
             7
100
AcDbLine
 10
-403.91050680118502
 20
33.69641016151343
 11
-420.27087412904228
 21
33.69641016151343
  0
LINE
  5
9C
100
AcDbEntity
  8
0
  6
CONTINUOUS
 62
             7
100
AcDbLine
 10
-363.92277421697179
 20
107.8035898384866
 11
-366.02380473233501
 21
107.8035898384866
  0
LINE
  5
9B
100
AcDbEntity
  8
0
  6
CONTINUOUS
 62
             7
100
AcDbLine
 10
-366.02190513874501
 20
107.8214980237278
 11
-366.02190513874501
 21
112.8035898384866
  0
LINE
  5
9A
100
AcDbEntity
  8
0
  6
CONTINUOUS
 62
             7
100
AcDbLine
 10
-366.57524305615613
 20
34.77083669105696
 11
-366.57524305615613
 21
34.25945689040856
  0
LINE
  5
99
100
AcDbEntity
  8
0
  6
CONTINUOUS
 62
             7
100
AcDbLine
 10
-360.96420985170892
 20
53.80358983848402
 11
-360.96420985170892
 21
77.80358983848663
  0
LINE
  5
98
100
AcDbEntity
  8
0
  6
CONTINUOUS
 62
             7
100
AcDbLine
 10
-360.57587327968338
 20
77.80358983848663
 11
-360.96420985170892
 21
77.80358983848663
  0
LINE
  5
97
100
AcDbEntity
  8
0
  6
CONTINUOUS
 62
             7
100
AcDbLine
 10
-360.96420985170892
 20
53.80358983848402
 11
-362.51276964492058
 21
53.80358983848402
  0
LINE
  5
96
100
AcDbEntity
  8
0
  6
CONTINUOUS
 62
             7
100
AcDbLine
 10
-358.42973545699891
 20
108.0278733699663
 11
-358.42973545699891
 21
112.8035898384866
  0
LINE
  5
95
100
AcDbEntity
  8
0
  6
CONTINUOUS
 62
             7
100
AcDbLine
 10
-362.72186682186202
 20
57.80358983848402
 11
-362.51276964492058
 21
53.80358983848402
  0
LINE
  5
94
100
AcDbEntity
  8
0
  6
CONTINUOUS
 62
             7
100
AcDbLine
 10
-365.27190855091038
 20
57.80358983848402
 11
-365.06281137396871
 21
53.80358983848402
  0
LINE
  5
93
100
AcDbEntity
  8
0
  6
CONTINUOUS
 62
             7
100
AcDbLine
 10
-365.06281137396871
 20
53.80358983848402
 11
-362.51276964492058
 21
53.80358983848402
  0
LINE
  5
92
100
AcDbEntity
  8
0
  6
CONTINUOUS
 62
             7
100
AcDbLine
 10
-362.72186682186202
 20
57.80358983848402
 11
-365.27190855091038
 21
57.80358983848402
  0
LINE
  5
91
100
AcDbEntity
  8
0
  6
CONTINUOUS
 62
             7
100
AcDbLine
 10
-365.27190855091038
 20
88.80358983848404
 11
-362.72186682186202
 21
88.80358983848404
  0
LINE
  5
90
100
AcDbEntity
  8
0
  6
CONTINUOUS
 62
             7
100
AcDbLine
 10
-362.72186682186202
 20
88.80358983848404
 11
-362.72186682186202
 21
57.80358983848402
  0
LINE
  5
8F
100
AcDbEntity
  8
0
  6
CONTINUOUS
 62
             7
100
AcDbLine
 10
-361.08249140853258
 20
147.80358984056511
 11
-365.27190855091038
 21
88.80358983848404
  0
LINE
  5
8E
100
AcDbEntity
  8
0
  6
CONTINUOUS
 62
             7
100
AcDbLine
 10
-360.57587327968338
 20
77.80358983848663
 11
-358.42973545699891
 21
108.0278733699663
  0
LINE
  5
8D
100
AcDbEntity
  8
0
  6
CONTINUOUS
 62
             7
100
AcDbLine
 10
-363.56773886593533
 20
112.8035898384866
 11
-366.02190513874501
 21
112.8035898384866
  0
LINE
  5
8C
100
AcDbEntity
  8
0
  6
CONTINUOUS
 62
             7
100
AcDbLine
 10
-367.43832044864581
 20
112.8035898384866
 11
-369.35220112011018
 21
112.8035898384866
  0
LINE
  5
8B
100
AcDbEntity
  8
0
  6
CONTINUOUS
 62
             7
100
AcDbLine
 10
-366.02190513874501
 20
112.8035898384866
 11
-367.43832044864581
 21
112.8035898384866
  0
LINE
  5
8A
100
AcDbEntity
  8
0
  6
CONTINUOUS
 62
             7
100
AcDbLine
 10
-369.35220112011018
 20
112.8035898384866
 11
-372.1705003479704
 21
112.8035898384866
  0
LINE
  5
89
100
AcDbEntity
  8
0
  6
CONTINUOUS
 62
             7
100
AcDbLine
 10
-380.31424405232218
 20
112.8035898384866
 11
-382.23470310423352
 21
112.8035898384866
  0
LINE
  5
88
100
AcDbEntity
  8
0
  6
CONTINUOUS
 62
             7
100
AcDbLine
 10
-397.13851201987438
 20
112.8035898384866
 11
-397.90319632099329
 21
112.8035898384866
  0
LINE
  5
87
100
AcDbEntity
  8
0
  6
CONTINUOUS
 62
             7
100
AcDbLine
 10
-367.29551209921078
 20
147.80358984056511
 11
-367.29028935603549
 21
147.80358984056491
  0
LINE
  5
86
100
AcDbEntity
  8
0
  6
CONTINUOUS
 62
             7
100
AcDbLine
 10
-378.1211559190512
 20
147.80358984056511
 11
-378.11357367117341
 21
147.8035898405501
  0
LINE
  5
85
100
AcDbEntity
  8
0
  6
CONTINUOUS
 62
             7
100
AcDbLine
 10
-367.29028935603549
 20
147.80358984056491
 11
-361.08249140853258
 21
147.80358984056511
  0
LINE
  5
84
100
AcDbEntity
  8
0
  6
CONTINUOUS
 62
             7
100
AcDbLine
 10
-378.11357367117341
 20
147.8035898405501
 11
-375.43925580356211
 21
147.80358984056511
  0
LINE
  5
83
100
AcDbEntity
  8
0
  6
CONTINUOUS
 62
             7
100
AcDbLine
 10
-396.67409013216599
 20
112.8035898384866
 11
-392.10987937721143
 21
130.53792123017121
  0
LINE
  5
82
100
AcDbEntity
  8
0
  6
CONTINUOUS
 62
             7
100
AcDbLine
 10
-371.86614016842748
 20
107.8035898384866
 11
-372.86692724060902
 21
107.8035898384866
  0
LINE
  5
81
100
AcDbEntity
  8
0
  6
CONTINUOUS
 62
             7
100
AcDbLine
 10
-372.1705003479704
 20
112.8035898384866
 11
-372.83568782402932
 21
112.8035898384866
  0
LINE
  5
80
100
AcDbEntity
  8
0
  6
CONTINUOUS
 62
             7
100
AcDbLine
 10
-373.93011311016238
 20
88.62806105586543
 11
-372.0815189113199
 21
106.20923631881141
  0
LINE
  5
7F
100
AcDbEntity
  8
0
  6
CONTINUOUS
 62
             7
100
AcDbLine
 10
-389.66882878388662
 20
70.45718922545632
 11
-389.66882878388662
 21
88.62806105586543
  0
LINE
  5
7E
100
AcDbEntity
  8
0
  6
CONTINUOUS
 62
             7
100
AcDbLine
 10
-391.4326713125833
 20
70.45718922545632
 11
-391.4326713125833
 21
77.80358983848663
  0
LINE
  5
7D
100
AcDbEntity
  8
0
  6
CONTINUOUS
 62
             7
100
AcDbLine
 10
-396.67409013216599
 20
112.8035898384866
 11
-397.13851201987438
 21
112.8035898384866
  0
LINE
  5
7C
100
AcDbEntity
  8
0
  6
CONTINUOUS
 62
             7
100
AcDbLine
 10
-395.6959567563959
 20
112.8035898384866
 11
-396.67409013216599
 21
112.8035898384866
  0
LINE
  5
7B
100
AcDbEntity
  8
0
  6
CONTINUOUS
 62
             7
100
AcDbLine
 10
-373.93011311016238
 20
77.80358983848663
 11
-377.04548859644052
 21
77.80358983848663
  0
LINE
  5
7A
100
AcDbEntity
  8
0
  6
CONTINUOUS
 62
             7
100
AcDbLine
 10
-392.27592786991471
 20
77.80358983848663
 11
-391.4326713125833
 21
81.97377069479802
  0
LINE
  5
79
100
AcDbEntity
  8
0
  6
CONTINUOUS
 62
             7
100
AcDbLine
 10
-385.19854189469311
 20
112.8035898384865
 11
-386.16424443057701
 21
112.8035898384866
  0
LINE
  5
78
100
AcDbEntity
  8
0
  6
CONTINUOUS
 62
             7
100
AcDbLine
 10
-383.99854563293019
 20
112.8035898384866
 11
-385.19854189469311
 21
112.8035898384865
  0
LINE
  5
77
100
AcDbEntity
  8
0
  6
CONTINUOUS
 62
             7
100
AcDbLine
 10
-382.23470310423352
 20
112.8035898384866
 11
-383.99854563293019
 21
112.8035898384866
  0
LINE
  5
76
100
AcDbEntity
  8
0
  6
CONTINUOUS
 62
             7
100
AcDbLine
 10
-386.16424443057701
 20
111.6857726891337
 11
-386.16424443057701
 21
112.8035898384866
  0
LINE
  5
75
100
AcDbEntity
  8
0
  6
CONTINUOUS
 62
             7
100
AcDbLine
 10
-391.4326713125833
 20
77.80358983848663
 11
-392.27592786991471
 21
77.80358983848663
  0
LINE
  5
74
100
AcDbEntity
  8
0
  6
CONTINUOUS
 62
             7
100
AcDbLine
 10
-391.4326713125833
 20
81.97377069479802
 11
-391.4326713125833
 21
88.62806105586543
  0
LINE
  5
73
100
AcDbEntity
  8
0
  6
CONTINUOUS
 62
             7
100
AcDbLine
 10
-391.4326713125833
 20
77.80358983848663
 11
-391.4326713125833
 21
81.97377069479802
  0
LINE
  5
72
100
AcDbEntity
  8
0
  6
CONTINUOUS
 62
             7
100
AcDbLine
 10
-383.65709313698818
 20
86.21094441232535
 11
-385.10530113284432
 21
77.80358983848663
  0
LINE
  5
71
100
AcDbEntity
  8
0
  6
CONTINUOUS
 62
             3
100
AcDbLine
 10
-386.66687469767112
 20
106.20923631881141
 11
-388.43071722636779
 21
106.20923631881141
  0
LINE
  5
70
100
AcDbEntity
  8
0
  6
CONTINUOUS
 62
             7
100
AcDbLine
 10
-391.4326713125833
 20
88.62806105586543
 11
-389.66882878388662
 21
88.62806105586543
  0
LINE
  5
6F
100
AcDbEntity
  8
0
  6
CONTINUOUS
 62
             7
100
AcDbLine
 10
-386.06094700789561
 20
77.80358983848663
 11
-385.10530113284432
 21
77.80358983848663
  0
LINE
  5
6E
100
AcDbEntity
  8
0
  6
CONTINUOUS
 62
             7
100
AcDbLine
 10
-383.65709313698818
 20
77.80358983848663
 11
-385.10530113284432
 21
77.80358983848663
  0
LINE
  5
6D
100
AcDbEntity
  8
0
  6
CONTINUOUS
 62
             7
100
AcDbLine
 10
-392.27592786991471
 20
77.80358983848663
 11
-393.38181686318018
 21
77.80358983848663
  0
LINE
  5
6C
100
AcDbEntity
  8
0
  6
CONTINUOUS
 62
             7
100
AcDbLine
 10
-383.65709313698818
 20
88.80358983848404
 11
-381.25500635245879
 21
88.80358983848404
  0
LINE
  5
6B
100
AcDbEntity
  8
0
  6
CONTINUOUS
 62
             7
100
AcDbLine
 10
-383.65709313698818
 20
88.80358983848404
 11
-383.65709313698818
 21
77.80358983848663
  0
LINE
  5
6A
100
AcDbEntity
  8
0
  6
CONTINUOUS
 62
             7
100
AcDbLine
 10
-389.66882878388662
 20
88.62806105586543
 11
-386.66687469767112
 21
106.20923631881141
  0
LINE
  5
69
100
AcDbEntity
  8
0
  6
CONTINUOUS
 62
             7
100
AcDbLine
 10
-391.4326713125833
 20
88.62806105586543
 11
-388.43071722636779
 21
106.20923631881141
  0
LINE
  5
68
100
AcDbEntity
  8
0
  6
CONTINUOUS
 62
             7
100
AcDbLine
 10
-377.04548859644052
 20
77.80358983848663
 11
-372.83568782402932
 21
108.0278733699663
  0
LINE
  5
67
100
AcDbEntity
  8
0
  6
CONTINUOUS
 62
             7
100
AcDbLine
 10
-354.55791707213473
 20
62.80358983848652
 11
-355.30810099727353
 21
70.45718922545632
  0
LINE
  5
66
100
AcDbEntity
  8
0
  6
CONTINUOUS
 62
             3
100
AcDbLine
 10
-352.6935376708177
 20
106.20923631881141
 11
-354.68390712416209
 21
106.20923631881141
  0
LINE
  5
65
100
AcDbEntity
  8
0
  6
CONTINUOUS
 62
             7
100
AcDbLine
 10
-351.7719598339329
 20
112.8035898384866
 11
-353.76232928727728
 21
112.8035898384866
  0
LINE
  5
64
100
AcDbEntity
  8
0
  6
CONTINUOUS
 62
             7
100
AcDbLine
 10
-355.30810099727353
 20
70.45718922545632
 11
-355.30810099727353
 21
88.62806105586543
  0
LINE
  5
63
100
AcDbEntity
  8
0
  6
CONTINUOUS
 62
             7
100
AcDbLine
 10
-355.30810099727353
 20
88.62806105586543
 11
-354.68390712416209
 21
106.20923631881141
  0
LINE
  5
62
100
AcDbEntity
  8
0
  6
CONTINUOUS
 62
             7
100
AcDbLine
 10
-355.30810099727353
 20
88.62806105586543
 11
-353.31773154392909
 21
88.62806105586543
  0
LINE
  5
61
100
AcDbEntity
  8
0
  6
CONTINUOUS
 62
             7
100
AcDbLine
 10
-354.55791707213473
 20
62.80358983848652
 11
-352.56754761879029
 21
62.80358983848652
  0
LINE
  5
60
100
AcDbEntity
  8
0
  6
CONTINUOUS
 62
             7
100
AcDbLine
 10
-353.31773154392909
 20
70.45718922545632
 11
-355.30810099727353
 21
70.45718922545632
  0
LINE
  5
5F
100
AcDbEntity
  8
0
  6
CONTINUOUS
 62
             7
100
AcDbLine
 10
-351.29369491306772
 20
107.8214980237276
 11
-351.29369491306772
 21
112.8035898384866
  0
LINE
  5
5E
100
AcDbEntity
  8
0
  6
CONTINUOUS
 62
             7
100
AcDbLine
 10
-352.56754761879029
 20
77.80358983848663
 11
-352.56754761879029
 21
62.80358983848652
  0
LINE
  5
5D
100
AcDbEntity
  8
0
  6
CONTINUOUS
 62
             7
100
AcDbLine
 10
-352.56754761879029
 20
77.80358983848663
 11
-352.36884094875478
 21
77.80358983848663
  0
LINE
  5
5C
100
AcDbEntity
  8
0
  6
CONTINUOUS
 62
             7
100
AcDbLine
 10
-352.56754761879029
 20
62.80358983848652
 11
-353.31773154392909
 21
70.45718922545632
  0
LINE
  5
5B
100
AcDbEntity
  8
0
  6
CONTINUOUS
 62
             7
100
AcDbLine
 10
-351.29369491306772
 20
112.8035898384866
 11
-351.7719598339329
 21
112.8035898384866
  0
LINE
  5
5A
100
AcDbEntity
  8
0
  6
CONTINUOUS
 62
             7
100
AcDbLine
 10
-353.31773154392909
 20
70.45718922545632
 11
-353.31773154392909
 21
88.62806105586543
  0
LINE
  5
59
100
AcDbEntity
  8
0
  6
CONTINUOUS
 62
             7
100
AcDbLine
 10
-346.09999999999968
 20
112.8035898384866
 11
-346.09999999999968
 21
147.80358984056511
  0
LINE
  5
58
100
AcDbEntity
  8
0
  6
CONTINUOUS
 62
             7
100
AcDbLine
 10
-353.31773154392909
 20
88.62806105586543
 11
-352.6935376708177
 21
106.20923631881141
  0
LINE
  5
57
100
AcDbEntity
  8
0
  6
CONTINUOUS
 62
             7
100
AcDbLine
 10
-351.29369491306772
 20
107.8214980237276
 11
-352.36884094875478
 21
77.80358983848663
  0
LINE
  5
56
100
AcDbEntity
  8
0
  6
CONTINUOUS
 62
             7
100
AcDbLine
 10
-386.06094700789561
 20
62.80358983848652
 11
-389.66882878388662
 21
70.45718922545632
  0
LINE
  5
55
100
AcDbEntity
  8
0
  6
CONTINUOUS
 62
             7
100
AcDbLine
 10
-387.82478953659228
 20
62.80358983848652
 11
-391.4326713125833
 21
70.45718922545632
  0
LINE
  5
54
100
AcDbEntity
  8
0
  6
CONTINUOUS
 62
             7
100
AcDbLine
 10
-402.28777005759241
 20
62.80358983848652
 11
-400.74174915086689
 21
62.80358983848652
  0
LINE
  5
53
100
AcDbEntity
  8
0
  6
CONTINUOUS
 62
             7
100
AcDbLine
 10
-389.66882878388662
 20
70.45718922545632
 11
-391.4326713125833
 21
70.45718922545632
  0
LINE
  5
52
100
AcDbEntity
  8
0
  6
CONTINUOUS
 62
             7
100
AcDbLine
 10
-387.82478953659228
 20
62.80358983848652
 11
-386.06094700789561
 21
62.80358983848652
  0
LINE
  5
51
100
AcDbEntity
  8
0
  6
CONTINUOUS
 62
             7
100
AcDbLine
 10
-380.84484748582258
 20
53.80358983848402
 11
-383.24693427035203
 21
53.80358983848402
  0
LINE
  5
50
100
AcDbEntity
  8
0
  6
CONTINUOUS
 62
             7
100
AcDbLine
 10
-381.25500635245879
 20
57.80358983848402
 11
-383.65709313698818
 21
57.80358983848402
  0
LINE
  5
4F
100
AcDbEntity
  8
0
  6
CONTINUOUS
 62
             7
100
AcDbLine
 10
-398.38720043313373
 20
57.80358983848402
 11
-397.79174205202793
 21
53.80358983848402
  0
LINE
  5
4E
100
AcDbEntity
  8
0
  6
CONTINUOUS
 62
             7
100
AcDbLine
 10
-398.38720043313373
 20
57.80358983848402
 11
-400.54902142512032
 21
57.80358983848402
  0
LINE
  5
4D
100
AcDbEntity
  8
0
  6
CONTINUOUS
 62
             7
100
AcDbLine
 10
-397.79174205202793
 20
53.80358983848402
 11
-399.95356304401378
 21
53.80358983848402
  0
LINE
  5
4C
100
AcDbEntity
  8
0
  6
CONTINUOUS
 62
             7
100
AcDbLine
 10
-399.95356304401378
 20
53.80358983848402
 11
-403.20254460364703
 21
53.80358983848402
  0
LINE
  5
4B
100
AcDbEntity
  8
0
  6
CONTINUOUS
 62
             7
100
AcDbLine
 10
-403.20254460364703
 20
53.80358983848402
 11
-404.90162167114761
 21
53.80358983848402
  0
LINE
  5
4A
100
AcDbEntity
  8
0
  6
CONTINUOUS
 62
             7
100
AcDbLine
 10
-403.20254460364708
 20
33.69641016151343
 11
-403.20254460364703
 21
53.80358983848402
  0
LINE
  5
49
100
AcDbEntity
  8
0
  6
CONTINUOUS
 62
             7
100
AcDbLine
 10
-404.9016216711475
 20
34.95875455054841
 11
-404.90162167114761
 21
53.80358983848402
  0
LINE
  5
48
100
AcDbEntity
  8
0
  6
CONTINUOUS
 62
             7
100
AcDbLine
 10
-389.50021752114668
 20
53.80358983848402
 11
-389.50021752114668
 21
33.69641016151343
  0
LINE
  5
47
100
AcDbEntity
  8
0
  6
CONTINUOUS
 62
             7
100
AcDbLine
 10
-405.39809923895211
 20
34.77083669105696
 11
-405.39809923895223
 21
34.25945689040856
  0
LINE
  5
46
100
AcDbEntity
  8
0
  6
CONTINUOUS
 62
             7
100
AcDbLine
 10
-393.38181686318018
 20
53.80358983848402
 11
-397.79174205202793
 21
53.80358983848402
  0
LINE
  5
45
100
AcDbEntity
  8
0
  6
CONTINUOUS
 62
             7
100
AcDbLine
 10
-400.54902142512032
 20
57.80358983848402
 11
-399.95356304401378
 21
53.80358983848402
  0
LINE
  5
44
100
AcDbEntity
  8
0
  6
CONTINUOUS
 62
             7
100
AcDbLine
 10
-381.25500635245879
 20
57.80358983848402
 11
-380.84484748582258
 21
53.80358983848402
  0
LINE
  5
43
100
AcDbEntity
  8
0
  6
CONTINUOUS
 62
             7
100
AcDbLine
 10
-383.65709313698818
 20
57.80358983848402
 11
-383.24693427035203
 21
53.80358983848402
  0
LINE
  5
42
100
AcDbEntity
  8
0
  6
CONTINUOUS
 62
             7
100
AcDbLine
 10
-402.28777005759241
 20
62.80358983848652
 11
-407.143162108365
 21
70.45718922545632
  0
LINE
  5
41
100
AcDbEntity
  8
0
  6
CONTINUOUS
 62
             7
100
AcDbLine
 10
-375.43925580356211
 20
147.80358984056511
 11
-383.65709313698818
 21
88.80358983848404
  0
LINE
  5
40
100
AcDbEntity
  8
0
  6
CONTINUOUS
 62
             7
100
AcDbLine
 10
-392.10987937721143
 20
130.53792123017121
 11
-400.54902142512032
 21
88.80358983848413
  0
LINE
  5
3F
100
AcDbEntity
  8
0
  6
CONTINUOUS
 62
             7
100
AcDbLine
 10
-372.421499589522
 20
152.2237912717446
 11
-381.25500635245879
 21
88.80358983848404
  0
LINE
  5
3E
100
AcDbEntity
  8
0
  6
CONTINUOUS
 62
             7
100
AcDbLine
 10
-385.56293631400291
 20
152.22379127174389
 11
-398.38720043313373
 21
88.80358983848404
  0
LINE
  5
3D
100
AcDbEntity
  8
0
  6
CONTINUOUS
 62
             7
100
AcDbLine
 10
-397.13787625605539
 20
152.22379127174381
 11
-413.46006845321148
 21
88.80358983848404
  0
LINE
  5
3C
100
AcDbEntity
  8
0
  6
CONTINUOUS
 62
             7
100
AcDbLine
 10
-406.70150096500703
 20
152.22379127174389
 11
-425.89436854764227
 21
88.80358983848404
  0
LINE
  5
3B
100
AcDbEntity
  8
0
  6
CONTINUOUS
 62
             7
100
AcDbLine
 10
-414.88126263078578
 20
152.2237912717446
 11
-436.20723446118228
 21
88.80358983848404
  0
LINE
  5
3A
100
AcDbEntity
  8
0
  6
CONTINUOUS
 62
             7
100
AcDbLine
 10
-418.41612323259221
 20
152.22379127174389
 11
-441.05565417305388
 21
88.80358983848404
  0
LINE
  5
39
100
AcDbEntity
  8
0
  6
CONTINUOUS
 62
             7
100
AcDbLine
 10
-420.1169344271205
 20
152.2237912717446
 11
-443.19999999999692
 21
88.80358983848404
  0
LINE
  5
38
100
AcDbEntity
  8
0
  6
CONTINUOUS
 62
             7
100
AcDbLine
 10
-299.54354014951849
 20
33.69641016151343
 11
-279.60837488061009
 21
33.69641016151343
  0
LINE
  5
37
100
AcDbEntity
  8
0
  6
CONTINUOUS
 62
             7
100
AcDbLine
 10
-279.60837488061009
 20
33.69641016151343
 11
-270.16160134647708
 21
33.69641016151343
  0
LINE
  5
36
100
AcDbEntity
  8
0
  6
CONTINUOUS
 62
             7
100
AcDbLine
 10
-269.32912587095711
 20
33.69641016151343
 11
-270.16160134647708
 21
33.69641016151343
  0
LINE
  5
35
100
AcDbEntity
  8
0
  6
CONTINUOUS
 62
             7
100
AcDbLine
 10
-403.91050680118502
 20
33.69641016151343
 11
-403.20254460364708
 21
33.69641016151343
  0
LINE
  5
34
100
AcDbEntity
  8
0
  6
CONTINUOUS
 62
             7
100
AcDbLine
 10
-403.20254460364708
 20
33.69641016151343
 11
-389.50021752114668
 21
33.69641016151343
  0
LINE
  5
33
100
AcDbEntity
  8
0
  6
CONTINUOUS
 62
             7
100
AcDbLine
 10
-340.49999999999972
 20
33.69641016151343
 11
-366.16481722595017
 21
33.69641016151343
  0
LINE
  5
32
100
AcDbEntity
  8
0
  6
CONTINUOUS
 62
             7
100
AcDbLine
 10
-278.12078244284299
 20
34.25945689040856
 11
-298.37474627103012
 21
34.25945689040856
  0
LINE
  5
31
100
AcDbEntity
  8
0
  6
CONTINUOUS
 62
             7
100
AcDbLine
 10
-340.4999999999996
 20
34.25945689040856
 11
-340.49999999999972
 21
33.69641016151343
  0
LINE
  5
30
100
AcDbEntity
  8
0
  6
CONTINUOUS
 62
             7
100
AcDbLine
 10
-340.49999999999972
 20
33.69641016151343
 11
-323.63050910490568
 21
33.69641016151343
  0
LINE
  5
2F
100
AcDbEntity
  8
0
  6
CONTINUOUS
 62
             7
100
AcDbLine
 10
-259.43288346850528
 20
33.69641016151343
 11
-260.41485524547238
 21
33.69641016151343
  0
LINE
  5
2E
100
AcDbEntity
  8
0
  6
CONTINUOUS
 62
             7
100
AcDbLine
 10
-340.4999999999996
 20
34.25945689040856
 11
-366.57524305615613
 21
34.25945689040856
  0
LINE
  5
2D
100
AcDbEntity
  8
0
  6
CONTINUOUS
 62
             7
100
AcDbLine
 10
-299.54354014951849
 20
33.69641016151343
 11
-300.09978247885277
 21
33.69641016151343
  0
LINE
  5
2C
100
AcDbEntity
  8
0
  6
CONTINUOUS
 62
             7
100
AcDbLine
 10
-323.43518277404928
 20
33.69641016151343
 11
-323.63050910490568
 21
33.69641016151343
  0
LINE
  5
2B
100
AcDbEntity
  8
0
  6
CONTINUOUS
 62
             7
100
AcDbLine
 10
-269.48306557287901
 20
152.2237912717446
 11
-246.40000000000251
 21
88.80358983848404
  0
LINE
  5
2A
100
AcDbEntity
  8
1
  6
PHANTOM
 62
             2
100
AcDbLine
 10
-344.79999999999973
 20
29.40553462769779
 11
-344.79999999999973
 21
163.18931356688
  0
ENDBLK
  5
31F
100
AcDbEntity
  8
0
100
AcDbBlockEnd
  0
BLOCK
  5
309
100
AcDbEntity
  8
0
100
AcDbBlockBegin
  2
*D1
 70
             1
 10
0.0
 20
0.0
 30
0.0
  3
*D1
  1

  0
LINE
  5
30A
100
AcDbEntity
  8
0
  6
CONTINUOUS
 62
             4
100
AcDbLine
 10
-246.40000000000248
 20
174.38864674238599
 11
-443.19999999999692
 21
174.38864674238599
  0
LINE
  5
30B
100
AcDbEntity
  8
0
  6
CONTINUOUS
 62
             4
100
AcDbLine
 10
-246.40000000000248
 20
88.80358983848404
 11
-246.40000000000248
 21
176.38864674238599
  0
LINE
  5
30C
100
AcDbEntity
  8
0
  6
CONTINUOUS
 62
             4
100
AcDbLine
 10
-443.19999999999692
 20
88.80358983848404
 11
-443.19999999999692
 21
176.38864674238599
  0
SOLID
  5
30D
100
AcDbEntity
  8
0
 62
             4
100
AcDbTrace
 10
-258.40000000000248
 20
172.80881677133723
 11
-258.40000000000248
 21
175.96847671343474
 12
-246.40000000000248
 22
174.38864674238599
 13
-246.40000000000248
 23
174.38864674238599
  0
SOLID
  5
30E
100
AcDbEntity
  8
0
 62
             4
100
AcDbTrace
 10
-431.19999999999692
 20
175.96847671343474
 11
-431.19999999999692
 21
172.80881677133723
 12
-443.19999999999692
 22
174.38864674238599
 13
-443.19999999999692
 23
174.38864674238599
  0
MTEXT
  5
310
100
AcDbEntity
  8
0
 62
             1
100
AcDbMText
 10
-361.81009990482306
 20
176.38862288955286
 30
0.0
 40
12.0
 41
0.0
 71
             7
 72
             1
  1
\C1;Ø\C1;197
  7
CONVERTER_1
 11
0.99999999999706
 21
0.00000242406841
 31
0.0
  0
ENDBLK
  5
311
100
AcDbEntity
  8
0
100
AcDbBlockEnd
  0
BLOCK
  5
315
100
AcDbEntity
  8
0
100
AcDbBlockBegin
  2
*D2
 70
             1
 10
0.0
 20
0.0
 30
0.0
  3
*D2
  1

  0
LINE
  5
316
100
AcDbEntity
  8
0
  6
CONTINUOUS
 62
             4
100
AcDbLine
 10
-459.58056612749402
 20
53.80358983848402
 11
-459.58056612749402
 21
158.8035898384868
  0
LINE
  5
317
100
AcDbEntity
  8
0
  6
CONTINUOUS
 62
             4
100
AcDbLine
 10
-409.7069911641305
 20
158.8035898384868
 11
-461.58056612749402
 21
158.8035898384868
  0
LINE
  5
318
100
AcDbEntity
  8
0
  6
CONTINUOUS
 62
             4
100
AcDbLine
 10
-440.00445167772381
 20
53.80358983848402
 11
-461.58056612749402
 21
53.80358983848402
  0
SOLID
  5
319
100
AcDbEntity
  8
0
 62
             4
100
AcDbTrace
 10
-461.16039609854278
 20
65.80358983848402
 11
-458.00073615644527
 21
65.80358983848402
 12
-459.58056612749402
 22
53.80358983848402
 13
-459.58056612749402
 23
53.80358983848402
  0
SOLID
  5
31A
100
AcDbEntity
  8
0
 62
             4
100
AcDbTrace
 10
-458.00073615644527
 20
146.8035898384868
 11
-461.16039609854278
 21
146.8035898384868
 12
-459.58056612749402
 22
158.8035898384868
 13
-459.58056612749402
 23
158.8035898384868
  0
MTEXT
  5
31B
100
AcDbEntity
  8
0
 62
             1
100
AcDbMText
 10
-461.58056612749402
 20
93.513432660562
 30
0.0
 40
12.0
 41
0.0
 71
             7
 72
             1
  1
105
  7
CONVERTER_1
 11
0.0
 21
1.0
 31
0.0
  0
ENDBLK
  5
31C
100
AcDbEntity
  8
0
100
AcDbBlockEnd
  0
ENDSEC
  0
SECTION
  2
ENTITIES
  0
INSERT
  5
29
100
AcDbEntity
  8
0
100
AcDbBlockReference
  2
PERFEKT-LAUBFANGKORB
 10
-443.19999999999692
 20
33.69641016151343
  0
ENDSEC
  0
SECTION
  2
OBJECTS
  0
DICTIONARY
  5
19
100
AcDbDictionary
  3
ACAD_GROUP
350
1A
  3
ACAD_MLINESTYLE
350
1B
  0
DICTIONARY
  5
1A
102
{ACAD_REACTORS
330
19
102
}
100
AcDbDictionary
  0
DICTIONARY
  5
1B
102
{ACAD_REACTORS
330
19
102
}
100
AcDbDictionary
  3
STANDARD
350
1C
  0
MLINESTYLE
  5
1C
102
{ACAD_REACTORS
330
1B
102
}
100
AcDbMlineStyle
  2
STANDARD
 70
             0
  3

 62
             0
 51
90.0
 52
90.0
 71
             2
 49
0.5
 62
           256
  6
BYLAYER
 49
-0.5
 62
           256
  6
BYLAYER
  0
ENDSEC
  0
EOF
