  0
SECTION
  2
HEADER
  9
$ACADVER
  1
AC1015
  9
$ACADMAINTVER
 70
     6
  9
$DWGCODEPAGE
  3
ANSI_1252
  9
$INSBASE
 10
0.0
 20
0.0
 30
0.0
  9
$EXTMIN
 10
-66.03999999999955
 20
-18.0571617309589
 30
0.0
  9
$EXTMAX
 10
116.746376964592
 20
149.927968330576
 30
0.0
  9
$LIMMIN
 10
0.0
 20
0.0
  9
$LIMMAX
 10
12.0
 20
9.0
  9
$ORTHOMODE
 70
     0
  9
$REGENMODE
 70
     1
  9
$FILLMODE
 70
     1
  9
$QTEXTMODE
 70
     0
  9
$MIRRTEXT
 70
     1
  9
$LTSCALE
 40
1.0
  9
$ATTMODE
 70
     1
  9
$TEXTSIZE
 40
0.2
  9
$TRACEWID
 40
0.05
  9
$TEXTSTYLE
  7
Standard
  9
$CLAYER
  8
0
  9
$CELTYPE
  6
ByLayer
  9
$CECOLOR
 62
   256
  9
$CELTSCALE
 40
1.0
  9
$DISPSILH
 70
     0
  9
$DIMSCALE
 40
1.0
  9
$DIMASZ
 40
0.18
  9
$DIMEXO
 40
0.0625
  9
$DIMDLI
 40
0.38
  9
$DIMRND
 40
0.0
  9
$DIMDLE
 40
0.0
  9
$DIMEXE
 40
0.18
  9
$DIMTP
 40
0.0
  9
$DIMTM
 40
0.0
  9
$DIMTXT
 40
0.18
  9
$DIMCEN
 40
0.09
  9
$DIMTSZ
 40
0.0
  9
$DIMTOL
 70
     0
  9
$DIMLIM
 70
     0
  9
$DIMTIH
 70
     1
  9
$DIMTOH
 70
     1
  9
$DIMSE1
 70
     0
  9
$DIMSE2
 70
     0
  9
$DIMTAD
 70
     0
  9
$DIMZIN
 70
     0
  9
$DIMBLK
  1

  9
$DIMASO
 70
     1
  9
$DIMSHO
 70
     1
  9
$DIMPOST
  1

  9
$DIMAPOST
  1

  9
$DIMALT
 70
     0
  9
$DIMALTD
 70
     2
  9
$DIMALTF
 40
25.4
  9
$DIMLFAC
 40
1.0
  9
$DIMTOFL
 70
     0
  9
$DIMTVP
 40
0.0
  9
$DIMTIX
 70
     0
  9
$DIMSOXD
 70
     0
  9
$DIMSAH
 70
     0
  9
$DIMBLK1
  1

  9
$DIMBLK2
  1

  9
$DIMSTYLE
  2
Standard
  9
$DIMCLRD
 70
     0
  9
$DIMCLRE
 70
     0
  9
$DIMCLRT
 70
     0
  9
$DIMTFAC
 40
1.0
  9
$DIMGAP
 40
0.09
  9
$DIMJUST
 70
     0
  9
$DIMSD1
 70
     0
  9
$DIMSD2
 70
     0
  9
$DIMTOLJ
 70
     1
  9
$DIMTZIN
 70
     0
  9
$DIMALTZ
 70
     0
  9
$DIMALTTZ
 70
     0
  9
$DIMUPT
 70
     0
  9
$DIMDEC
 70
     4
  9
$DIMTDEC
 70
     4
  9
$DIMALTU
 70
     2
  9
$DIMALTTD
 70
     2
  9
$DIMTXSTY
  7
Standard
  9
$DIMAUNIT
 70
     0
  9
$DIMADEC
 70
     0
  9
$DIMALTRND
 40
0.0
  9
$DIMAZIN
 70
     0
  9
$DIMDSEP
 70
    46
  9
$DIMATFIT
 70
     3
  9
$DIMFRAC
 70
     0
  9
$DIMLDRBLK
  1

  9
$DIMLUNIT
 70
     2
  9
$DIMLWD
 70
    -2
  9
$DIMLWE
 70
    -2
  9
$DIMTMOVE
 70
     0
  9
$LUNITS
 70
     2
  9
$LUPREC
 70
     4
  9
$SKETCHINC
 40
0.1
  9
$FILLETRAD
 40
0.5
  9
$AUNITS
 70
     0
  9
$AUPREC
 70
     0
  9
$MENU
  1
.
  9
$ELEVATION
 40
0.0
  9
$PELEVATION
 40
0.0
  9
$THICKNESS
 40
0.0
  9
$LIMCHECK
 70
     0
  9
$CHAMFERA
 40
0.5
  9
$CHAMFERB
 40
0.5
  9
$CHAMFERC
 40
1.0
  9
$CHAMFERD
 40
0.0
  9
$SKPOLY
 70
     0
  9
$TDCREATE
 40
2455435.312482222
  9
$TDUCREATE
 40
2455435.229148889
  9
$TDUPDATE
 40
2455435.312482234
  9
$TDUUPDATE
 40
2455435.229148901
  9
$TDINDWG
 40
0.0000000116
  9
$TDUSRTIMER
 40
0.0000000116
  9
$USRTIMER
 70
     1
  9
$ANGBASE
 50
0.0
  9
$ANGDIR
 70
     0
  9
$PDMODE
 70
     0
  9
$PDSIZE
 40
0.0
  9
$PLINEWID
 40
0.0
  9
$SPLFRAME
 70
     0
  9
$SPLINETYPE
 70
     6
  9
$SPLINESEGS
 70
     8
  9
$HANDSEED
  5
1A6
  9
$SURFTAB1
 70
     6
  9
$SURFTAB2
 70
     6
  9
$SURFTYPE
 70
     6
  9
$SURFU
 70
     6
  9
$SURFV
 70
     6
  9
$UCSBASE
  2

  9
$UCSNAME
  2

  9
$UCSORG
 10
0.0
 20
0.0
 30
0.0
  9
$UCSXDIR
 10
1.0
 20
0.0
 30
0.0
  9
$UCSYDIR
 10
0.0
 20
1.0
 30
0.0
  9
$UCSORTHOREF
  2

  9
$UCSORTHOVIEW
 70
     0
  9
$UCSORGTOP
 10
0.0
 20
0.0
 30
0.0
  9
$UCSORGBOTTOM
 10
0.0
 20
0.0
 30
0.0
  9
$UCSORGLEFT
 10
0.0
 20
0.0
 30
0.0
  9
$UCSORGRIGHT
 10
0.0
 20
0.0
 30
0.0
  9
$UCSORGFRONT
 10
0.0
 20
0.0
 30
0.0
  9
$UCSORGBACK
 10
0.0
 20
0.0
 30
0.0
  9
$PUCSBASE
  2

  9
$PUCSNAME
  2

  9
$PUCSORG
 10
0.0
 20
0.0
 30
0.0
  9
$PUCSXDIR
 10
1.0
 20
0.0
 30
0.0
  9
$PUCSYDIR
 10
0.0
 20
1.0
 30
0.0
  9
$PUCSORTHOREF
  2

  9
$PUCSORTHOVIEW
 70
     0
  9
$PUCSORGTOP
 10
0.0
 20
0.0
 30
0.0
  9
$PUCSORGBOTTOM
 10
0.0
 20
0.0
 30
0.0
  9
$PUCSORGLEFT
 10
0.0
 20
0.0
 30
0.0
  9
$PUCSORGRIGHT
 10
0.0
 20
0.0
 30
0.0
  9
$PUCSORGFRONT
 10
0.0
 20
0.0
 30
0.0
  9
$PUCSORGBACK
 10
0.0
 20
0.0
 30
0.0
  9
$USERI1
 70
     0
  9
$USERI2
 70
     0
  9
$USERI3
 70
     0
  9
$USERI4
 70
     0
  9
$USERI5
 70
     0
  9
$USERR1
 40
16.5
  9
$USERR2
 40
0.0
  9
$USERR3
 40
0.0
  9
$USERR4
 40
0.0
  9
$USERR5
 40
0.0
  9
$WORLDVIEW
 70
     1
  9
$SHADEDGE
 70
     3
  9
$SHADEDIF
 70
    70
  9
$TILEMODE
 70
     1
  9
$MAXACTVP
 70
    64
  9
$PINSBASE
 10
0.0
 20
0.0
 30
0.0
  9
$PLIMCHECK
 70
     0
  9
$PEXTMIN
 10
1.00000000000000E+20
 20
1.00000000000000E+20
 30
1.00000000000000E+20
  9
$PEXTMAX
 10
-1.00000000000000E+20
 20
-1.00000000000000E+20
 30
-1.00000000000000E+20
  9
$PLIMMIN
 10
0.0
 20
0.0
  9
$PLIMMAX
 10
12.0
 20
9.0
  9
$UNITMODE
 70
     0
  9
$VISRETAIN
 70
     1
  9
$PLINEGEN
 70
     0
  9
$PSLTSCALE
 70
     1
  9
$TREEDEPTH
 70
  3020
  9
$CMLSTYLE
  2
Standard
  9
$CMLJUST
 70
     0
  9
$CMLSCALE
 40
1.0
  9
$PROXYGRAPHICS
 70
     1
  9
$MEASUREMENT
 70
     1
  9
$CELWEIGHT
370
    -1
  9
$ENDCAPS
280
     0
  9
$JOINSTYLE
280
     0
  9
$LWDISPLAY
290
     0
  9
$INSUNITS
 70
     1
  9
$HYPERLINKBASE
  1

  9
$STYLESHEET
  1

  9
$XEDIT
290
     1
  9
$CEPSNTYPE
380
     0
  9
$PSTYLEMODE
290
     1
  9
$FINGERPRINTGUID
  2
{352F7A6D-10C2-4ADD-ADE6-2716531195AD}
  9
$VERSIONGUID
  2
{FAEB1C32-E019-11D5-929B-00C0DF256EC4}
  9
$EXTNAMES
290
     1
  9
$PSVPSCALE
 40
0.0
  9
$OLESTARTUP
290
     0
  0
ENDSEC
  0
SECTION
  2
CLASSES
  0
CLASS
  1
ACDBDICTIONARYWDFLT
  2
AcDbDictionaryWithDefault
  3
ObjectDBX Classes
 90
        0
280
     0
281
     0
  0
CLASS
  1
VISUALSTYLE
  2
AcDbVisualStyle
  3
ObjectDBX Classes
 90
     4095
280
     0
281
     0
  0
CLASS
  1
SCALE
  2
AcDbScale
  3
ObjectDBX Classes
 90
     1153
280
     0
281
     0
  0
CLASS
  1
DICTIONARYVAR
  2
AcDbDictionaryVar
  3
ObjectDBX Classes
 90
        0
280
     0
281
     0
  0
CLASS
  1
ACDBPLACEHOLDER
  2
AcDbPlaceHolder
  3
ObjectDBX Classes
 90
        0
280
     0
281
     0
  0
CLASS
  1
LAYOUT
  2
AcDbLayout
  3
ObjectDBX Classes
 90
        0
280
     0
281
     0
  0
ENDSEC
  0
SECTION
  2
TABLES
  0
TABLE
  2
VPORT
  5
8
330
0
100
AcDbSymbolTable
 70
     1
  0
VPORT
  5
29
330
8
100
AcDbSymbolTableRecord
100
AcDbViewportTableRecord
  2
*Active
 70
     0
 10
0.0
 20
0.0
 11
1.0
 21
1.0
 12
25.35318848229623
 22
65.93540329980854
 13
0.0
 23
0.0
 14
0.5
 24
0.5
 15
0.5
 25
0.5
 16
0.0
 26
0.0
 36
1.0
 17
0.0
 27
0.0
 37
0.0
 40
184.7836430676884
 41
1.60267857142857
 42
50.0
 43
0.0
 44
0.0
 50
0.0
 51
0.0
 71
     0
 72
   100
 73
     1
 74
     3
 75
     0
 76
     0
 77
     0
 78
     0
281
     0
 65
     1
110
0.0
120
0.0
130
0.0
111
1.0
121
0.0
131
0.0
112
0.0
122
1.0
132
0.0
 79
     0
146
0.0
  0
ENDTAB
  0
TABLE
  2
LTYPE
  5
5
330
0
100
AcDbSymbolTable
 70
     8
  0
LTYPE
  5
14
330
5
100
AcDbSymbolTableRecord
100
AcDbLinetypeTableRecord
  2
ByBlock
 70
     0
  3

 72
    65
 73
     0
 40
0.0
  0
LTYPE
  5
15
330
5
100
AcDbSymbolTableRecord
100
AcDbLinetypeTableRecord
  2
ByLayer
 70
     0
  3

 72
    65
 73
     0
 40
0.0
  0
LTYPE
  5
16
330
5
100
AcDbSymbolTableRecord
100
AcDbLinetypeTableRecord
  2
Continuous
 70
     0
  3
Solid line
 72
    65
 73
     0
 40
0.0
  0
LTYPE
  5
3B
330
5
100
AcDbSymbolTableRecord
100
AcDbLinetypeTableRecord
  2
DASHED
 70
     0
  3
Dashed
 72
    65
 73
     2
 40
15.0
 49
7.0
 74
     0
 49
-8.0
 74
     0
  0
LTYPE
  5
3C
330
5
100
AcDbSymbolTableRecord
100
AcDbLinetypeTableRecord
  2
DOTTED
 70
     0
  3
Dotted
 72
    65
 73
     2
 40
1.0
 49
0.0
 74
     0
 49
-1.0
 74
     0
  0
LTYPE
  5
3D
330
5
100
AcDbSymbolTableRecord
100
AcDbLinetypeTableRecord
  2
DOT_CENTER
 70
     0
  3
Dot_Center
 72
    65
 73
     4
 40
14.0
 49
12.0
 74
     0
 49
-1.0
 74
     0
 49
0.0
 74
     0
 49
-1.0
 74
     0
  0
LTYPE
  5
3E
330
5
100
AcDbSymbolTableRecord
100
AcDbLinetypeTableRecord
  2
LONG_DASHED
 70
     0
  3
Long_Dashed
 72
    65
 73
     2
 40
15.0
 49
10.0
 74
     0
 49
-5.0
 74
     0
  0
LTYPE
  5
3F
330
5
100
AcDbSymbolTableRecord
100
AcDbLinetypeTableRecord
  2
DASH_CENTER
 70
     0
  3
Dash_Center
 72
    65
 73
     4
 40
14.0
 49
11.0
 74
     0
 49
-1.0
 74
     0
 49
1.0
 74
     0
 49
-1.0
 74
     0
  0
LTYPE
  5
40
330
5
100
AcDbSymbolTableRecord
100
AcDbLinetypeTableRecord
  2
PHANTOM
 70
     0
  3
Phantom
 72
    65
 73
     6
 40
13.0
 49
10.0
 74
     0
 49
-1.0
 74
     0
 49
0.0
 74
     0
 49
-1.0
 74
     0
 49
0.0
 74
     0
 49
-1.0
 74
     0
  0
LTYPE
  5
41
330
5
100
AcDbSymbolTableRecord
100
AcDbLinetypeTableRecord
  2
CENTER_DASH_DASH
 70
     0
  3
Center_Dash_Dash
 72
    65
 73
     6
 40
14.0
 49
9.0
 74
     0
 49
-1.0
 74
     0
 49
1.0
 74
     0
 49
-1.0
 74
     0
 49
1.0
 74
     0
 49
-1.0
 74
     0
  0
ENDTAB
  0
TABLE
  2
LAYER
  5
2
330
0
100
AcDbSymbolTable
 70
     2
  0
LAYER
  5
10
330
2
100
AcDbSymbolTableRecord
100
AcDbLayerTableRecord
  2
0
 70
     0
 62
     7
  6
Continuous
370
    -3
390
F
  0
LAYER
  5
42
330
2
100
AcDbSymbolTableRecord
100
AcDbLayerTableRecord
  2
1
 70
     0
 62
     7
  6
Continuous
370
    -3
390
F
  0
ENDTAB
  0
TABLE
  2
STYLE
  5
3
330
0
100
AcDbSymbolTable
 70
     2
  0
STYLE
  5
11
330
3
100
AcDbSymbolTableRecord
100
AcDbTextStyleTableRecord
  2
Standard
 70
     0
 40
0.0
 41
1.0
 50
0.0
 71
     0
 42
0.2
  3
txt
  4

  0
STYLE
  5
164
330
3
100
AcDbSymbolTableRecord
100
AcDbTextStyleTableRecord
  2
CONVERTER_11
 70
     0
 40
0.0
 41
0.9
 50
0.0
 71
     0
 42
0.2
  3
txt.shx
  4

  0
ENDTAB
  0
TABLE
  2
VIEW
  5
6
330
0
100
AcDbSymbolTable
 70
     0
  0
ENDTAB
  0
TABLE
  2
UCS
  5
7
330
0
100
AcDbSymbolTable
 70
     0
  0
ENDTAB
  0
TABLE
  2
APPID
  5
9
330
0
100
AcDbSymbolTable
 70
     1
  0
APPID
  5
12
330
9
100
AcDbSymbolTableRecord
100
AcDbRegAppTableRecord
  2
ACAD
 70
     0
  0
ENDTAB
  0
TABLE
  2
DIMSTYLE
  5
A
330
0
100
AcDbSymbolTable
 70
     7
100
AcDbDimStyleTable
  0
DIMSTYLE
105
27
330
A
100
AcDbSymbolTableRecord
100
AcDbDimStyleTableRecord
  2
Standard
 70
     0
340
11
  0
DIMSTYLE
105
168
102
{ACAD_REACTORS
330
169
102
}
330
A
100
AcDbSymbolTableRecord
100
AcDbDimStyleTableRecord
  2
ME10_DIM_10
 70
     0
  3
Ø<>-Ø92
 41
7.0
 42
0.0
 44
2.0
 73
     0
 74
     0
 77
     1
 78
     8
140
7.0
147
2.0
172
     1
173
     1
176
     4
177
     4
178
     1
271
     2
340
164
  0
DIMSTYLE
105
174
102
{ACAD_REACTORS
330
175
102
}
330
A
100
AcDbSymbolTableRecord
100
AcDbDimStyleTableRecord
  2
ME10_DIM_11
 70
     0
  3
0-<>
 41
7.0
 42
0.0
 44
2.0
 73
     0
 74
     0
 77
     1
 78
     8
140
7.0
147
2.0
172
     1
173
     1
176
     4
177
     4
178
     1
271
     2
340
164
  0
DIMSTYLE
105
17F
102
{ACAD_REACTORS
330
180
102
}
330
A
100
AcDbSymbolTableRecord
100
AcDbDimStyleTableRecord
  2
ME10_DIM_12
 70
     0
  3
Ø<>
 41
7.0
 42
0.0
 44
2.0
 73
     0
 74
     0
 77
     1
 78
     8
140
7.0
147
2.0
172
     1
173
     1
176
     4
177
     4
178
     1
271
     2
340
164
  0
DIMSTYLE
105
18A
102
{ACAD_REACTORS
330
18B
102
}
330
A
100
AcDbSymbolTableRecord
100
AcDbDimStyleTableRecord
  2
ME10_DIM_13
 70
     0
  3
Ø<>
 41
7.0
 42
0.0
 44
2.0
 47
5.0
 48
5.0
 71
     1
 73
     0
 74
     0
 77
     1
 78
     8
140
7.0
147
2.0
172
     1
173
     1
176
     4
177
     4
178
     1
271
     0
272
     0
340
164
  0
DIMSTYLE
105
195
102
{ACAD_REACTORS
330
196
102
}
330
A
100
AcDbSymbolTableRecord
100
AcDbDimStyleTableRecord
  2
ME10_DIM_14
 70
     0
 41
7.0
 42
0.0
 44
2.0
 73
     0
 74
     0
 77
     1
 78
     8
140
7.0
147
2.0
172
     1
173
     1
176
     4
177
     4
178
     1
271
     2
340
164
  0
DIMSTYLE
105
1A0
102
{ACAD_REACTORS
330
1A1
102
}
330
A
100
AcDbSymbolTableRecord
100
AcDbDimStyleTableRecord
  2
ME10_DIM_15
 70
     0
 41
7.0
 42
0.0
 44
2.0
 73
     0
 74
     0
 77
     1
 78
     8
140
7.0
147
2.0
172
     1
173
     1
176
     4
177
     4
178
     1
271
     2
340
164
  0
ENDTAB
  0
TABLE
  2
BLOCK_RECORD
  5
1
330
0
100
AcDbSymbolTable
 70
    10
  0
BLOCK_RECORD
  5
1F
330
1
100
AcDbSymbolTableRecord
100
AcDbBlockTableRecord
  2
*Model_Space
340
22
  0
BLOCK_RECORD
  5
1B
330
1
100
AcDbSymbolTableRecord
100
AcDbBlockTableRecord
  2
*Paper_Space
340
1E
  0
BLOCK_RECORD
  5
23
330
1
100
AcDbSymbolTableRecord
100
AcDbBlockTableRecord
  2
*Paper_Space0
340
26
  0
BLOCK_RECORD
  5
43
330
1
100
AcDbSymbolTableRecord
100
AcDbBlockTableRecord
  2
HL_200_Rippenseite
340
0
102
{BLKREFS
331
6C
102
}
  0
BLOCK_RECORD
  5
46
330
1
100
AcDbSymbolTableRecord
100
AcDbBlockTableRecord
  2
HL_200_Muffenseite
340
0
102
{BLKREFS
331
6D
102
}
  0
BLOCK_RECORD
  5
49
330
1
100
AcDbSymbolTableRecord
100
AcDbBlockTableRecord
  2
HL_200_Vario
340
0
102
{BLKREFS
331
70
102
}
  0
BLOCK_RECORD
  5
15E
330
1
100
AcDbSymbolTableRecord
100
AcDbBlockTableRecord
  2
*D4
340
0
  0
BLOCK_RECORD
  5
16A
330
1
100
AcDbSymbolTableRecord
100
AcDbBlockTableRecord
  2
*D5
340
0
  0
BLOCK_RECORD
  5
176
330
1
100
AcDbSymbolTableRecord
100
AcDbBlockTableRecord
  2
*D6
340
0
  0
BLOCK_RECORD
  5
181
330
1
100
AcDbSymbolTableRecord
100
AcDbBlockTableRecord
  2
*D7
340
0
  0
BLOCK_RECORD
  5
18C
330
1
100
AcDbSymbolTableRecord
100
AcDbBlockTableRecord
  2
*D8
340
0
  0
BLOCK_RECORD
  5
197
330
1
100
AcDbSymbolTableRecord
100
AcDbBlockTableRecord
  2
*D9
340
0
  0
ENDTAB
  0
ENDSEC
  0
SECTION
  2
BLOCKS
  0
BLOCK
  5
20
330
1F
100
AcDbEntity
  8
0
100
AcDbBlockBegin
  2
*Model_Space
 70
     0
 10
0.0
 20
0.0
 30
0.0
  3
*Model_Space
  1

  0
ENDBLK
  5
21
330
1F
100
AcDbEntity
  8
0
100
AcDbBlockEnd
  0
BLOCK
  5
1C
330
1B
100
AcDbEntity
 67
     1
  8
0
100
AcDbBlockBegin
  2
*Paper_Space
 70
     0
 10
0.0
 20
0.0
 30
0.0
  3
*Paper_Space
  1

  0
ENDBLK
  5
1D
330
1B
100
AcDbEntity
 67
     1
  8
0
100
AcDbBlockEnd
  0
BLOCK
  5
24
330
23
100
AcDbEntity
  8
0
100
AcDbBlockBegin
  2
*Paper_Space0
 70
     0
 10
0.0
 20
0.0
 30
0.0
  3
*Paper_Space0
  1

  0
ENDBLK
  5
25
330
23
100
AcDbEntity
  8
0
100
AcDbBlockEnd
  0
BLOCK
  5
44
330
43
100
AcDbEntity
  8
0
100
AcDbBlockBegin
  2
HL_200_Rippenseite
 70
     0
 10
10.00000000000017
 20
33.71374129175518
 30
0.0
  3
HL_200_Rippenseite
  1

  0
POINT
  5
71
330
43
100
AcDbEntity
  8
1
 62
     3
 60
     1
100
AcDbPoint
 10
34.98260934499031
 20
0.99999999999995
 30
0.0
  0
POINT
  5
72
330
43
100
AcDbEntity
  8
1
 62
     3
 60
     1
100
AcDbPoint
 10
-47.99999999999983
 20
54.99999999999999
 30
0.0
  0
LINE
  5
73
330
43
100
AcDbEntity
  8
1
  6
DOT_CENTER
 62
     2
100
AcDbLine
 10
-40.01739065500963
 20
-1.00000000000005
 30
0.0
 11
-40.01739065500963
 21
-4.00000000000005
 31
0.0
  0
LINE
  5
74
330
43
100
AcDbEntity
  8
1
  6
DOT_CENTER
 62
     2
100
AcDbLine
 10
39.98260934499027
 20
-4.00000000000005
 30
0.0
 11
39.98260934499027
 21
-1.00000000000005
 31
0.0
  0
LINE
  5
75
330
43
100
AcDbEntity
  8
1
  6
PHANTOM
 62
     2
100
AcDbLine
 10
-0.01739065500934
 20
71.42748258351041
 30
0.0
 11
-0.01739065500971
 21
-3.61612477571919
 31
0.0
  0
LINE
  5
76
102
{ACAD_REACTORS
330
D8
330
D8
102
}
330
43
100
AcDbEntity
  8
1
  6
Continuous
 62
     7
100
AcDbLine
 10
-48.01570490853177
 20
41.49999999999996
 30
0.0
 11
-47.43835463934214
 21
42.49999999999996
 31
0.0
  0
LINE
  5
77
102
{ACAD_REACTORS
330
D8
330
D8
102
}
330
43
100
AcDbEntity
  8
1
  6
Continuous
 62
     7
100
AcDbLine
 10
-48.01570490853177
 20
41.49999999999996
 30
0.0
 11
-38.57792047856176
 21
41.49999999999996
 31
0.0
  0
LINE
  5
78
102
{ACAD_REACTORS
330
D8
330
D8
102
}
330
43
100
AcDbEntity
  8
1
  6
Continuous
 62
     7
100
AcDbLine
 10
-47.43835463934214
 20
42.49999999999996
 30
0.0
 11
-38.60410640013095
 21
42.49999999999996
 31
0.0
  0
LINE
  5
79
102
{ACAD_REACTORS
330
D8
330
D8
102
}
330
43
100
AcDbEntity
  8
1
  6
Continuous
 62
     7
100
AcDbLine
 10
-42.43835462948606
 20
36.49999999999996
 30
0.0
 11
-38.44699087071582
 21
36.49999999999996
 31
0.0
  0
LINE
  5
7A
102
{ACAD_REACTORS
330
D8
330
D8
102
}
330
43
100
AcDbEntity
  8
1
  6
Continuous
 62
     7
100
AcDbLine
 10
-43.01570489867569
 20
35.49999999999995
 30
0.0
 11
-38.42080494914664
 21
35.49999999999995
 31
0.0
  0
LINE
  5
7B
102
{ACAD_REACTORS
330
D8
330
D8
102
}
330
43
100
AcDbEntity
  8
1
  6
Continuous
 62
     7
100
AcDbLine
 10
-43.01570489867569
 20
35.49999999999995
 30
0.0
 11
-42.43835462948606
 21
36.49999999999996
 31
0.0
  0
LINE
  5
7C
102
{ACAD_REACTORS
330
D8
330
D8
102
}
330
43
100
AcDbEntity
  8
1
  6
Continuous
 62
     7
100
AcDbLine
 10
-43.01570489867569
 20
19.49999999999995
 30
0.0
 11
-42.43835462948606
 21
20.49999999999995
 31
0.0
  0
LINE
  5
7D
102
{ACAD_REACTORS
330
D8
330
D8
102
}
330
43
100
AcDbEntity
  8
1
  6
Continuous
 62
     7
100
AcDbLine
 10
-43.01570489867569
 20
19.49999999999995
 30
0.0
 11
-38.00183020403965
 21
19.49999999999995
 31
0.0
  0
LINE
  5
7E
102
{ACAD_REACTORS
330
D8
330
D8
102
}
330
43
100
AcDbEntity
  8
1
  6
Continuous
 62
     7
100
AcDbLine
 10
-42.43835462948606
 20
20.49999999999995
 30
0.0
 11
-38.02801612560884
 21
20.49999999999995
 31
0.0
  0
LINE
  5
7F
102
{ACAD_REACTORS
330
D8
330
D8
102
}
330
43
100
AcDbEntity
  8
1
  6
Continuous
 62
     7
100
AcDbLine
 10
-47.43835463934214
 20
26.49999999999996
 30
0.0
 11
-38.18513165502396
 21
26.49999999999995
 31
0.0
  0
LINE
  5
80
102
{ACAD_REACTORS
330
D8
330
D8
102
}
330
43
100
AcDbEntity
  8
1
  6
Continuous
 62
     7
100
AcDbLine
 10
-48.01570490853177
 20
25.49999999999995
 30
0.0
 11
-38.15894573345477
 21
25.49999999999995
 31
0.0
  0
LINE
  5
81
102
{ACAD_REACTORS
330
D8
330
D8
102
}
330
43
100
AcDbEntity
  8
1
  6
Continuous
 62
     7
100
AcDbLine
 10
-48.01570490853177
 20
25.49999999999995
 30
0.0
 11
-47.43835463934214
 21
26.49999999999996
 31
0.0
  0
LINE
  5
82
102
{ACAD_REACTORS
330
D8
330
D8
102
}
330
43
100
AcDbEntity
  8
1
  6
Continuous
 62
     7
100
AcDbLine
 10
-48.01570490853177
 20
9.49999999999995
 30
0.0
 11
-47.43835463934214
 21
10.49999999999996
 31
0.0
  0
LINE
  5
83
102
{ACAD_REACTORS
330
D8
330
D8
102
}
330
43
100
AcDbEntity
  8
1
  6
Continuous
 62
     7
100
AcDbLine
 10
-48.01570490853177
 20
9.49999999999995
 30
0.0
 11
-37.73997098834778
 21
9.49999999999995
 31
0.0
  0
LINE
  5
84
102
{ACAD_REACTORS
330
D8
330
D8
102
}
330
43
100
AcDbEntity
  8
1
  6
Continuous
 62
     7
100
AcDbLine
 10
-47.43835463934214
 20
10.49999999999996
 30
0.0
 11
-37.76615690991697
 21
10.49999999999996
 31
0.0
  0
LINE
  5
85
102
{ACAD_REACTORS
330
D8
330
D8
102
}
330
43
100
AcDbEntity
  8
1
  6
Continuous
 62
     7
100
AcDbLine
 10
-42.43835462948606
 20
4.49999999999995
 30
0.0
 11
-37.60904138050184
 21
4.49999999999995
 31
0.0
  0
LINE
  5
86
102
{ACAD_REACTORS
330
D8
330
D8
102
}
330
43
100
AcDbEntity
  8
1
  6
Continuous
 62
     7
100
AcDbLine
 10
-43.01570489867569
 20
3.49999999999995
 30
0.0
 11
-37.58285545893266
 21
3.49999999999995
 31
0.0
  0
LINE
  5
87
102
{ACAD_REACTORS
330
D8
330
D8
102
}
330
43
100
AcDbEntity
  8
1
  6
Continuous
 62
     7
100
AcDbLine
 10
-43.01570489867569
 20
3.49999999999995
 30
0.0
 11
-42.43835462948606
 21
4.49999999999995
 31
0.0
  0
LINE
  5
88
102
{ACAD_REACTORS
330
D8
330
D8
102
}
330
43
100
AcDbEntity
  8
1
  6
Continuous
 62
     7
100
AcDbLine
 10
-37.58285545893266
 20
3.49999999999995
 30
0.0
 11
-37.56839156311744
 21
2.94764610338421
 31
0.0
  0
LINE
  5
89
102
{ACAD_REACTORS
330
D8
330
D8
102
}
330
43
100
AcDbEntity
  8
1
  6
Continuous
 62
     7
100
AcDbLine
 10
-37.73997098834778
 20
9.49999999999995
 30
0.0
 11
-37.60904138050184
 21
4.49999999999995
 31
0.0
  0
LINE
  5
8A
102
{ACAD_REACTORS
330
D8
330
D8
102
}
330
43
100
AcDbEntity
  8
1
  6
Continuous
 62
     7
100
AcDbLine
 10
-38.00183020403965
 20
19.49999999999995
 30
0.0
 11
-37.76615690991697
 21
10.49999999999996
 31
0.0
  0
LINE
  5
8B
102
{ACAD_REACTORS
330
D8
330
D8
102
}
330
43
100
AcDbEntity
  8
1
  6
Continuous
 62
     7
100
AcDbLine
 10
-38.15894573345477
 20
25.49999999999995
 30
0.0
 11
-38.02801612560884
 21
20.49999999999995
 31
0.0
  0
LINE
  5
8C
102
{ACAD_REACTORS
330
D8
330
D8
102
}
330
43
100
AcDbEntity
  8
1
  6
Continuous
 62
     7
100
AcDbLine
 10
-38.42080494914664
 20
35.49999999999995
 30
0.0
 11
-38.18513165502396
 21
26.49999999999995
 31
0.0
  0
LINE
  5
8D
102
{ACAD_REACTORS
330
D8
330
D8
102
}
330
43
100
AcDbEntity
  8
1
  6
Continuous
 62
     7
100
AcDbLine
 10
-38.57792047856176
 20
41.49999999999996
 30
0.0
 11
-38.44699087071582
 21
36.49999999999996
 31
0.0
  0
LINE
  5
8E
102
{ACAD_REACTORS
330
D8
330
D8
102
}
330
43
100
AcDbEntity
  8
1
  6
Continuous
 62
     7
100
AcDbLine
 10
-38.80067910297658
 20
50.0068086615269
 30
0.0
 11
-38.60410640013095
 21
42.49999999999996
 31
0.0
  0
LINE
  5
8F
102
{ACAD_REACTORS
330
D8
330
D8
102
}
330
43
100
AcDbEntity
  8
1
  6
Continuous
 62
     7
100
AcDbLine
 10
-36.30435162161017
 20
50.14705648988259
 30
0.0
 11
-35.01739065500969
 21
0.99999999999995
 31
0.0
  0
LINE
  5
90
102
{ACAD_REACTORS
330
D8
330
D8
102
}
330
43
100
AcDbEntity
  8
1
  6
Continuous
 62
     7
100
AcDbLine
 10
-35.56907691316633
 20
0.99999999999995
 30
0.0
 11
-35.01739065500969
 21
0.99999999999995
 31
0.0
  0
LINE
  5
91
102
{ACAD_REACTORS
330
D9
330
D9
102
}
330
43
100
AcDbEntity
  8
1
  6
Continuous
 62
     7
100
AcDbLine
 10
34.98260934499031
 20
0.99999999999995
 30
0.0
 11
35.53429560314694
 21
0.99999999999995
 31
0.0
  0
LINE
  5
92
102
{ACAD_REACTORS
330
D9
330
D9
102
}
330
43
100
AcDbEntity
  8
1
  6
Continuous
 62
     7
100
AcDbLine
 10
34.98260934499031
 20
0.99999999999995
 30
0.0
 11
36.2049461628534
 21
47.6791598162197
 31
0.0
  0
LINE
  5
93
102
{ACAD_REACTORS
330
D9
330
D9
102
}
330
43
100
AcDbEntity
  8
1
  6
Continuous
 62
     7
100
AcDbLine
 10
38.56932509011156
 20
42.49999999999996
 30
0.0
 11
38.7012736442198
 21
47.53891198786403
 31
0.0
  0
LINE
  5
94
102
{ACAD_REACTORS
330
D9
330
D9
102
}
330
43
100
AcDbEntity
  8
1
  6
Continuous
 62
     7
100
AcDbLine
 10
38.41220956069644
 20
36.49999999999996
 30
0.0
 11
38.54313916854238
 21
41.49999999999996
 31
0.0
  0
LINE
  5
95
102
{ACAD_REACTORS
330
D9
330
D9
102
}
330
43
100
AcDbEntity
  8
1
  6
Continuous
 62
     7
100
AcDbLine
 10
38.15035034500458
 20
26.49999999999995
 30
0.0
 11
38.38602363912725
 21
35.49999999999995
 31
0.0
  0
LINE
  5
96
102
{ACAD_REACTORS
330
D9
330
D9
102
}
330
43
100
AcDbEntity
  8
1
  6
Continuous
 62
     7
100
AcDbLine
 10
37.99323481558945
 20
20.49999999999995
 30
0.0
 11
38.12416442343539
 21
25.49999999999995
 31
0.0
  0
LINE
  5
97
102
{ACAD_REACTORS
330
D9
330
D9
102
}
330
43
100
AcDbEntity
  8
1
  6
Continuous
 62
     7
100
AcDbLine
 10
37.73137559989758
 20
10.49999999999996
 30
0.0
 11
37.96704889402027
 21
19.49999999999995
 31
0.0
  0
LINE
  5
98
102
{ACAD_REACTORS
330
D9
330
D9
102
}
330
43
100
AcDbEntity
  8
1
  6
Continuous
 62
     7
100
AcDbLine
 10
37.57426007048246
 20
4.49999999999995
 30
0.0
 11
37.7051896783284
 21
9.49999999999995
 31
0.0
  0
LINE
  5
99
102
{ACAD_REACTORS
330
D9
330
D9
102
}
330
43
100
AcDbEntity
  8
1
  6
Continuous
 62
     7
100
AcDbLine
 10
37.53361025309806
 20
2.94764610338421
 30
0.0
 11
37.54807414891327
 21
3.49999999999995
 31
0.0
  0
LINE
  5
9A
330
43
100
AcDbEntity
  8
1
  6
Continuous
 62
     7
100
AcDbLine
 10
-35.03578301071352
 20
0.99999999999995
 30
0.0
 11
34.98260934499031
 21
0.99999999999995
 31
0.0
  0
LINE
  5
9B
330
43
100
AcDbEntity
  8
1
  6
Continuous
 62
     7
100
AcDbLine
 10
67.8165121395488
 20
58.0
 30
0.0
 11
-47.81651213954852
 21
58.0
 31
0.0
  0
LINE
  5
9C
102
{ACAD_REACTORS
330
D9
330
D9
102
}
330
43
100
AcDbEntity
  8
1
  6
Continuous
 62
     7
100
AcDbLine
 10
42.40357331946667
 20
4.49999999999995
 30
0.0
 11
42.9809235886563
 21
3.49999999999995
 31
0.0
  0
LINE
  5
9D
102
{ACAD_REACTORS
330
D9
330
D9
102
}
330
43
100
AcDbEntity
  8
1
  6
Continuous
 62
     7
100
AcDbLine
 10
37.54807414891327
 20
3.49999999999995
 30
0.0
 11
42.9809235886563
 21
3.49999999999995
 31
0.0
  0
LINE
  5
9E
102
{ACAD_REACTORS
330
D9
330
D9
102
}
330
43
100
AcDbEntity
  8
1
  6
Continuous
 62
     7
100
AcDbLine
 10
37.57426007048246
 20
4.49999999999995
 30
0.0
 11
42.40357331946667
 21
4.49999999999995
 31
0.0
  0
LINE
  5
9F
102
{ACAD_REACTORS
330
D9
330
D9
102
}
330
43
100
AcDbEntity
  8
1
  6
Continuous
 62
     7
100
AcDbLine
 10
37.73137559989758
 20
10.49999999999996
 30
0.0
 11
47.40357332932275
 21
10.49999999999996
 31
0.0
  0
LINE
  5
A0
102
{ACAD_REACTORS
330
D9
330
D9
102
}
330
43
100
AcDbEntity
  8
1
  6
Continuous
 62
     7
100
AcDbLine
 10
37.7051896783284
 20
9.49999999999995
 30
0.0
 11
47.98092359851238
 21
9.49999999999995
 31
0.0
  0
LINE
  5
A1
102
{ACAD_REACTORS
330
D9
330
D9
102
}
330
43
100
AcDbEntity
  8
1
  6
Continuous
 62
     7
100
AcDbLine
 10
47.40357332932275
 20
10.49999999999996
 30
0.0
 11
47.98092359851238
 21
9.49999999999995
 31
0.0
  0
LINE
  5
A2
102
{ACAD_REACTORS
330
D9
330
D9
102
}
330
43
100
AcDbEntity
  8
1
  6
Continuous
 62
     7
100
AcDbLine
 10
47.40357332932276
 20
26.49999999999996
 30
0.0
 11
47.98092359851238
 21
25.49999999999995
 31
0.0
  0
LINE
  5
A3
102
{ACAD_REACTORS
330
D9
330
D9
102
}
330
43
100
AcDbEntity
  8
1
  6
Continuous
 62
     7
100
AcDbLine
 10
38.12416442343539
 20
25.49999999999995
 30
0.0
 11
47.98092359851238
 21
25.49999999999995
 31
0.0
  0
LINE
  5
A4
102
{ACAD_REACTORS
330
D9
330
D9
102
}
330
43
100
AcDbEntity
  8
1
  6
Continuous
 62
     7
100
AcDbLine
 10
38.15035034500458
 20
26.49999999999995
 30
0.0
 11
47.40357332932276
 21
26.49999999999996
 31
0.0
  0
LINE
  5
A5
102
{ACAD_REACTORS
330
D9
330
D9
102
}
330
43
100
AcDbEntity
  8
1
  6
Continuous
 62
     7
100
AcDbLine
 10
37.99323481558945
 20
20.49999999999995
 30
0.0
 11
42.40357331946667
 21
20.49999999999995
 31
0.0
  0
LINE
  5
A6
102
{ACAD_REACTORS
330
D9
330
D9
102
}
330
43
100
AcDbEntity
  8
1
  6
Continuous
 62
     7
100
AcDbLine
 10
37.96704889402027
 20
19.49999999999995
 30
0.0
 11
42.9809235886563
 21
19.49999999999995
 31
0.0
  0
LINE
  5
A7
102
{ACAD_REACTORS
330
D9
330
D9
102
}
330
43
100
AcDbEntity
  8
1
  6
Continuous
 62
     7
100
AcDbLine
 10
42.40357331946667
 20
20.49999999999995
 30
0.0
 11
42.9809235886563
 21
19.49999999999995
 31
0.0
  0
LINE
  5
A8
102
{ACAD_REACTORS
330
D9
330
D9
102
}
330
43
100
AcDbEntity
  8
1
  6
Continuous
 62
     7
100
AcDbLine
 10
42.40357331946667
 20
36.49999999999994
 30
0.0
 11
42.9809235886563
 21
35.49999999999995
 31
0.0
  0
LINE
  5
A9
102
{ACAD_REACTORS
330
D9
330
D9
102
}
330
43
100
AcDbEntity
  8
1
  6
Continuous
 62
     7
100
AcDbLine
 10
38.38602363912725
 20
35.49999999999995
 30
0.0
 11
42.9809235886563
 21
35.49999999999995
 31
0.0
  0
LINE
  5
AA
102
{ACAD_REACTORS
330
D9
330
D9
102
}
330
43
100
AcDbEntity
  8
1
  6
Continuous
 62
     7
100
AcDbLine
 10
38.41220956069644
 20
36.49999999999996
 30
0.0
 11
42.40357331946667
 21
36.49999999999994
 31
0.0
  0
LINE
  5
AB
102
{ACAD_REACTORS
330
D9
330
D9
102
}
330
43
100
AcDbEntity
  8
1
  6
Continuous
 62
     7
100
AcDbLine
 10
38.56932509011156
 20
42.49999999999996
 30
0.0
 11
47.40357332932275
 21
42.49999999999996
 31
0.0
  0
LINE
  5
AC
102
{ACAD_REACTORS
330
D9
330
D9
102
}
330
43
100
AcDbEntity
  8
1
  6
Continuous
 62
     7
100
AcDbLine
 10
38.54313916854238
 20
41.49999999999996
 30
0.0
 11
47.98092359851238
 21
41.49999999999996
 31
0.0
  0
LINE
  5
AD
102
{ACAD_REACTORS
330
D9
330
D9
102
}
330
43
100
AcDbEntity
  8
1
  6
Continuous
 62
     7
100
AcDbLine
 10
47.40357332932275
 20
42.49999999999996
 30
0.0
 11
47.98092359851238
 21
41.49999999999996
 31
0.0
  0
LINE
  5
AE
102
{ACAD_REACTORS
330
D8
330
D8
102
}
330
43
100
AcDbEntity
  8
1
  6
Continuous
 62
     7
100
AcDbLine
 10
-56.49999999999977
 20
58.0
 30
0.0
 11
-47.81651213954852
 21
58.0
 31
0.0
  0
LINE
  5
AF
102
{ACAD_REACTORS
330
D8
330
D8
102
}
330
43
100
AcDbEntity
  8
1
  6
Continuous
 62
     7
100
AcDbLine
 10
-47.81651213954852
 20
58.0
 30
0.0
 11
-42.88776148338824
 21
57.39482551488345
 31
0.0
  0
LINE
  5
B0
102
{ACAD_REACTORS
330
D8
330
D8
102
}
330
43
100
AcDbEntity
  8
1
  6
Continuous
 62
     7
100
AcDbLine
 10
-47.99999999999983
 20
54.99999999999999
 30
0.0
 11
-42.75072502004342
 21
54.35547007652743
 31
0.0
  0
LINE
  5
B1
102
{ACAD_REACTORS
330
D9
330
D9
102
}
330
43
100
AcDbEntity
  8
1
  6
Continuous
 62
     7
100
AcDbLine
 10
67.8165121395488
 20
58.0
 30
0.0
 11
42.78835602463148
 21
54.92692884122057
 31
0.0
  0
LINE
  5
B2
102
{ACAD_REACTORS
330
D9
330
D9
102
}
330
43
100
AcDbEntity
  8
1
  6
Continuous
 62
     7
100
AcDbLine
 10
67.8165121395488
 20
58.0
 30
0.0
 11
76.5
 21
58.0
 31
0.0
  0
LINE
  5
B3
102
{ACAD_REACTORS
330
D9
330
D9
102
}
330
43
100
AcDbEntity
  8
1
  6
Continuous
 62
     7
100
AcDbLine
 10
68.00000000000017
 20
54.99999999999999
 30
0.0
 11
86.0
 21
55.0
 31
0.0
  0
LINE
  5
B4
102
{ACAD_REACTORS
330
D9
330
D9
102
}
330
43
100
AcDbEntity
  8
1
  6
Continuous
 62
     7
100
AcDbLine
 10
68.00000000000017
 20
54.99999999999999
 30
0.0
 11
42.65131956128666
 21
51.88757340286455
 31
0.0
  0
LINE
  5
B5
330
43
100
AcDbEntity
  8
1
  6
Continuous
 62
     7
100
AcDbLine
 10
77.0
 20
67.0
 30
0.0
 11
4.90959374764532
 21
67.0
 31
0.0
  0
LINE
  5
B6
330
43
100
AcDbEntity
  8
1
  6
Continuous
 62
     7
100
AcDbLine
 10
-50.90433072730725
 20
67.0
 30
0.0
 11
-57.49999999999977
 21
67.0
 31
0.0
  0
LINE
  5
B7
102
{ACAD_REACTORS
330
D8
330
D8
102
}
330
43
100
AcDbEntity
  8
1
  6
Continuous
 62
     7
100
AcDbLine
 10
-63.99999999999977
 20
61.0
 30
0.0
 11
-63.99999999999932
 21
61.84529946162115
 31
0.0
  0
LINE
  5
B8
102
{ACAD_REACTORS
330
D8
330
D8
102
}
330
43
100
AcDbEntity
  8
1
  6
Continuous
 62
     7
100
AcDbLine
 10
-56.49999999999977
 20
58.0
 30
0.0
 11
-56.49999999999977
 21
66.5
 31
0.0
  0
LINE
  5
B9
102
{ACAD_REACTORS
330
D8
330
D8
102
}
330
43
100
AcDbEntity
  8
1
  6
Continuous
 62
     7
100
AcDbLine
 10
-57.49999999999977
 20
67.0
 30
0.0
 11
-56.99999999999977
 21
67.0
 31
0.0
  0
LINE
  5
BA
102
{ACAD_REACTORS
330
D8
330
D8
102
}
330
43
100
AcDbEntity
  8
1
  6
Continuous
 62
     7
100
AcDbLine
 10
-57.99999999999977
 20
61.0
 30
0.0
 11
-57.99999999999977
 21
66.5
 31
0.0
  0
LINE
  5
BB
102
{ACAD_REACTORS
330
D9
330
D9
102
}
330
43
100
AcDbEntity
  8
1
  6
Continuous
 62
     7
100
AcDbLine
 10
77.0
 20
67.0
 30
0.0
 11
77.5
 21
67.0
 31
0.0
  0
LINE
  5
BC
102
{ACAD_REACTORS
330
D9
330
D9
102
}
330
43
100
AcDbEntity
  8
1
  6
Continuous
 62
     7
100
AcDbLine
 10
78.0
 20
66.5
 30
0.0
 11
78.0
 21
61.0
 31
0.0
  0
LINE
  5
BD
102
{ACAD_REACTORS
330
D9
330
D9
102
}
330
43
100
AcDbEntity
  8
1
  6
Continuous
 62
     7
100
AcDbLine
 10
76.5
 20
66.5
 30
0.0
 11
76.5
 21
58.0
 31
0.0
  0
LINE
  5
BE
102
{ACAD_REACTORS
330
D8
330
D8
102
}
330
43
100
AcDbEntity
  8
1
  6
Continuous
 62
     7
100
AcDbLine
 10
-63.99999999999932
 20
61.84529946162115
 30
0.0
 11
-61.99999999999932
 21
63.0
 31
0.0
  0
LINE
  5
BF
102
{ACAD_REACTORS
330
D8
330
D8
102
}
330
43
100
AcDbEntity
  8
1
  6
Continuous
 62
     7
100
AcDbLine
 10
-61.99999999999932
 20
63.0
 30
0.0
 11
-61.99999999999932
 21
66.0
 31
0.0
  0
LINE
  5
C0
102
{ACAD_REACTORS
330
D8
330
D8
102
}
330
43
100
AcDbEntity
  8
1
  6
Continuous
 62
     7
100
AcDbLine
 10
-64.49999999999932
 20
68.5
 30
0.0
 11
-61.99999999999932
 21
66.0
 31
0.0
  0
LINE
  5
C1
102
{ACAD_REACTORS
330
D8
330
D8
102
}
330
43
100
AcDbEntity
  8
1
  6
Continuous
 62
     7
100
AcDbLine
 10
-65.99999999999966
 20
68.5
 30
0.0
 11
-64.49999999999932
 21
68.5
 31
0.0
  0
LINE
  5
C2
102
{ACAD_REACTORS
330
D9
330
D9
102
}
330
43
100
AcDbEntity
  8
1
  6
Continuous
 62
     7
100
AcDbLine
 10
84.0
 20
61.84529946162115
 30
0.0
 11
84.0
 21
61.0
 31
0.0
  0
LINE
  5
C3
102
{ACAD_REACTORS
330
D9
330
D9
102
}
330
43
100
AcDbEntity
  8
1
  6
Continuous
 62
     7
100
AcDbLine
 10
82.0
 20
63.0
 30
0.0
 11
84.0
 21
61.84529946162115
 31
0.0
  0
LINE
  5
C4
102
{ACAD_REACTORS
330
D9
330
D9
102
}
330
43
100
AcDbEntity
  8
1
  6
Continuous
 62
     7
100
AcDbLine
 10
82.0
 20
66.0
 30
0.0
 11
82.0
 21
63.0
 31
0.0
  0
LINE
  5
C5
102
{ACAD_REACTORS
330
D9
330
D9
102
}
330
43
100
AcDbEntity
  8
1
  6
Continuous
 62
     7
100
AcDbLine
 10
84.5
 20
68.5
 30
0.0
 11
86.0
 21
68.5
 31
0.0
  0
LINE
  5
C6
102
{ACAD_REACTORS
330
D9
330
D9
102
}
330
43
100
AcDbEntity
  8
1
  6
Continuous
 62
     7
100
AcDbLine
 10
82.0
 20
66.0
 30
0.0
 11
84.5
 21
68.5
 31
0.0
  0
LINE
  5
C7
102
{ACAD_REACTORS
330
D8
330
D8
102
}
330
43
100
AcDbEntity
  8
1
  6
Continuous
 62
     7
100
AcDbLine
 10
-65.99999999999966
 20
55.0
 30
0.0
 11
-65.99999999999966
 21
68.5
 31
0.0
  0
LINE
  5
C8
102
{ACAD_REACTORS
330
D8
330
D8
102
}
330
43
100
AcDbEntity
  8
1
  6
Continuous
 62
     7
100
AcDbLine
 10
-65.99999999999966
 20
55.0
 30
0.0
 11
-47.99999999999983
 21
54.99999999999999
 31
0.0
  0
LINE
  5
C9
102
{ACAD_REACTORS
330
D9
330
D9
102
}
330
43
100
AcDbEntity
  8
1
  6
Continuous
 62
     7
100
AcDbLine
 10
86.0
 20
68.5
 30
0.0
 11
86.0
 21
55.0
 31
0.0
  0
ARC
  5
CA
102
{ACAD_REACTORS
330
D8
330
D8
102
}
330
43
100
AcDbEntity
  8
1
  6
Continuous
 62
     7
100
AcDbCircle
 10
-35.56907691316633
 20
2.99999999999995
 30
0.0
 40
1.999999999999995
100
AcDbArc
 50
181.4999999999999
 51
270.0
  0
ARC
  5
CB
102
{ACAD_REACTORS
330
D9
330
D9
102
}
330
43
100
AcDbEntity
  8
1
  6
Continuous
 62
     7
100
AcDbCircle
 10
35.53429560314694
 20
2.99999999999995
 30
0.0
 40
2.0
100
AcDbArc
 50
270.0
 51
358.5000000000001
  0
ARC
  5
CC
102
{ACAD_REACTORS
330
D8
330
D8
102
}
330
43
100
AcDbEntity
  8
1
  6
Continuous
 62
     7
100
AcDbCircle
 10
-43.29913706536659
 20
49.88901239414147
 30
0.0
 40
4.499999999999998
100
AcDbArc
 50
1.50000000000001
 51
82.99999999999997
  0
ARC
  5
CD
102
{ACAD_REACTORS
330
D8
330
D8
102
}
330
43
100
AcDbEntity
  8
1
  6
Continuous
 62
     7
100
AcDbCircle
 10
-43.80178155892686
 20
49.95072937757354
 30
0.0
 40
7.500000000000016
100
AcDbArc
 50
1.5
 51
82.99999999999987
  0
ARC
  5
CE
102
{ACAD_REACTORS
330
D9
330
D9
102
}
330
43
100
AcDbEntity
  8
1
  6
Continuous
 62
     7
100
AcDbCircle
 10
43.70237610017008
 20
47.48283270391066
 30
0.0
 40
7.499999999999996
100
AcDbArc
 50
96.99999999999991
 51
178.5000000000001
  0
ARC
  5
CF
102
{ACAD_REACTORS
330
D9
330
D9
102
}
330
43
100
AcDbEntity
  8
1
  6
Continuous
 62
     7
100
AcDbCircle
 10
43.19973160660982
 20
47.4211157204786
 30
0.0
 40
4.499999999999993
100
AcDbArc
 50
96.9999999999999
 51
178.5
  0
ARC
  5
D0
102
{ACAD_REACTORS
330
D8
330
D8
102
}
330
43
100
AcDbEntity
  8
1
  6
Continuous
 62
     7
100
AcDbCircle
 10
-60.99999999999977
 20
61.0
 30
0.0
 40
3.0
100
AcDbArc
 50
270.0
 51
0.0
  0
ARC
  5
D1
102
{ACAD_REACTORS
330
D8
330
D8
102
}
330
43
100
AcDbEntity
  8
1
  6
Continuous
 62
     7
100
AcDbCircle
 10
-56.99999999999977
 20
66.5
 30
0.0
 40
0.5
100
AcDbArc
 50
0.0
 51
90.0
  0
ARC
  5
D2
102
{ACAD_REACTORS
330
D8
330
D8
102
}
330
43
100
AcDbEntity
  8
1
  6
Continuous
 62
     7
100
AcDbCircle
 10
-57.49999999999977
 20
66.5
 30
0.0
 40
0.5
100
AcDbArc
 50
90.0
 51
180.0
  0
ARC
  5
D3
102
{ACAD_REACTORS
330
D9
330
D9
102
}
330
43
100
AcDbEntity
  8
1
  6
Continuous
 62
     7
100
AcDbCircle
 10
77.5
 20
66.5
 30
0.0
 40
0.5
100
AcDbArc
 50
0.0
 51
90.0
  0
ARC
  5
D4
102
{ACAD_REACTORS
330
D9
330
D9
102
}
330
43
100
AcDbEntity
  8
1
  6
Continuous
 62
     7
100
AcDbCircle
 10
77.0
 20
66.5
 30
0.0
 40
0.5
100
AcDbArc
 50
90.0
 51
180.0
  0
ARC
  5
D5
102
{ACAD_REACTORS
330
D8
330
D8
102
}
330
43
100
AcDbEntity
  8
1
  6
Continuous
 62
     7
100
AcDbCircle
 10
-60.99999999999977
 20
61.0
 30
0.0
 40
3.0
100
AcDbArc
 50
180.0
 51
270.0
  0
ARC
  5
D6
102
{ACAD_REACTORS
330
D9
330
D9
102
}
330
43
100
AcDbEntity
  8
1
  6
Continuous
 62
     7
100
AcDbCircle
 10
81.0
 20
61.0
 30
0.0
 40
3.0
100
AcDbArc
 50
180.0
 51
270.0
  0
ARC
  5
D7
102
{ACAD_REACTORS
330
D9
330
D9
102
}
330
43
100
AcDbEntity
  8
1
  6
Continuous
 62
     7
100
AcDbCircle
 10
81.0
 20
61.0
 30
0.0
 40
3.0
100
AcDbArc
 50
270.0
 51
0.0
  0
HATCH
  5
D8
330
43
100
AcDbEntity
  8
1
  6
Continuous
 62
     3
100
AcDbHatch
 10
0.0
 20
0.0
 30
0.0
210
0.0
220
0.0
230
1.0
  2
CUSTOM0
 70
     0
 71
     1
 91
        1
 92
        1
 93
       47
 72
     2
 10
-57.49999999999977
 20
66.5
 40
0.5
 50
90.0
 51
180.0
 73
     1
 72
     1
 10
-57.99999999999977
 20
66.5
 11
-57.99999999999977
 21
61.0
 72
     2
 10
-60.99999999999977
 20
61.0
 40
3.0
 50
0.0
 51
90.0
 73
     0
 72
     2
 10
-60.99999999999977
 20
61.0
 40
3.0
 50
90.0
 51
180.0
 73
     0
 72
     1
 10
-63.99999999999977
 20
61.0
 11
-63.99999999999932
 21
61.84529946162115
 72
     1
 10
-63.99999999999932
 20
61.84529946162115
 11
-61.99999999999932
 21
63.0
 72
     1
 10
-61.99999999999932
 20
63.0
 11
-61.99999999999932
 21
66.0
 72
     1
 10
-61.99999999999932
 20
66.0
 11
-64.49999999999932
 21
68.5
 72
     1
 10
-64.49999999999932
 20
68.5
 11
-65.99999999999966
 21
68.5
 72
     1
 10
-65.99999999999966
 20
68.5
 11
-65.99999999999966
 21
55.0
 72
     1
 10
-65.99999999999966
 20
55.0
 11
-47.99999999999983
 21
54.99999999999999
 72
     1
 10
-47.99999999999983
 20
54.99999999999999
 11
-42.75072502004342
 21
54.35547007652743
 72
     2
 10
-43.29913706536659
 20
49.88901239414147
 40
4.499999999999998
 50
277.0
 51
358.5
 73
     0
 72
     1
 10
-38.80067910297658
 20
50.0068086615269
 11
-38.60410640013095
 21
42.49999999999996
 72
     1
 10
-38.60410640013095
 20
42.49999999999996
 11
-47.43835463934214
 21
42.49999999999996
 72
     1
 10
-47.43835463934214
 20
42.49999999999996
 11
-48.01570490853177
 21
41.49999999999996
 72
     1
 10
-48.01570490853177
 20
41.49999999999996
 11
-38.57792047856176
 21
41.49999999999996
 72
     1
 10
-38.57792047856176
 20
41.49999999999996
 11
-38.44699087071582
 21
36.49999999999996
 72
     1
 10
-38.44699087071582
 20
36.49999999999996
 11
-42.43835462948606
 21
36.49999999999996
 72
     1
 10
-42.43835462948606
 20
36.49999999999996
 11
-43.01570489867569
 21
35.49999999999995
 72
     1
 10
-43.01570489867569
 20
35.49999999999995
 11
-38.42080494914664
 21
35.49999999999995
 72
     1
 10
-38.42080494914664
 20
35.49999999999995
 11
-38.18513165502396
 21
26.49999999999995
 72
     1
 10
-38.18513165502396
 20
26.49999999999995
 11
-47.43835463934214
 21
26.49999999999996
 72
     1
 10
-47.43835463934214
 20
26.49999999999996
 11
-48.01570490853177
 21
25.49999999999995
 72
     1
 10
-48.01570490853177
 20
25.49999999999995
 11
-38.15894573345477
 21
25.49999999999995
 72
     1
 10
-38.15894573345477
 20
25.49999999999995
 11
-38.02801612560884
 21
20.49999999999995
 72
     1
 10
-38.02801612560884
 20
20.49999999999995
 11
-42.43835462948606
 21
20.49999999999995
 72
     1
 10
-42.43835462948606
 20
20.49999999999995
 11
-43.01570489867569
 21
19.49999999999995
 72
     1
 10
-43.01570489867569
 20
19.49999999999995
 11
-38.00183020403965
 21
19.49999999999995
 72
     1
 10
-38.00183020403965
 20
19.49999999999995
 11
-37.76615690991697
 21
10.49999999999996
 72
     1
 10
-37.76615690991697
 20
10.49999999999996
 11
-47.43835463934214
 21
10.49999999999996
 72
     1
 10
-47.43835463934214
 20
10.49999999999996
 11
-48.01570490853177
 21
9.49999999999995
 72
     1
 10
-48.01570490853177
 20
9.49999999999995
 11
-37.73997098834778
 21
9.49999999999995
 72
     1
 10
-37.73997098834778
 20
9.49999999999995
 11
-37.60904138050184
 21
4.499999999999954
 72
     1
 10
-37.60904138050184
 20
4.499999999999954
 11
-42.43835462948606
 21
4.49999999999995
 72
     1
 10
-42.43835462948606
 20
4.49999999999995
 11
-43.01570489867569
 21
3.499999999999947
 72
     1
 10
-43.01570489867569
 20
3.499999999999947
 11
-37.58285545893266
 21
3.499999999999947
 72
     1
 10
-37.58285545893266
 20
3.499999999999947
 11
-37.56839156311744
 21
2.947646103384206
 72
     2
 10
-35.56907691316633
 20
2.99999999999995
 40
1.999999999999995
 50
181.4999999999999
 51
270.0
 73
     1
 72
     1
 10
-35.56907691316633
 20
0.9999999999999503
 11
-35.01739065500969
 21
0.9999999999999503
 72
     1
 10
-35.01739065500969
 20
0.9999999999999503
 11
-36.30435162161017
 21
50.14705648988259
 72
     2
 10
-43.80178155892686
 20
49.95072937757354
 40
7.500000000000016
 50
1.500000000000002
 51
82.99999999999987
 73
     1
 72
     1
 10
-42.88776148338824
 20
57.39482551488345
 11
-47.81651213954852
 21
58.0
 72
     1
 10
-47.81651213954852
 20
58.0
 11
-56.49999999999977
 21
58.0
 72
     1
 10
-56.49999999999977
 20
58.0
 11
-56.49999999999977
 21
66.5
 72
     2
 10
-56.99999999999977
 20
66.5
 40
0.5
 50
0.0
 51
90.0
 73
     1
 72
     1
 10
-56.99999999999977
 20
67.0
 11
-57.49999999999977
 21
67.0
 97
       47
330
D1
330
B8
330
AE
330
AF
330
CD
330
8F
330
90
330
CA
330
88
330
86
330
87
330
85
330
89
330
83
330
82
330
84
330
8A
330
7D
330
7C
330
7E
330
8B
330
80
330
81
330
7F
330
8C
330
7A
330
7B
330
79
330
8D
330
77
330
76
330
78
330
8E
330
CC
330
B0
330
C8
330
C7
330
C1
330
C0
330
BF
330
BE
330
B7
330
D5
330
D0
330
BA
330
D2
330
B9
 75
     1
 76
     2
 52
135.0
 41
5.0
 77
     0
 78
     1
 53
135.0
 43
-0.0173906550096916
 44
0.0
 45
-0.0000000000000006
 46
-7.071067811865475
 79
     0
 98
        1
 10
0.0
 20
0.0
  0
HATCH
  5
D9
330
43
100
AcDbEntity
  8
1
  6
Continuous
 62
     3
100
AcDbHatch
 10
0.0
 20
0.0
 30
0.0
210
0.0
220
0.0
230
1.0
  2
CUSTOM1
 70
     0
 71
     1
 91
        1
 92
        1
 93
       47
 72
     2
 10
81.0
 20
61.0
 40
3.0
 50
270.0
 51
360.0
 73
     1
 72
     1
 10
84.0
 20
61.0
 11
84.0
 21
61.84529946162115
 72
     1
 10
84.0
 20
61.84529946162115
 11
82.0
 21
63.0
 72
     1
 10
82.0
 20
63.0
 11
82.0
 21
66.0
 72
     1
 10
82.0
 20
66.0
 11
84.5
 21
68.5
 72
     1
 10
84.5
 20
68.5
 11
86.0
 21
68.5
 72
     1
 10
86.0
 20
68.5
 11
86.0
 21
55.0
 72
     1
 10
86.0
 20
55.0
 11
68.00000000000017
 21
54.99999999999999
 72
     1
 10
68.00000000000017
 20
54.99999999999999
 11
42.65131956128666
 21
51.88757340286455
 72
     2
 10
43.19973160660982
 20
47.4211157204786
 40
4.499999999999993
 50
96.9999999999999
 51
178.5
 73
     1
 72
     1
 10
38.7012736442198
 20
47.53891198786403
 11
38.56932509011156
 21
42.49999999999996
 72
     1
 10
38.56932509011156
 20
42.49999999999996
 11
47.40357332932275
 21
42.49999999999996
 72
     1
 10
47.40357332932275
 20
42.49999999999996
 11
47.98092359851238
 21
41.49999999999996
 72
     1
 10
47.98092359851238
 20
41.49999999999996
 11
38.54313916854238
 21
41.49999999999996
 72
     1
 10
38.54313916854238
 20
41.49999999999996
 11
38.41220956069644
 21
36.49999999999996
 72
     1
 10
38.41220956069644
 20
36.49999999999996
 11
42.40357331946667
 21
36.49999999999994
 72
     1
 10
42.40357331946667
 20
36.49999999999994
 11
42.9809235886563
 21
35.49999999999995
 72
     1
 10
42.9809235886563
 20
35.49999999999995
 11
38.38602363912725
 21
35.49999999999995
 72
     1
 10
38.38602363912725
 20
35.49999999999995
 11
38.15035034500458
 21
26.49999999999995
 72
     1
 10
38.15035034500458
 20
26.49999999999995
 11
47.40357332932276
 21
26.49999999999996
 72
     1
 10
47.40357332932276
 20
26.49999999999996
 11
47.98092359851238
 21
25.49999999999995
 72
     1
 10
47.98092359851238
 20
25.49999999999995
 11
38.12416442343539
 21
25.49999999999995
 72
     1
 10
38.12416442343539
 20
25.49999999999995
 11
37.99323481558945
 21
20.49999999999995
 72
     1
 10
37.99323481558945
 20
20.49999999999995
 11
42.40357331946667
 21
20.49999999999995
 72
     1
 10
42.40357331946667
 20
20.49999999999995
 11
42.9809235886563
 21
19.49999999999995
 72
     1
 10
42.9809235886563
 20
19.49999999999995
 11
37.96704889402027
 21
19.49999999999995
 72
     1
 10
37.96704889402027
 20
19.49999999999995
 11
37.73137559989758
 21
10.49999999999996
 72
     1
 10
37.73137559989758
 20
10.49999999999996
 11
47.40357332932275
 21
10.49999999999996
 72
     1
 10
47.40357332932275
 20
10.49999999999996
 11
47.98092359851238
 21
9.49999999999995
 72
     1
 10
47.98092359851238
 20
9.49999999999995
 11
37.7051896783284
 21
9.49999999999995
 72
     1
 10
37.7051896783284
 20
9.49999999999995
 11
37.57426007048246
 21
4.499999999999954
 72
     1
 10
37.57426007048246
 20
4.499999999999954
 11
42.40357331946667
 21
4.499999999999949
 72
     1
 10
42.40357331946667
 20
4.499999999999949
 11
42.9809235886563
 21
3.499999999999947
 72
     1
 10
42.9809235886563
 20
3.499999999999947
 11
37.54807414891327
 21
3.499999999999947
 72
     1
 10
37.54807414891327
 20
3.499999999999947
 11
37.53361025309806
 21
2.947646103384206
 72
     2
 10
35.53429560314694
 20
2.99999999999995
 40
2.0
 50
1.499999999999907
 51
90.0
 73
     0
 72
     1
 10
35.53429560314694
 20
0.9999999999999503
 11
34.98260934499031
 21
0.9999999999999503
 72
     1
 10
34.98260934499031
 20
0.9999999999999503
 11
36.2049461628534
 21
47.6791598162197
 72
     2
 10
43.70237610017008
 20
47.48283270391066
 40
7.499999999999996
 50
181.4999999999999
 51
263.0000000000001
 73
     0
 72
     1
 10
42.78835602463148
 20
54.92692884122057
 11
67.8165121395488
 21
58.0
 72
     1
 10
67.8165121395488
 20
58.0
 11
76.5
 21
58.0
 72
     1
 10
76.5
 20
58.0
 11
76.5
 21
66.5
 72
     2
 10
77.0
 20
66.5
 40
0.5
 50
180.0
 51
270.0
 73
     0
 72
     1
 10
77.0
 20
67.0
 11
77.5
 21
67.0
 72
     2
 10
77.5
 20
66.5
 40
0.5
 50
270.0
 51
360.0
 73
     0
 72
     1
 10
78.0
 20
66.5
 11
78.0
 21
61.0
 72
     2
 10
81.0
 20
61.0
 40
3.0
 50
180.0
 51
270.0
 73
     1
 97
       47
330
D7
330
C2
330
C3
330
C4
330
C6
330
C5
330
C9
330
B3
330
B4
330
CF
330
93
330
AB
330
AD
330
AC
330
94
330
AA
330
A8
330
A9
330
95
330
A4
330
A2
330
A3
330
96
330
A5
330
A7
330
A6
330
97
330
9F
330
A1
330
A0
330
98
330
9E
330
9C
330
9D
330
99
330
CB
330
91
330
92
330
CE
330
B1
330
B2
330
BD
330
D4
330
BB
330
D3
330
BC
330
D6
 75
     1
 76
     2
 52
135.0
 41
5.0
 77
     0
 78
     1
 53
135.0
 43
-0.0173906550096916
 44
0.0
 45
-0.0000000000000006
 46
-7.071067811865475
 79
     0
 98
        1
 10
0.0
 20
0.0
  0
ENDBLK
  5
45
330
43
100
AcDbEntity
  8
0
100
AcDbBlockEnd
  0
BLOCK
  5
47
330
46
100
AcDbEntity
  8
0
100
AcDbBlockBegin
  2
HL_200_Muffenseite
 70
     0
 10
9.96000000000036
 20
82.5
 30
0.0
  3
HL_200_Muffenseite
  1

  0
LINE
  5
DA
330
46
100
AcDbEntity
  8
1
  6
DOT_CENTER
 62
     2
100
AcDbLine
 10
70.98210529154352
 20
107.0
 30
0.0
 11
70.98210529154352
 21
104.0
 31
0.0
  0
LINE
  5
DB
330
46
100
AcDbEntity
  8
1
  6
DOT_CENTER
 62
     2
100
AcDbLine
 10
-31.0178947084565
 20
107.0
 30
0.0
 11
-31.0178947084565
 21
104.0
 31
0.0
  0
LINE
  5
DC
330
46
100
AcDbEntity
  8
1
  6
Continuous
 62
     7
100
AcDbLine
 10
-35.42233143788265
 20
77.66589363286111
 30
0.0
 11
-5.42233143788265
 21
77.66589363286111
 31
0.0
  0
LINE
  5
DD
330
46
100
AcDbEntity
  8
1
  6
Continuous
 62
     7
100
AcDbLine
 10
-27.33999999999966
 20
80.6
 30
0.0
 11
-6.33999999999964
 21
80.6
 31
0.0
  0
LINE
  5
DE
330
46
100
AcDbEntity
  8
1
  6
Continuous
 62
     7
100
AcDbLine
 10
-28.89295238724336
 20
83.59649709577526
 30
0.0
 11
45.85716297033033
 21
83.59649709577526
 31
0.0
  0
LINE
  5
DF
330
46
100
AcDbEntity
  8
1
  6
Continuous
 62
     7
100
AcDbLine
 10
-41.08230771910955
 20
88.15451406687691
 30
0.0
 11
-5.08230771910955
 21
88.15451406687691
 31
0.0
  0
LINE
  5
E0
330
46
100
AcDbEntity
  8
1
  6
Continuous
 62
     7
100
AcDbLine
 10
-27.33999999999966
 20
95.6
 30
0.0
 11
44.30421058308664
 21
95.6
 31
0.0
  0
LINE
  5
E1
330
46
100
AcDbEntity
  8
1
  6
Continuous
 62
     7
100
AcDbLine
 10
-28.89295238724336
 20
98.59649709577526
 30
0.0
 11
-5.89295238724334
 21
98.59649709577526
 31
0.0
  0
LINE
  5
E2
330
46
100
AcDbEntity
  8
1
  6
Continuous
 62
     7
100
AcDbLine
 10
-41.08230771910955
 20
83.42559144993298
 30
0.0
 11
-31.84917703482805
 21
83.42559144993298
 31
0.0
  0
LINE
  5
E3
330
46
100
AcDbEntity
  8
1
  6
Continuous
 62
     7
100
AcDbLine
 10
-41.08230771910955
 20
97.86626575781118
 30
0.0
 11
-29.39009789131193
 21
97.86626575781118
 31
0.0
  0
LINE
  5
E4
330
46
100
AcDbEntity
  8
1
  6
Continuous
 62
     7
100
AcDbLine
 10
-5.08230771910955
 20
88.15451406687691
 30
0.0
 11
81.04651830219653
 21
88.15451406687691
 31
0.0
  0
LINE
  5
E5
330
46
100
AcDbEntity
  8
1
  6
Continuous
 62
     7
100
AcDbLine
 10
-5.42233143788265
 20
77.66589363286111
 30
0.0
 11
75.38654202096963
 21
77.66589363286111
 31
0.0
  0
LINE
  5
E6
330
46
100
AcDbEntity
  8
1
  6
Continuous
 62
     7
100
AcDbLine
 10
69.35430847439889
 20
97.86626575781118
 30
0.0
 11
81.04651830219653
 21
97.86626575781118
 31
0.0
  0
LINE
  5
E7
102
{ACAD_REACTORS
330
15D
330
15D
102
}
330
46
100
AcDbEntity
  8
1
  6
Continuous
 62
     7
100
AcDbLine
 10
69.35430847439889
 20
82.85786829623481
 30
0.0
 11
71.81338761791504
 21
83.42559144993298
 31
0.0
  0
LINE
  5
E8
330
46
100
AcDbEntity
  8
1
  6
Continuous
 62
     7
100
AcDbLine
 10
71.81338761791504
 20
83.42559144993298
 30
0.0
 11
81.04651830219653
 21
83.42559144993298
 31
0.0
  0
LINE
  5
E9
330
46
100
AcDbEntity
  8
1
  6
Continuous
 62
     7
100
AcDbLine
 10
-5.89295238724334
 20
98.59649709577526
 30
0.0
 11
68.85716297033032
 21
98.59649709577526
 31
0.0
  0
LINE
  5
EA
330
46
100
AcDbEntity
  8
1
  6
Continuous
 62
     7
100
AcDbLine
 10
45.85716297033033
 20
83.59649709577526
 30
0.0
 11
68.85716297033032
 21
83.59649709577526
 31
0.0
  0
LINE
  5
EB
330
46
100
AcDbEntity
  8
1
  6
Continuous
 62
     7
100
AcDbLine
 10
44.30421058308664
 20
95.6
 30
0.0
 11
67.30421058308663
 21
95.6
 31
0.0
  0
LINE
  5
EC
330
46
100
AcDbEntity
  8
1
  6
Continuous
 62
     7
100
AcDbLine
 10
-6.33999999999964
 20
80.6
 30
0.0
 11
67.30421058308663
 21
80.6
 31
0.0
  0
LINE
  5
ED
330
46
100
AcDbEntity
  8
1
  6
DASH_CENTER
 62
     2
100
AcDbLine
 10
19.9821052915435
 20
104.120227616103
 30
0.0
 11
19.9821052915435
 21
58.0
 31
0.0
  0
LINE
  5
EE
102
{ACAD_REACTORS
330
15D
330
15D
102
}
330
46
100
AcDbEntity
  8
1
  6
Continuous
 62
     7
100
AcDbLine
 10
76.96000000000033
 20
77.66589363286111
 30
0.0
 11
76.96000000000033
 21
76.82161405019758
 31
0.0
  0
LINE
  5
EF
102
{ACAD_REACTORS
330
15D
330
15D
102
}
330
46
100
AcDbEntity
  8
1
  6
Continuous
 62
     7
100
AcDbLine
 10
68.85716297033032
 20
83.59649709577526
 30
0.0
 11
82.26302962818916
 21
87.18858824058785
 31
0.0
  0
LINE
  5
F0
102
{ACAD_REACTORS
330
15D
330
15D
102
}
330
46
100
AcDbEntity
  8
1
  6
Continuous
 62
     7
100
AcDbLine
 10
71.81338761791504
 20
83.42559144993298
 30
0.0
 11
80.25430847439891
 21
85.37433157950345
 31
0.0
  0
LINE
  5
F1
102
{ACAD_REACTORS
330
15D
330
15D
102
}
330
46
100
AcDbEntity
  8
1
  6
Continuous
 62
     7
100
AcDbLine
 10
67.80421058308663
 20
80.90912816666435
 30
0.0
 11
67.80421058308663
 21
80.89999999999999
 31
0.0
  0
LINE
  5
F2
102
{ACAD_REACTORS
330
15D
330
15D
102
}
330
46
100
AcDbEntity
  8
1
  6
Continuous
 62
     7
100
AcDbLine
 10
67.30421058308663
 20
80.6
 30
0.0
 11
67.50421058308663
 21
80.6
 31
0.0
  0
LINE
  5
F3
102
{ACAD_REACTORS
330
15D
330
15D
102
}
330
46
100
AcDbEntity
  8
1
  6
Continuous
 62
     7
100
AcDbLine
 10
67.00421058308663
 20
81.1816825300526
 30
0.0
 11
67.00421058308663
 21
80.89999999999999
 31
0.0
  0
LINE
  5
F4
102
{ACAD_REACTORS
330
15D
330
15D
102
}
330
46
100
AcDbEntity
  8
1
  6
Continuous
 62
     7
100
AcDbLine
 10
67.80421058308663
 20
95.90912816666435
 30
0.0
 11
67.80421058308663
 21
95.89999999999999
 31
0.0
  0
LINE
  5
F5
102
{ACAD_REACTORS
330
15D
330
15D
102
}
330
46
100
AcDbEntity
  8
1
  6
Continuous
 62
     7
100
AcDbLine
 10
69.35430847439889
 20
97.85786829623481
 30
0.0
 11
79.94183294722698
 21
100.3021909197743
 31
0.0
  0
LINE
  5
F6
102
{ACAD_REACTORS
330
15D
330
15D
102
}
330
46
100
AcDbEntity
  8
1
  6
Continuous
 62
     7
100
AcDbLine
 10
67.30421058308663
 20
95.6
 30
0.0
 11
67.50421058308663
 21
95.6
 31
0.0
  0
LINE
  5
F7
102
{ACAD_REACTORS
330
15D
330
15D
102
}
330
46
100
AcDbEntity
  8
1
  6
Continuous
 62
     7
100
AcDbLine
 10
67.00421058308663
 20
96.1816825300526
 30
0.0
 11
67.00421058308663
 21
95.89999999999999
 31
0.0
  0
LINE
  5
F8
102
{ACAD_REACTORS
330
15D
330
15D
102
}
330
46
100
AcDbEntity
  8
1
  6
Continuous
 62
     7
100
AcDbLine
 10
68.85716297033032
 20
98.59649709577526
 30
0.0
 11
81.46138461095715
 21
101.9737881056041
 31
0.0
  0
LINE
  5
F9
102
{ACAD_REACTORS
330
15D
330
15D
102
}
330
46
100
AcDbEntity
  8
1
  6
Continuous
 62
     7
100
AcDbLine
 10
82.70421058308663
 20
83.42559144993298
 30
0.0
 11
82.70421058308663
 21
83.27398089422279
 31
0.0
  0
LINE
  5
FA
102
{ACAD_REACTORS
330
15D
330
15D
102
}
330
46
100
AcDbEntity
  8
1
  6
Continuous
 62
     7
100
AcDbLine
 10
83.00421058308663
 20
97.86626575781118
 30
0.0
 11
83.00421058308663
 21
88.15451406687691
 31
0.0
  0
LINE
  5
FB
102
{ACAD_REACTORS
330
15D
330
15D
102
}
330
46
100
AcDbEntity
  8
1
  6
Continuous
 62
     7
100
AcDbLine
 10
81.69802820806366
 20
81.53837537213978
 30
0.0
 11
77.96618237502331
 21
79.40149915494412
 31
0.0
  0
LINE
  5
FC
102
{ACAD_REACTORS
330
15D
330
15D
102
}
330
46
100
AcDbEntity
  8
1
  6
Continuous
 62
     7
100
AcDbLine
 10
85.00421058308663
 20
80.0
 30
0.0
 11
79.96000000000033
 21
77.08772366200597
 31
0.0
  0
LINE
  5
FD
102
{ACAD_REACTORS
330
15D
330
15D
102
}
330
46
100
AcDbEntity
  8
1
  6
Continuous
 62
     7
100
AcDbLine
 10
85.00421058308663
 20
98.0
 30
0.0
 11
85.00421058308663
 21
80.0
 31
0.0
  0
LINE
  5
FE
102
{ACAD_REACTORS
330
15C
330
15C
102
}
330
46
100
AcDbEntity
  8
1
  6
Continuous
 62
     7
100
AcDbLine
 10
-42.29881904510218
 20
87.18858824058785
 30
0.0
 11
-28.89295238724336
 21
83.59649709577526
 31
0.0
  0
LINE
  5
FF
102
{ACAD_REACTORS
330
15C
330
15C
102
}
330
46
100
AcDbEntity
  8
1
  6
Continuous
 62
     7
100
AcDbLine
 10
-40.29009789131193
 20
85.37433157950345
 30
0.0
 11
-29.39009789131193
 21
82.85786829623481
 31
0.0
  0
LINE
  5
100
102
{ACAD_REACTORS
330
15C
330
15C
102
}
330
46
100
AcDbEntity
  8
1
  6
Continuous
 62
     7
100
AcDbLine
 10
-27.83999999999966
 20
80.89999999999999
 30
0.0
 11
-27.83999999999966
 21
80.90912816666435
 31
0.0
  0
LINE
  5
101
102
{ACAD_REACTORS
330
15C
330
15C
102
}
330
46
100
AcDbEntity
  8
1
  6
Continuous
 62
     7
100
AcDbLine
 10
-27.53999999999966
 20
80.6
 30
0.0
 11
-27.33999999999966
 21
80.6
 31
0.0
  0
LINE
  5
102
102
{ACAD_REACTORS
330
15C
330
15C
102
}
330
46
100
AcDbEntity
  8
1
  6
Continuous
 62
     7
100
AcDbLine
 10
-27.03999999999966
 20
80.89999999999999
 30
0.0
 11
-27.03999999999966
 21
81.1816825300526
 31
0.0
  0
LINE
  5
103
102
{ACAD_REACTORS
330
15C
330
15C
102
}
330
46
100
AcDbEntity
  8
1
  6
Continuous
 62
     7
100
AcDbLine
 10
-27.83999999999966
 20
95.89999999999999
 30
0.0
 11
-27.83999999999966
 21
95.90912816666435
 31
0.0
  0
LINE
  5
104
102
{ACAD_REACTORS
330
15C
330
15C
102
}
330
46
100
AcDbEntity
  8
1
  6
Continuous
 62
     7
100
AcDbLine
 10
-39.97762236414
 20
100.3021909197743
 30
0.0
 11
-29.39009789131193
 21
97.85786829623481
 31
0.0
  0
LINE
  5
105
102
{ACAD_REACTORS
330
15C
330
15C
102
}
330
46
100
AcDbEntity
  8
1
  6
Continuous
 62
     7
100
AcDbLine
 10
-27.53999999999966
 20
95.6
 30
0.0
 11
-27.33999999999966
 21
95.6
 31
0.0
  0
LINE
  5
106
102
{ACAD_REACTORS
330
15C
330
15C
102
}
330
46
100
AcDbEntity
  8
1
  6
Continuous
 62
     7
100
AcDbLine
 10
-27.03999999999966
 20
95.89999999999999
 30
0.0
 11
-27.03999999999966
 21
96.1816825300526
 31
0.0
  0
LINE
  5
107
102
{ACAD_REACTORS
330
15C
330
15C
102
}
330
46
100
AcDbEntity
  8
1
  6
Continuous
 62
     7
100
AcDbLine
 10
-41.49717402787018
 20
101.9737881056041
 30
0.0
 11
-28.89295238724336
 21
98.59649709577526
 31
0.0
  0
LINE
  5
108
102
{ACAD_REACTORS
330
15C
330
15C
102
}
330
46
100
AcDbEntity
  8
1
  6
Continuous
 62
     7
100
AcDbLine
 10
-42.73999999999966
 20
83.27398089422279
 30
0.0
 11
-42.73999999999966
 21
83.42559144993298
 31
0.0
  0
LINE
  5
109
102
{ACAD_REACTORS
330
15C
330
15C
102
}
330
46
100
AcDbEntity
  8
1
  6
Continuous
 62
     7
100
AcDbLine
 10
-43.03999999999966
 20
88.15451406687691
 30
0.0
 11
-43.03999999999966
 21
97.86626575781118
 31
0.0
  0
LINE
  5
10A
330
46
100
AcDbEntity
  8
1
  6
Continuous
 62
     7
100
AcDbLine
 10
-40.53999999999966
 20
68.70000000000005
 30
0.0
 11
78.16000000000095
 21
68.70000000000005
 31
0.0
  0
LINE
  5
10B
102
{ACAD_REACTORS
330
15D
330
15D
102
}
330
46
100
AcDbEntity
  8
1
  6
Continuous
 62
     7
100
AcDbLine
 10
76.96000000000033
 20
69.90000000000005
 30
0.0
 11
76.96000000000033
 21
76.82161405019758
 31
0.0
  0
LINE
  5
10C
102
{ACAD_REACTORS
330
15C
330
15C
102
}
330
46
100
AcDbEntity
  8
1
  6
Continuous
 62
     7
100
AcDbLine
 10
-48.08647837041671
 20
68.70000000000005
 30
0.0
 11
-40.53999999999966
 21
68.70000000000005
 31
0.0
  0
LINE
  5
10D
102
{ACAD_REACTORS
330
15C
330
15C
102
}
330
46
100
AcDbEntity
  8
1
  6
Continuous
 62
     7
100
AcDbLine
 10
-37.03999999999966
 20
72.20000000000005
 30
0.0
 11
-37.03999999999966
 21
77.69120886499344
 31
0.0
  0
LINE
  5
10E
102
{ACAD_REACTORS
330
15C
330
15C
102
}
330
46
100
AcDbEntity
  8
1
  6
Continuous
 62
     7
100
AcDbLine
 10
-38.04618237502263
 20
79.42681438707645
 30
0.0
 11
-41.7338176249767
 21
81.53837537213978
 31
0.0
  0
LINE
  5
10F
102
{ACAD_REACTORS
330
15D
330
15D
102
}
330
46
100
AcDbEntity
  8
1
  6
Continuous
 62
     7
100
AcDbLine
 10
81.96000000000033
 20
71.70000000000005
 30
0.0
 11
83.96000000000026
 21
71.70000000000005
 31
0.0
  0
LINE
  5
110
102
{ACAD_REACTORS
330
15D
330
15D
102
}
330
46
100
AcDbEntity
  8
1
  6
Continuous
 62
     7
100
AcDbLine
 10
85.96000000000026
 20
69.69999999999929
 30
0.0
 11
85.95999999999988
 21
68.70000000000005
 31
0.0
  0
LINE
  5
111
102
{ACAD_REACTORS
330
15D
330
15D
102
}
330
46
100
AcDbEntity
  8
1
  6
Continuous
 62
     7
100
AcDbLine
 10
79.96000000000033
 20
77.08772366200597
 30
0.0
 11
79.96000000000033
 21
73.70000000000005
 31
0.0
  0
LINE
  5
112
102
{ACAD_REACTORS
330
15C
330
15C
102
}
330
46
100
AcDbEntity
  8
1
  6
Continuous
 62
     7
100
AcDbLine
 10
-64.03999999999955
 20
71.70000000000005
 30
0.0
 11
-42.03999999999966
 21
71.70000000000005
 31
0.0
  0
LINE
  5
113
102
{ACAD_REACTORS
330
15C
330
15C
102
}
330
46
100
AcDbEntity
  8
1
  6
Continuous
 62
     7
100
AcDbLine
 10
-40.03999999999966
 20
73.70000000000005
 30
0.0
 11
-40.03999999999966
 21
77.11324865405187
 31
0.0
  0
LINE
  5
114
102
{ACAD_REACTORS
330
15C
330
15C
102
}
330
46
100
AcDbEntity
  8
1
  6
Continuous
 62
     7
100
AcDbLine
 10
-40.03999999999966
 20
77.11324865405187
 30
0.0
 11
-45.03999999999966
 21
80.0
 31
0.0
  0
LINE
  5
115
102
{ACAD_REACTORS
330
15C
330
15C
102
}
330
46
100
AcDbEntity
  8
1
  6
Continuous
 62
     7
100
AcDbLine
 10
-45.03999999999966
 20
80.0
 30
0.0
 11
-45.03999999999966
 21
98.0
 31
0.0
  0
LINE
  5
116
330
46
100
AcDbEntity
  8
1
  6
Continuous
 62
     7
100
AcDbLine
 10
-41.03999999999966
 20
102.0
 30
0.0
 11
80.96000000000033
 21
102.0
 31
0.0
  0
LINE
  5
117
102
{ACAD_REACTORS
330
15C
330
15C
102
}
330
46
100
AcDbEntity
  8
1
  6
Continuous
 62
     7
100
AcDbLine
 10
-62.78533086532551
 20
58.91825879545308
 30
0.0
 11
-62.88759359031978
 21
58.89377873784019
 31
0.0
  0
LINE
  5
118
102
{ACAD_REACTORS
330
15C
330
15C
102
}
330
46
100
AcDbEntity
  8
1
  6
Continuous
 62
     7
100
AcDbLine
 10
-61.03999999959107
 20
59.71647468678407
 30
0.0
 11
-63.72995504866405
 21
60.21647468686001
 31
0.0
  0
LINE
  5
119
102
{ACAD_REACTORS
330
15D
330
15D
102
}
330
46
100
AcDbEntity
  8
1
  6
Continuous
 62
     7
100
AcDbLine
 10
82.8075935903209
 20
58.89377873784019
 30
0.0
 11
82.70533086532596
 21
58.91825879545308
 31
0.0
  0
LINE
  5
11A
102
{ACAD_REACTORS
330
15D
330
15D
102
}
330
46
100
AcDbEntity
  8
1
  6
Continuous
 62
     7
100
AcDbLine
 10
83.64995504866506
 20
60.21647468686001
 30
0.0
 11
80.95999999959209
 21
59.71647468678407
 31
0.0
  0
LINE
  5
11B
330
46
100
AcDbEntity
  8
1
  6
Continuous
 62
     7
100
AcDbLine
 10
4.96
 20
68.70000000000005
 30
0.0
 11
4.50534688342903
 21
60.15069861829511
 31
0.0
  0
LINE
  5
11C
330
46
100
AcDbEntity
  8
1
  6
Continuous
 62
     7
100
AcDbLine
 10
-49.73070432591616
 20
59.19825588602998
 30
0.0
 11
3.50647837041705
 21
59.19825588602998
 31
0.0
  0
LINE
  5
11D
102
{ACAD_REACTORS
330
15C
330
15C
102
}
330
46
100
AcDbEntity
  8
1
  6
Continuous
 62
     7
100
AcDbLine
 10
-49.08534688342812
 20
67.74755726773401
 30
0.0
 11
-49.53093062331383
 21
59.38874443248301
 31
0.0
  0
LINE
  5
11E
102
{ACAD_REACTORS
330
15C
330
15C
102
}
330
46
100
AcDbEntity
  8
1
  6
Continuous
 62
     7
100
AcDbLine
 10
-50.34929567408293
 20
59.19825588602998
 30
0.0
 11
-49.73070432591616
 21
59.19825588602998
 31
0.0
  0
LINE
  5
11F
102
{ACAD_REACTORS
330
15C
330
15C
102
}
330
46
100
AcDbEntity
  8
1
  6
Continuous
 62
     7
100
AcDbLine
 10
-50.99465311657097
 20
67.74755726773401
 30
0.0
 11
-50.54906937668526
 21
59.38874443248301
 31
0.0
  0
LINE
  5
120
102
{ACAD_REACTORS
330
15C
330
15C
102
}
330
46
100
AcDbEntity
  8
1
  6
Continuous
 62
     7
100
AcDbLine
 10
-57.23999999999959
 20
68.70000000000005
 30
0.0
 11
-51.99352162958238
 21
68.70000000000005
 31
0.0
  0
LINE
  5
121
102
{ACAD_REACTORS
330
15C
330
15C
102
}
330
46
100
AcDbEntity
  8
1
  6
Continuous
 62
     7
100
AcDbLine
 10
-66.03999999999955
 20
68.70000000000005
 30
0.0
 11
-66.03999999999955
 21
69.70000000000005
 31
0.0
  0
LINE
  5
122
102
{ACAD_REACTORS
330
15C
330
15C
102
}
330
46
100
AcDbEntity
  8
1
  6
Continuous
 62
     7
100
AcDbLine
 10
-66.03999999999955
 20
68.70000000000005
 30
0.0
 11
-64.45715728752502
 21
68.70000000000005
 31
0.0
  0
LINE
  5
123
102
{ACAD_REACTORS
330
15C
330
15C
102
}
330
46
100
AcDbEntity
  8
1
  6
Continuous
 62
     7
100
AcDbLine
 10
-61.8399999999995
 20
66.08284271247408
 30
0.0
 11
-64.45715728752502
 21
68.70000000000005
 31
0.0
  0
LINE
  5
124
102
{ACAD_REACTORS
330
15C
330
15C
102
}
330
46
100
AcDbEntity
  8
1
  6
Continuous
 62
     7
100
AcDbLine
 10
-63.7264758510344
 20
61.79537260574807
 30
0.0
 11
-61.8399999999995
 21
62.88452994616205
 31
0.0
  0
LINE
  5
125
102
{ACAD_REACTORS
330
15C
330
15C
102
}
330
46
100
AcDbEntity
  8
1
  6
Continuous
 62
     7
100
AcDbLine
 10
-61.8399999999995
 20
62.88452994616205
 30
0.0
 11
-61.8399999999995
 21
66.08284271247408
 31
0.0
  0
LINE
  5
126
102
{ACAD_REACTORS
330
15C
330
15C
102
}
330
46
100
AcDbEntity
  8
1
  6
Continuous
 62
     7
100
AcDbLine
 10
-58.23999999999959
 20
60.90115628413014
 30
0.0
 11
-58.23999999999959
 21
67.70000000000005
 31
0.0
  0
LINE
  5
127
102
{ACAD_REACTORS
330
15D
330
15D
102
}
330
46
100
AcDbEntity
  8
1
  6
Continuous
 62
     7
100
AcDbLine
 10
78.16000000000095
 20
68.70000000000005
 30
0.0
 11
78.16000000000095
 21
60.90115628413014
 31
0.0
  0
LINE
  5
128
102
{ACAD_REACTORS
330
15D
330
15D
102
}
330
46
100
AcDbEntity
  8
1
  6
Continuous
 62
     7
100
AcDbLine
 10
81.75999999999983
 20
62.88452994616205
 30
0.0
 11
83.64647585103508
 21
61.79537260574807
 31
0.0
  0
LINE
  5
129
102
{ACAD_REACTORS
330
15D
330
15D
102
}
330
46
100
AcDbEntity
  8
1
  6
Continuous
 62
     7
100
AcDbLine
 10
81.75999999999983
 20
66.08284271247408
 30
0.0
 11
81.75999999999983
 21
62.88452994616205
 31
0.0
  0
LINE
  5
12A
102
{ACAD_REACTORS
330
15D
330
15D
102
}
330
46
100
AcDbEntity
  8
1
  6
Continuous
 62
     7
100
AcDbLine
 10
84.37715728752535
 20
68.70000000000005
 30
0.0
 11
81.75999999999983
 21
66.08284271247408
 31
0.0
  0
LINE
  5
12B
102
{ACAD_REACTORS
330
15D
330
15D
102
}
330
46
100
AcDbEntity
  8
1
  6
Continuous
 62
     7
100
AcDbLine
 10
84.37715728752535
 20
68.70000000000005
 30
0.0
 11
85.95999999999988
 21
68.70000000000005
 31
0.0
  0
ARC
  5
12C
102
{ACAD_REACTORS
330
15C
330
15C
102
}
330
46
100
AcDbEntity
  8
1
  6
Continuous
 62
     7
100
AcDbCircle
 10
-62.2601856105155
 20
60.07723346366311
 30
0.0
 40
1.272399237740276
100
AcDbArc
 50
245.6241524281252
 51
343.5292153767919
  0
ARC
  5
12D
102
{ACAD_REACTORS
330
15D
330
15D
102
}
330
46
100
AcDbEntity
  8
1
  6
Continuous
 62
     7
100
AcDbCircle
 10
80.96
 20
61.0
 30
0.0
 40
2.801744113969299
100
AcDbArc
 50
182.0217774973586
 51
311.2574895075046
  0
ARC
  5
12E
102
{ACAD_REACTORS
330
15D
330
15D
102
}
330
46
100
AcDbEntity
  8
1
  6
Continuous
 62
     7
100
AcDbCircle
 10
82.18018561051584
 20
60.07723346366311
 30
0.0
 40
1.272399237739723
100
AcDbArc
 50
196.4707846232167
 51
294.3758475718794
  0
ARC
  5
12F
102
{ACAD_REACTORS
330
15C
330
15C
102
}
330
46
100
AcDbEntity
  8
1
  6
Continuous
 62
     7
100
AcDbCircle
 10
-61.03999999999955
 20
61.0
 30
0.0
 40
2.80174411397042
100
AcDbArc
 50
163.5077999296935
 51
196.2396910065486
  0
ARC
  5
130
102
{ACAD_REACTORS
330
15C
330
15C
102
}
330
46
100
AcDbEntity
  8
1
  6
Continuous
 62
     7
100
AcDbCircle
 10
-61.03999999999955
 20
61.0
 30
0.0
 40
2.801744113970167
100
AcDbArc
 50
228.7425104925059
 51
357.9782225026421
  0
ARC
  5
131
102
{ACAD_REACTORS
330
15D
330
15D
102
}
330
46
100
AcDbEntity
  8
1
  6
Continuous
 62
     7
100
AcDbCircle
 10
80.96
 20
61.0
 30
0.0
 40
2.801744113970763
100
AcDbArc
 50
343.7603089934546
 51
16.49220007030515
  0
ARC
  5
132
102
{ACAD_REACTORS
330
15D
330
15D
102
}
330
46
100
AcDbEntity
  8
1
  6
Continuous
 62
     7
100
AcDbCircle
 10
78.16000000000034
 20
69.90000000000005
 30
0.0
 40
1.200000000000003
100
AcDbArc
 50
180.0
 51
270.0000000000292
  0
ARC
  5
133
102
{ACAD_REACTORS
330
15C
330
15C
102
}
330
46
100
AcDbEntity
  8
1
  6
Continuous
 62
     7
100
AcDbCircle
 10
-29.53999999999966
 20
81.1816825300526
 30
0.0
 40
2.5
100
AcDbArc
 50
0.0
 51
74.99999999999994
  0
ARC
  5
134
102
{ACAD_REACTORS
330
15C
330
15C
102
}
330
46
100
AcDbEntity
  8
1
  6
Continuous
 62
     7
100
AcDbCircle
 10
-42.03999999999966
 20
88.15451406687691
 30
0.0
 40
1.0
100
AcDbArc
 50
180.0
 51
255.0
  0
ARC
  5
135
102
{ACAD_REACTORS
330
15D
330
15D
102
}
330
46
100
AcDbEntity
  8
1
  6
Continuous
 62
     7
100
AcDbCircle
 10
82.00421058308663
 20
88.15451406687691
 30
0.0
 40
0.9999999999999993
100
AcDbArc
 50
285.0000000000004
 51
0.0
  0
ARC
  5
136
102
{ACAD_REACTORS
330
15D
330
15D
102
}
330
46
100
AcDbEntity
  8
1
  6
Continuous
 62
     7
100
AcDbCircle
 10
78.96000000000033
 20
77.66589363286111
 30
0.0
 40
2.0
100
AcDbArc
 50
119.7956985426492
 51
180.0
  0
ARC
  5
137
102
{ACAD_REACTORS
330
15D
330
15D
102
}
330
46
100
AcDbEntity
  8
1
  6
Continuous
 62
     7
100
AcDbCircle
 10
80.70421058308663
 20
83.27398089422279
 30
0.0
 40
2.0
100
AcDbArc
 50
299.7956985426493
 51
0.0
  0
ARC
  5
138
102
{ACAD_REACTORS
330
15D
330
15D
102
}
330
46
100
AcDbEntity
  8
1
  6
Continuous
 62
     7
100
AcDbCircle
 10
80.70421058308663
 20
83.42559144993298
 30
0.0
 40
2.0
100
AcDbArc
 50
0.0
 51
102.9999999999998
  0
ARC
  5
139
102
{ACAD_REACTORS
330
15D
330
15D
102
}
330
46
100
AcDbEntity
  8
1
  6
Continuous
 62
     7
100
AcDbCircle
 10
67.50421058308663
 20
80.89999999999999
 30
0.0
 40
0.2999999999999972
100
AcDbArc
 50
270.0
 51
0.0
  0
ARC
  5
13A
102
{ACAD_REACTORS
330
15D
330
15D
102
}
330
46
100
AcDbEntity
  8
1
  6
Continuous
 62
     7
100
AcDbCircle
 10
67.30421058308663
 20
80.89999999999999
 30
0.0
 40
0.2999999999999972
100
AcDbArc
 50
180.0
 51
270.0
  0
ARC
  5
13B
102
{ACAD_REACTORS
330
15D
330
15D
102
}
330
46
100
AcDbEntity
  8
1
  6
Continuous
 62
     7
100
AcDbCircle
 10
69.80421058308663
 20
80.90912816666435
 30
0.0
 40
1.999999999999998
100
AcDbArc
 50
103.0000000000002
 51
180.0
  0
ARC
  5
13C
102
{ACAD_REACTORS
330
15D
330
15D
102
}
330
46
100
AcDbEntity
  8
1
  6
Continuous
 62
     7
100
AcDbCircle
 10
69.50421058308663
 20
81.1816825300526
 30
0.0
 40
2.499999999999996
100
AcDbArc
 50
105.0000000000002
 51
180.0
  0
ARC
  5
13D
102
{ACAD_REACTORS
330
15D
330
15D
102
}
330
46
100
AcDbEntity
  8
1
  6
Continuous
 62
     7
100
AcDbCircle
 10
67.50421058308663
 20
95.89999999999999
 30
0.0
 40
0.2999999999999972
100
AcDbArc
 50
270.0
 51
0.0
  0
ARC
  5
13E
102
{ACAD_REACTORS
330
15D
330
15D
102
}
330
46
100
AcDbEntity
  8
1
  6
Continuous
 62
     7
100
AcDbCircle
 10
67.30421058308663
 20
95.89999999999999
 30
0.0
 40
0.2999999999999972
100
AcDbArc
 50
180.0
 51
270.0
  0
ARC
  5
13F
102
{ACAD_REACTORS
330
15D
330
15D
102
}
330
46
100
AcDbEntity
  8
1
  6
Continuous
 62
     7
100
AcDbCircle
 10
69.80421058308663
 20
95.90912816666435
 30
0.0
 40
1.999999999999998
100
AcDbArc
 50
103.0000000000002
 51
180.0
  0
ARC
  5
140
102
{ACAD_REACTORS
330
15D
330
15D
102
}
330
46
100
AcDbEntity
  8
1
  6
Continuous
 62
     7
100
AcDbCircle
 10
69.50421058308663
 20
96.1816825300526
 30
0.0
 40
2.499999999999996
100
AcDbArc
 50
105.0000000000002
 51
180.0
  0
ARC
  5
141
102
{ACAD_REACTORS
330
15D
330
15D
102
}
330
46
100
AcDbEntity
  8
1
  6
Continuous
 62
     7
100
AcDbCircle
 10
80.50421058308663
 20
97.86626575781118
 30
0.0
 40
2.5
100
AcDbArc
 50
0.0
 51
102.9999999999995
  0
ARC
  5
142
102
{ACAD_REACTORS
330
15D
330
15D
102
}
330
46
100
AcDbEntity
  8
1
  6
Continuous
 62
     7
100
AcDbCircle
 10
81.00421058308663
 20
98.0
 30
0.0
 40
4.0
100
AcDbArc
 50
0.0
 51
83.43712269866177
  0
ARC
  5
143
330
46
100
AcDbEntity
  8
1
  6
Continuous
 62
     7
100
AcDbCircle
 10
81.00421058308663
 20
98.0
 30
0.0
 40
3.999999999999998
100
AcDbArc
 50
83.43712269866177
 51
90.0
  0
ARC
  5
144
102
{ACAD_REACTORS
330
15C
330
15C
102
}
330
46
100
AcDbEntity
  8
1
  6
Continuous
 62
     7
100
AcDbCircle
 10
-39.03999999999966
 20
77.69120886499344
 30
0.0
 40
2.0
100
AcDbArc
 50
0.0
 51
60.20430145735076
  0
ARC
  5
145
102
{ACAD_REACTORS
330
15C
330
15C
102
}
330
46
100
AcDbEntity
  8
1
  6
Continuous
 62
     7
100
AcDbCircle
 10
-40.73999999999966
 20
83.27398089422279
 30
0.0
 40
2.0
100
AcDbArc
 50
180.0
 51
240.2043014573504
  0
ARC
  5
146
102
{ACAD_REACTORS
330
15C
330
15C
102
}
330
46
100
AcDbEntity
  8
1
  6
Continuous
 62
     7
100
AcDbCircle
 10
-40.73999999999966
 20
83.42559144993298
 30
0.0
 40
1.999999999999997
100
AcDbArc
 50
76.99999999999997
 51
180.0
  0
ARC
  5
147
102
{ACAD_REACTORS
330
15C
330
15C
102
}
330
46
100
AcDbEntity
  8
1
  6
Continuous
 62
     7
100
AcDbCircle
 10
-27.53999999999966
 20
80.89999999999999
 30
0.0
 40
0.2999999999999972
100
AcDbArc
 50
180.0
 51
270.0
  0
ARC
  5
148
102
{ACAD_REACTORS
330
15C
330
15C
102
}
330
46
100
AcDbEntity
  8
1
  6
Continuous
 62
     7
100
AcDbCircle
 10
-27.33999999999966
 20
80.89999999999999
 30
0.0
 40
0.2999999999999972
100
AcDbArc
 50
270.0
 51
0.0
  0
ARC
  5
149
102
{ACAD_REACTORS
330
15C
330
15C
102
}
330
46
100
AcDbEntity
  8
1
  6
Continuous
 62
     7
100
AcDbCircle
 10
-29.83999999999966
 20
80.90912816666435
 30
0.0
 40
2.0
100
AcDbArc
 50
0.0
 51
77.00000000000006
  0
ARC
  5
14A
102
{ACAD_REACTORS
330
15C
330
15C
102
}
330
46
100
AcDbEntity
  8
1
  6
Continuous
 62
     7
100
AcDbCircle
 10
-27.53999999999966
 20
95.89999999999999
 30
0.0
 40
0.2999999999999972
100
AcDbArc
 50
180.0
 51
270.0
  0
ARC
  5
14B
102
{ACAD_REACTORS
330
15C
330
15C
102
}
330
46
100
AcDbEntity
  8
1
  6
Continuous
 62
     7
100
AcDbCircle
 10
-27.33999999999966
 20
95.89999999999999
 30
0.0
 40
0.2999999999999972
100
AcDbArc
 50
270.0
 51
0.0
  0
ARC
  5
14C
102
{ACAD_REACTORS
330
15C
330
15C
102
}
330
46
100
AcDbEntity
  8
1
  6
Continuous
 62
     7
100
AcDbCircle
 10
-29.83999999999966
 20
95.90912816666435
 30
0.0
 40
2.0
100
AcDbArc
 50
0.0
 51
77.00000000000006
  0
ARC
  5
14D
102
{ACAD_REACTORS
330
15C
330
15C
102
}
330
46
100
AcDbEntity
  8
1
  6
Continuous
 62
     7
100
AcDbCircle
 10
-29.53999999999966
 20
96.1816825300526
 30
0.0
 40
2.5
100
AcDbArc
 50
0.0
 51
74.99999999999994
  0
ARC
  5
14E
102
{ACAD_REACTORS
330
15C
330
15C
102
}
330
46
100
AcDbEntity
  8
1
  6
Continuous
 62
     7
100
AcDbCircle
 10
-40.53999999999966
 20
97.86626575781118
 30
0.0
 40
2.500000000000037
100
AcDbArc
 50
77.00000000000023
 51
180.0
  0
ARC
  5
14F
102
{ACAD_REACTORS
330
15C
330
15C
102
}
330
46
100
AcDbEntity
  8
1
  6
Continuous
 62
     7
100
AcDbCircle
 10
-41.03999999999966
 20
98.0
 30
0.0
 40
3.999999999999998
100
AcDbArc
 50
96.56287730133823
 51
180.0
  0
ARC
  5
150
102
{ACAD_REACTORS
330
15C
330
15C
102
}
330
46
100
AcDbEntity
  8
1
  6
Continuous
 62
     7
100
AcDbCircle
 10
-40.53999999999966
 20
72.20000000000005
 30
0.0
 40
3.5
100
AcDbArc
 50
270.0
 51
0.0
  0
ARC
  5
151
330
46
100
AcDbEntity
  8
1
  6
Continuous
 62
     7
100
AcDbCircle
 10
-41.03999999999966
 20
98.0
 30
0.0
 40
4.0
100
AcDbArc
 50
90.0
 51
96.56287730133823
  0
ARC
  5
152
102
{ACAD_REACTORS
330
15C
330
15C
102
}
330
46
100
AcDbEntity
  8
1
  6
Continuous
 62
     7
100
AcDbCircle
 10
-64.03999999999955
 20
69.70000000000005
 30
0.0
 40
2.0
100
AcDbArc
 50
90.0
 51
180.0
  0
ARC
  5
153
102
{ACAD_REACTORS
330
15D
330
15D
102
}
330
46
100
AcDbEntity
  8
1
  6
Continuous
 62
     7
100
AcDbCircle
 10
83.96000000000026
 20
69.70000000000005
 30
0.0
 40
2.0
100
AcDbArc
 50
359.9999999999784
 51
90.0
  0
ARC
  5
154
102
{ACAD_REACTORS
330
15D
330
15D
102
}
330
46
100
AcDbEntity
  8
1
  6
Continuous
 62
     7
100
AcDbCircle
 10
81.96000000000033
 20
73.70000000000005
 30
0.0
 40
2.0
100
AcDbArc
 50
180.0
 51
270.0
  0
ARC
  5
155
102
{ACAD_REACTORS
330
15C
330
15C
102
}
330
46
100
AcDbEntity
  8
1
  6
Continuous
 62
     7
100
AcDbCircle
 10
-42.03999999999966
 20
73.70000000000005
 30
0.0
 40
2.0
100
AcDbArc
 50
270.0
 51
0.0
  0
ARC
  5
156
102
{ACAD_REACTORS
330
15C
330
15C
102
}
330
46
100
AcDbEntity
  8
1
  6
Continuous
 62
     7
100
AcDbCircle
 10
-48.08647837041671
 20
67.70000000000005
 30
0.0
 40
1.0
100
AcDbArc
 50
90.0
 51
177.2741411048069
  0
ARC
  5
157
102
{ACAD_REACTORS
330
15C
330
15C
102
}
330
46
100
AcDbEntity
  8
1
  6
Continuous
 62
     7
100
AcDbCircle
 10
-51.99352162958238
 20
67.70000000000005
 30
0.0
 40
0.9999999999999718
100
AcDbArc
 50
2.72585889519313
 51
90.0
  0
ARC
  5
158
102
{ACAD_REACTORS
330
15C
330
15C
102
}
330
46
100
AcDbEntity
  8
1
  6
Continuous
 62
     7
100
AcDbCircle
 10
-57.23999999999959
 20
67.70000000000005
 30
0.0
 40
1.0
100
AcDbArc
 50
90.0
 51
180.0
  0
ARC
  5
159
330
46
100
AcDbEntity
  8
1
  6
Continuous
 62
     7
100
AcDbCircle
 10
3.50647837041705
 20
60.19825588602998
 30
0.0
 40
1.0
100
AcDbArc
 50
270.0
 51
357.2741411047564
  0
ARC
  5
15A
102
{ACAD_REACTORS
330
15C
330
15C
102
}
330
46
100
AcDbEntity
  8
1
  6
Continuous
 62
     7
100
AcDbCircle
 10
-49.73070432591616
 20
59.39825588603003
 30
0.0
 40
0.2000000000000455
100
AcDbArc
 50
270.0
 51
357.2741411047425
  0
ARC
  5
15B
102
{ACAD_REACTORS
330
15C
330
15C
102
}
330
46
100
AcDbEntity
  8
1
  6
Continuous
 62
     7
100
AcDbCircle
 10
-50.34929567408293
 20
59.39825588603003
 30
0.0
 40
0.200000000000052
100
AcDbArc
 50
182.7258588952575
 51
270.0
  0
HATCH
  5
15C
330
46
100
AcDbEntity
  8
1
  6
Continuous
 62
     3
100
AcDbHatch
 10
0.0
 20
0.0
 30
0.0
210
0.0
220
0.0
230
1.0
  2
_USER
 70
     0
 71
     1
 91
        1
 92
        1
 93
       56
 72
     2
 10
-42.03999999999966
 20
73.70000000000005
 40
2.0
 50
270.0
 51
360.0
 73
     1
 72
     1
 10
-40.03999999999966
 20
73.70000000000005
 11
-40.03999999999966
 21
77.11324865405187
 72
     1
 10
-40.03999999999966
 20
77.11324865405187
 11
-45.03999999999966
 21
80.0
 72
     1
 10
-45.03999999999966
 20
80.0
 11
-45.03999999999966
 21
98.0
 72
     2
 10
-41.03999999999966
 20
98.0
 40
3.999999999999998
 50
180.0
 51
263.4371226986618
 73
     0
 72
     1
 10
-41.49717402787018
 20
101.9737881056041
 11
-28.89295238724336
 21
98.59649709577526
 72
     2
 10
-29.53999999999966
 20
96.1816825300526
 40
2.5
 50
285.0000000000001
 51
360.0
 73
     0
 72
     1
 10
-27.03999999999966
 20
96.1816825300526
 11
-27.03999999999966
 21
95.89999999999999
 72
     2
 10
-27.33999999999966
 20
95.89999999999999
 40
0.2999999999999972
 50
0.0
 51
90.0
 73
     0
 72
     1
 10
-27.33999999999966
 20
95.6
 11
-27.53999999999966
 21
95.6
 72
     2
 10
-27.53999999999966
 20
95.89999999999999
 40
0.2999999999999972
 50
90.0
 51
180.0
 73
     0
 72
     1
 10
-27.83999999999966
 20
95.89999999999999
 11
-27.83999999999966
 21
95.90912816666435
 72
     2
 10
-29.83999999999966
 20
95.90912816666435
 40
2.0
 50
0.0
 51
77.00000000000006
 73
     1
 72
     1
 10
-29.39009789131193
 20
97.85786829623481
 11
-39.97762236414
 21
100.3021909197743
 72
     2
 10
-40.53999999999966
 20
97.86626575781118
 40
2.500000000000037
 50
77.00000000000023
 51
180.0
 73
     1
 72
     1
 10
-43.03999999999966
 20
97.86626575781118
 11
-43.03999999999966
 21
88.15451406687691
 72
     2
 10
-42.03999999999966
 20
88.15451406687691
 40
1.0
 50
180.0
 51
255.0
 73
     1
 72
     1
 10
-42.29881904510218
 20
87.18858824058785
 11
-28.89295238724336
 21
83.59649709577526
 72
     2
 10
-29.53999999999966
 20
81.1816825300526
 40
2.5
 50
285.0000000000001
 51
360.0
 73
     0
 72
     1
 10
-27.03999999999966
 20
81.1816825300526
 11
-27.03999999999966
 21
80.89999999999999
 72
     2
 10
-27.33999999999966
 20
80.89999999999999
 40
0.2999999999999972
 50
0.0
 51
90.0
 73
     0
 72
     1
 10
-27.33999999999966
 20
80.6
 11
-27.53999999999966
 21
80.6
 72
     2
 10
-27.53999999999966
 20
80.89999999999999
 40
0.2999999999999972
 50
90.0
 51
180.0
 73
     0
 72
     1
 10
-27.83999999999966
 20
80.89999999999999
 11
-27.83999999999966
 21
80.90912816666435
 72
     2
 10
-29.83999999999966
 20
80.90912816666435
 40
2.0
 50
0.0
 51
77.00000000000006
 73
     1
 72
     1
 10
-29.39009789131193
 20
82.85786829623481
 11
-40.29009789131193
 21
85.37433157950345
 72
     2
 10
-40.73999999999966
 20
83.42559144993298
 40
1.999999999999997
 50
76.99999999999997
 51
180.0
 73
     1
 72
     1
 10
-42.73999999999966
 20
83.42559144993298
 11
-42.73999999999966
 21
83.27398089422279
 72
     2
 10
-40.73999999999966
 20
83.27398089422279
 40
2.0
 50
180.0
 51
240.2043014573504
 73
     1
 72
     1
 10
-41.7338176249767
 20
81.53837537213978
 11
-38.04618237502263
 21
79.42681438707645
 72
     2
 10
-39.03999999999966
 20
77.69120886499344
 40
2.0
 50
299.7956985426493
 51
360.0
 73
     0
 72
     1
 10
-37.03999999999966
 20
77.69120886499344
 11
-37.03999999999966
 21
72.20000000000005
 72
     2
 10
-40.53999999999966
 20
72.20000000000005
 40
3.5
 50
0.0
 51
90.0
 73
     0
 72
     1
 10
-40.53999999999966
 20
68.70000000000005
 11
-48.08647837041671
 21
68.70000000000005
 72
     2
 10
-48.08647837041671
 20
67.70000000000005
 40
1.0
 50
90.0
 51
177.2741411048069
 73
     1
 72
     1
 10
-49.08534688342812
 20
67.74755726773401
 11
-49.53093062331383
 21
59.38874443248301
 72
     2
 10
-49.73070432591616
 20
59.39825588603003
 40
0.2000000000000455
 50
2.725858895257536
 51
90.0
 73
     0
 72
     1
 10
-49.73070432591616
 20
59.19825588602998
 11
-50.34929567408293
 21
59.19825588602998
 72
     2
 10
-50.34929567408293
 20
59.39825588603003
 40
0.200000000000052
 50
90.0
 51
177.2741411047425
 73
     0
 72
     1
 10
-50.54906937668526
 20
59.38874443248301
 11
-50.99465311657097
 21
67.74755726773401
 72
     2
 10
-51.99352162958238
 20
67.70000000000005
 40
0.9999999999999718
 50
2.72585889519313
 51
90.0
 73
     1
 72
     1
 10
-51.99352162958238
 20
68.70000000000005
 11
-57.23999999999959
 21
68.70000000000005
 72
     2
 10
-57.23999999999959
 20
67.70000000000005
 40
1.0
 50
90.0
 51
180.0
 73
     1
 72
     1
 10
-58.23999999999959
 20
67.70000000000005
 11
-58.23999999999959
 21
60.90115628413014
 72
     2
 10
-61.03999999999955
 20
61.0
 40
2.801744113970167
 50
2.021777497357895
 51
131.2574895074941
 73
     0
 72
     1
 10
-62.88759359031978
 20
58.89377873784019
 11
-62.78533086532551
 21
58.91825879545308
 72
     2
 10
-62.2601856105155
 20
60.07723346366311
 40
1.272399237740276
 50
245.6241524281252
 51
343.5292153767919
 73
     1
 72
     1
 10
-61.03999999959107
 20
59.71647468678407
 11
-63.72995504866405
 21
60.21647468686001
 72
     2
 10
-61.03999999999955
 20
61.0
 40
2.80174411397042
 50
163.7603089934514
 51
196.4922000703065
 73
     0
 72
     1
 10
-63.7264758510344
 20
61.79537260574807
 11
-61.8399999999995
 21
62.88452994616205
 72
     1
 10
-61.8399999999995
 20
62.88452994616205
 11
-61.8399999999995
 21
66.08284271247408
 72
     1
 10
-61.8399999999995
 20
66.08284271247408
 11
-64.45715728752502
 21
68.70000000000005
 72
     1
 10
-64.45715728752502
 20
68.70000000000005
 11
-66.03999999999955
 21
68.70000000000005
 72
     1
 10
-66.03999999999955
 20
68.70000000000005
 11
-66.03999999999955
 21
69.70000000000005
 72
     2
 10
-64.03999999999955
 20
69.70000000000005
 40
2.0
 50
180.0
 51
270.0
 73
     0
 72
     1
 10
-64.03999999999955
 20
71.70000000000005
 11
-42.03999999999966
 21
71.70000000000005
 97
       56
330
155
330
113
330
114
330
115
330
14F
330
107
330
14D
330
106
330
14B
330
105
330
14A
330
103
330
14C
330
104
330
14E
330
109
330
134
330
FE
330
133
330
102
330
148
330
101
330
147
330
100
330
149
330
FF
330
146
330
108
330
145
330
10E
330
144
330
10D
330
150
330
10C
330
156
330
11D
330
15A
330
11E
330
15B
330
11F
330
157
330
120
330
158
330
126
330
130
330
117
330
12C
330
118
330
12F
330
124
330
125
330
123
330
122
330
121
330
152
330
112
 75
     1
 76
     0
 52
45.0
 41
5.0
 77
     0
 78
     1
 53
45.0
 43
0.0
 44
0.0
 45
-3.535533905932737
 46
3.535533905932738
 79
     0
 98
        1
 10
0.0
 20
0.0
  0
HATCH
  5
15D
330
46
100
AcDbEntity
  8
1
  6
Continuous
 62
     3
100
AcDbHatch
 10
0.0
 20
0.0
 30
0.0
210
0.0
220
0.0
230
1.0
  2
_USER
 70
     0
 71
     1
 91
        1
 92
        1
 93
       48
 72
     1
 10
85.00421058308663
 20
98.0
 11
85.00421058308663
 21
80.0
 72
     1
 10
85.00421058308663
 20
80.0
 11
79.96000000000033
 21
77.08772366200597
 72
     1
 10
79.96000000000033
 20
77.08772366200597
 11
79.96000000000033
 21
73.70000000000005
 72
     2
 10
81.96000000000033
 20
73.70000000000005
 40
2.0
 50
180.0
 51
270.0
 73
     1
 72
     1
 10
81.96000000000033
 20
71.70000000000005
 11
83.96000000000026
 21
71.70000000000005
 72
     2
 10
83.96000000000026
 20
69.70000000000005
 40
2.0
 50
270.0
 51
360.0000000000216
 73
     0
 72
     1
 10
85.96000000000026
 20
69.69999999999929
 11
85.95999999999988
 21
68.70000000000005
 72
     1
 10
85.95999999999988
 20
68.70000000000005
 11
84.37715728752535
 21
68.70000000000005
 72
     1
 10
84.37715728752535
 20
68.70000000000005
 11
81.75999999999983
 21
66.08284271247408
 72
     1
 10
81.75999999999983
 20
66.08284271247408
 11
81.75999999999983
 21
62.88452994616205
 72
     1
 10
81.75999999999983
 20
62.88452994616205
 11
83.64647585103508
 21
61.79537260574807
 72
     2
 10
80.96
 20
61.0
 40
2.801744113970763
 50
343.5077999296948
 51
376.2396910065453
 73
     0
 72
     1
 10
83.64995504866506
 20
60.21647468686001
 11
80.95999999959209
 21
59.71647468678407
 72
     2
 10
82.18018561051584
 20
60.07723346366311
 40
1.272399237739723
 50
196.4707846232167
 51
294.3758475718794
 73
     1
 72
     1
 10
82.70533086532596
 20
58.91825879545308
 11
82.8075935903209
 21
58.89377873784019
 72
     2
 10
80.96
 20
61.0
 40
2.801744113969299
 50
48.74251049249538
 51
177.9782225026414
 73
     0
 72
     1
 10
78.16000000000095
 20
60.90115628413014
 11
78.16000000000095
 21
68.70000000000005
 72
     2
 10
78.16000000000034
 20
69.90000000000005
 40
1.200000000000003
 50
89.99999999997084
 51
180.0
 73
     0
 72
     1
 10
76.96000000000033
 20
69.90000000000005
 11
76.96000000000033
 21
76.82161405019758
 72
     1
 10
76.96000000000033
 20
76.82161405019758
 11
76.96000000000033
 21
77.66589363286111
 72
     2
 10
78.96000000000033
 20
77.66589363286111
 40
2.0
 50
180.0
 51
240.2043014573507
 73
     0
 72
     1
 10
77.96618237502331
 20
79.40149915494412
 11
81.69802820806366
 21
81.53837537213978
 72
     2
 10
80.70421058308663
 20
83.27398089422279
 40
2.0
 50
299.7956985426493
 51
360.0
 73
     1
 72
     1
 10
82.70421058308663
 20
83.27398089422279
 11
82.70421058308663
 21
83.42559144993298
 72
     2
 10
80.70421058308663
 20
83.42559144993298
 40
2.0
 50
0.0
 51
102.9999999999998
 73
     1
 72
     1
 10
80.25430847439891
 20
85.37433157950345
 11
71.81338761791504
 21
83.42559144993298
 72
     1
 10
71.81338761791504
 20
83.42559144993298
 11
69.35430847439889
 21
82.85786829623481
 72
     2
 10
69.80421058308663
 20
80.90912816666435
 40
1.999999999999998
 50
103.0000000000002
 51
180.0
 73
     1
 72
     1
 10
67.80421058308663
 20
80.90912816666435
 11
67.80421058308663
 21
80.89999999999999
 72
     2
 10
67.50421058308663
 20
80.89999999999999
 40
0.2999999999999972
 50
0.0
 51
90.0
 73
     0
 72
     1
 10
67.50421058308663
 20
80.6
 11
67.30421058308663
 21
80.6
 72
     2
 10
67.30421058308663
 20
80.89999999999999
 40
0.2999999999999972
 50
90.0
 51
180.0
 73
     0
 72
     1
 10
67.00421058308663
 20
80.89999999999999
 11
67.00421058308663
 21
81.1816825300526
 72
     2
 10
69.50421058308663
 20
81.1816825300526
 40
2.499999999999996
 50
180.0
 51
254.9999999999998
 73
     0
 72
     1
 10
68.85716297033032
 20
83.59649709577526
 11
82.26302962818916
 21
87.18858824058785
 72
     2
 10
82.00421058308663
 20
88.15451406687691
 40
0.9999999999999993
 50
285.0000000000004
 51
360.0
 73
     1
 72
     1
 10
83.00421058308663
 20
88.15451406687691
 11
83.00421058308663
 21
97.86626575781118
 72
     2
 10
80.50421058308663
 20
97.86626575781118
 40
2.5
 50
0.0
 51
102.9999999999995
 73
     1
 72
     1
 10
79.94183294722698
 20
100.3021909197743
 11
69.35430847439889
 21
97.85786829623481
 72
     2
 10
69.80421058308663
 20
95.90912816666435
 40
1.999999999999998
 50
103.0000000000002
 51
180.0
 73
     1
 72
     1
 10
67.80421058308663
 20
95.90912816666435
 11
67.80421058308663
 21
95.89999999999999
 72
     2
 10
67.50421058308663
 20
95.89999999999999
 40
0.2999999999999972
 50
0.0
 51
90.0
 73
     0
 72
     1
 10
67.50421058308663
 20
95.6
 11
67.30421058308663
 21
95.6
 72
     2
 10
67.30421058308663
 20
95.89999999999999
 40
0.2999999999999972
 50
90.0
 51
180.0
 73
     0
 72
     1
 10
67.00421058308663
 20
95.89999999999999
 11
67.00421058308663
 21
96.1816825300526
 72
     2
 10
69.50421058308663
 20
96.1816825300526
 40
2.499999999999996
 50
180.0
 51
254.9999999999998
 73
     0
 72
     1
 10
68.85716297033032
 20
98.59649709577526
 11
81.46138461095715
 21
101.9737881056041
 72
     2
 10
81.00421058308663
 20
98.0
 40
4.0
 50
276.5628773013382
 51
360.0
 73
     0
 97
       48
330
FD
330
FC
330
111
330
154
330
10F
330
153
330
110
330
12B
330
12A
330
129
330
128
330
131
330
11A
330
12E
330
119
330
12D
330
127
330
132
330
10B
330
EE
330
136
330
FB
330
137
330
F9
330
138
330
F0
330
E7
330
13B
330
F1
330
139
330
F2
330
13A
330
F3
330
13C
330
EF
330
135
330
FA
330
141
330
F5
330
13F
330
F4
330
13D
330
F6
330
13E
330
F7
330
140
330
F8
330
142
 75
     1
 76
     0
 52
45.0
 41
5.0
 77
     0
 78
     1
 53
45.0
 43
0.0
 44
0.0
 45
-3.535533905932737
 46
3.535533905932738
 79
     0
 98
        1
 10
0.0
 20
0.0
  0
ENDBLK
  5
48
330
46
100
AcDbEntity
  8
0
100
AcDbBlockEnd
  0
BLOCK
  5
6E
330
49
100
AcDbEntity
  8
0
100
AcDbBlockBegin
  2
HL_200_Vario
 70
     0
 10
25.35318848229623
 20
65.93540329980854
 30
0.0
  3
HL_200_Vario
  1

  0
INSERT
  5
6C
330
49
100
AcDbEntity
  8
1
100
AcDbBlockReference
  2
HL_200_Rippenseite
 10
10.00000000000017
 20
33.71374129175518
 30
0.0
  0
INSERT
  5
6D
330
49
100
AcDbEntity
  8
1
100
AcDbBlockReference
  2
HL_200_Muffenseite
 10
9.96000000000036
 20
82.5
 30
0.0
  0
DIMENSION
  5
169
330
49
100
AcDbEntity
  8
1
100
AcDbDimension
  2
*D4
 10
-40.01739065500964
 20
-16.0571617309589
 30
0.0
 11
1.05816786772938
 21
-10.5571617309589
 31
0.0
 70
    32
  1
<>
 71
     5
 42
-1.0
 53
0.00013888888889
  3
ME10_DIM_10
100
AcDbAlignedDimension
 13
39.98260934499027
 23
-4.00000000000005
 33
0.0
 14
-40.01739065500963
 24
-4.00000000000005
 34
0.0
 50
-0.00000000000028
100
AcDbRotatedDimension
  0
DIMENSION
  5
175
330
49
100
AcDbEntity
  8
1
100
AcDbDimension
  2
*D5
 10
-0.01739065500934
 20
114.120227616103
 30
0.0
 11
35.155071316928
 21
119.620227616103
 31
0.0
 70
    32
  1
<>
 71
     5
 42
-1.0
 53
0.00013888888889
  3
ME10_DIM_11
100
AcDbAlignedDimension
 13
19.9821052915435
 23
104.120227616103
 33
0.0
 14
-0.01739065500934
 24
71.42748258351041
 34
0.0
 50
-0.00000000000028
100
AcDbRotatedDimension
  0
DIMENSION
  5
180
330
49
100
AcDbEntity
  8
1
100
AcDbDimension
  2
*D6
 10
-65.99999999999966
 20
140.927968330576
 30
0.0
 11
6.88758836601664
 21
146.427968330576
 31
0.0
 70
    32
  1
<>
 71
     5
 42
-1.0
 53
0.00013888888889
  3
ME10_DIM_12
100
AcDbAlignedDimension
 13
86.0
 23
68.5
 33
0.0
 14
-65.99999999999966
 24
68.5
 34
0.0
100
AcDbRotatedDimension
  0
DIMENSION
  5
18B
330
49
100
AcDbEntity
  8
1
100
AcDbDimension
  2
*D7
 10
70.98210529154352
 20
128.179987332951
 30
0.0
 11
30.1339066558029
 21
133.679987332951
 31
0.0
 70
    32
  1
<>
 71
     5
 42
-1.0
 53
0.00013888888889
  3
ME10_DIM_13
100
AcDbAlignedDimension
 13
-31.0178947084565
 23
107.0
 33
0.0
 14
70.98210529154352
 24
107.0
 34
0.0
100
AcDbRotatedDimension
  0
DIMENSION
  5
196
330
49
100
AcDbEntity
  8
1
100
AcDbDimension
  2
*D8
 10
97.4991085560404
 20
0.99999999999995
 30
0.0
 11
91.9991085560404
 21
28.696614411336
 31
0.0
 70
    32
  1
<>
 71
     5
 42
-1.0
 53
89.99999999999972
  3
ME10_DIM_14
100
AcDbAlignedDimension
 13
86.0
 23
55.0
 33
0.0
 14
34.98260934499031
 24
0.99999999999995
 34
0.0
 50
89.99999999999972
100
AcDbRotatedDimension
  0
DIMENSION
  5
1A1
330
49
100
AcDbEntity
  8
1
100
AcDbDimension
  2
*D9
 10
114.746376964592
 20
0.99999999999995
 30
0.0
 11
109.246376964592
 21
53.8176357890082
 31
0.0
 70
    32
  1
<>
 71
     5
 42
-1.0
 53
89.99999999999972
  3
ME10_DIM_15
100
AcDbAlignedDimension
 13
80.96000000000033
 23
102.0
 33
0.0
 14
34.98260934499031
 24
0.99999999999995
 34
0.0
 50
89.99999999999972
100
AcDbRotatedDimension
  0
ENDBLK
  5
6F
330
49
100
AcDbEntity
  8
0
100
AcDbBlockEnd
  0
BLOCK
  5
166
330
15E
100
AcDbEntity
  8
0
100
AcDbBlockBegin
  2
*D4
 70
     1
 10
0.0
 20
0.0
 30
0.0
  3
*D4
  1

  0
LINE
  5
15F
330
15E
100
AcDbEntity
  8
1
  6
Continuous
 62
     4
100
AcDbLine
 10
-40.01739065500964
 20
-16.0571617309589
 30
0.0
 11
39.98260934499027
 21
-16.0571617309589
 31
0.0
  0
LINE
  5
160
330
15E
100
AcDbEntity
  8
1
  6
Continuous
 62
     4
100
AcDbLine
 10
39.98260934499027
 20
-4.00000000000005
 30
0.0
 11
39.98260934499027
 21
-18.0571617309589
 31
0.0
  0
LINE
  5
161
330
15E
100
AcDbEntity
  8
1
  6
Continuous
 62
     4
100
AcDbLine
 10
-40.01739065500964
 20
-4.00000000000005
 30
0.0
 11
-40.01739065500964
 21
-18.0571617309589
 31
0.0
  0
SOLID
  5
162
330
15E
100
AcDbEntity
  8
1
 62
     4
100
AcDbTrace
 10
-33.01739065500964
 20
-15.13559424784713
 30
0.0
 11
-33.01739065500964
 21
-16.97872921407067
 31
0.0
 12
-40.01739065500964
 22
-16.0571617309589
 32
0.0
 13
-40.01739065500964
 23
-16.0571617309589
 33
0.0
  0
SOLID
  5
163
330
15E
100
AcDbEntity
  8
1
 62
     4
100
AcDbTrace
 10
32.98260934499027
 20
-16.97872921407067
 30
0.0
 11
32.98260934499027
 21
-15.13559424784713
 31
0.0
 12
39.98260934499027
 22
-16.0571617309589
 32
0.0
 13
39.98260934499027
 23
-16.0571617309589
 33
0.0
  0
MTEXT
  5
165
330
15E
100
AcDbEntity
  8
1
 62
     1
100
AcDbMText
 10
-24.77183213223689
 20
-14.0571895592642
 30
0.0
 40
7.0
 41
0.0
 71
     7
 72
     1
  1
\C1;%%c\C1;80\C1;-%%c92
  7
CONVERTER_11
 11
0.9999999999970619
 21
2.424068405545306E-6
 31
0.0
 73
     1
 44
0.60024009603842
  0
ENDBLK
  5
167
330
15E
100
AcDbEntity
  8
0
100
AcDbBlockEnd
  0
BLOCK
  5
172
330
16A
100
AcDbEntity
  8
0
100
AcDbBlockBegin
  2
*D5
 70
     1
 10
0.0
 20
0.0
 30
0.0
  3
*D5
  1

  0
LINE
  5
16B
330
16A
100
AcDbEntity
  8
1
  6
Continuous
 62
     4
100
AcDbLine
 10
-0.01739065500934
 20
114.120227616103
 30
0.0
 11
19.9821052915435
 21
114.120227616103
 31
0.0
  0
LINE
  5
16C
330
16A
100
AcDbEntity
  8
1
  6
Continuous
 62
     4
100
AcDbLine
 10
19.9821052915435
 20
114.120227616103
 30
0.0
 11
47.05507131692799
 21
114.120227616103
 31
0.0
  0
LINE
  5
16D
330
16A
100
AcDbEntity
  8
1
  6
Continuous
 62
     4
100
AcDbLine
 10
-0.01739065500934
 20
71.42748258351041
 30
0.0
 11
-0.01739065500934
 21
116.120227616103
 31
0.0
  0
LINE
  5
16E
330
16A
100
AcDbEntity
  8
1
  6
Continuous
 62
     4
100
AcDbLine
 10
19.9821052915435
 20
104.120227616103
 30
0.0
 11
19.9821052915435
 21
116.120227616103
 31
0.0
  0
SOLID
  5
16F
330
16A
100
AcDbEntity
  8
1
 62
     4
100
AcDbTrace
 10
6.98260934499066
 20
115.0417950992148
 30
0.0
 11
6.98260934499066
 21
113.1986601329912
 31
0.0
 12
-0.01739065500934
 22
114.120227616103
 32
0.0
 13
-0.01739065500934
 23
114.120227616103
 33
0.0
  0
SOLID
  5
170
330
16A
100
AcDbEntity
  8
1
 62
     4
100
AcDbTrace
 10
12.9821052915435
 20
113.1986601329912
 30
0.0
 11
12.9821052915435
 21
115.0417950992148
 31
0.0
 12
19.9821052915435
 22
114.120227616103
 32
0.0
 13
19.9821052915435
 23
114.120227616103
 33
0.0
  0
MTEXT
  5
171
330
16A
100
AcDbEntity
  8
1
 62
     1
100
AcDbMText
 10
25.07507131696173
 20
116.1201997877977
 30
0.0
 40
7.0
 41
0.0
 71
     7
 72
     1
  1
\C1;0-\C1;20
  7
CONVERTER_11
 11
0.9999999999970619
 21
2.424068405545306E-6
 31
0.0
 73
     1
 44
0.60024009603842
  0
ENDBLK
  5
173
330
16A
100
AcDbEntity
  8
0
100
AcDbBlockEnd
  0
BLOCK
  5
17D
330
176
100
AcDbEntity
  8
0
100
AcDbBlockBegin
  2
*D6
 70
     1
 10
0.0
 20
0.0
 30
0.0
  3
*D6
  1

  0
LINE
  5
177
330
176
100
AcDbEntity
  8
1
  6
Continuous
 62
     4
100
AcDbLine
 10
-65.99999999999966
 20
140.927968330576
 30
0.0
 11
86.0
 21
140.927968330576
 31
0.0
  0
LINE
  5
178
330
176
100
AcDbEntity
  8
1
  6
Continuous
 62
     4
100
AcDbLine
 10
-65.99999999999966
 20
68.5
 30
0.0
 11
-65.99999999999966
 21
142.927968330576
 31
0.0
  0
LINE
  5
179
330
176
100
AcDbEntity
  8
1
  6
Continuous
 62
     4
100
AcDbLine
 10
86.0
 20
68.5
 30
0.0
 11
86.0
 21
142.927968330576
 31
0.0
  0
SOLID
  5
17A
330
176
100
AcDbEntity
  8
1
 62
     4
100
AcDbTrace
 10
-58.99999999999966
 20
141.8495358136878
 30
0.0
 11
-58.99999999999966
 21
140.0064008474642
 31
0.0
 12
-65.99999999999966
 22
140.927968330576
 32
0.0
 13
-65.99999999999966
 23
140.927968330576
 33
0.0
  0
SOLID
  5
17B
330
176
100
AcDbEntity
  8
1
 62
     4
100
AcDbTrace
 10
79.0
 20
140.0064008474642
 30
0.0
 11
79.0
 21
141.8495358136878
 31
0.0
 12
86.0
 22
140.927968330576
 32
0.0
 13
86.0
 23
140.927968330576
 33
0.0
  0
MTEXT
  5
17C
330
176
100
AcDbEntity
  8
1
 62
     1
100
AcDbMText
 10
-7.74241163394963
 20
142.9279405022707
 30
0.0
 40
7.0
 41
0.0
 71
     7
 72
     1
  1
\C1;%%c\C1;152
  7
CONVERTER_11
 11
0.9999999999970619
 21
2.424068405545306E-6
 31
0.0
 73
     1
 44
0.60024009603842
  0
ENDBLK
  5
17E
330
176
100
AcDbEntity
  8
0
100
AcDbBlockEnd
  0
BLOCK
  5
188
330
181
100
AcDbEntity
  8
0
100
AcDbBlockBegin
  2
*D7
 70
     1
 10
0.0
 20
0.0
 30
0.0
  3
*D7
  1

  0
LINE
  5
182
330
181
100
AcDbEntity
  8
1
  6
Continuous
 62
     4
100
AcDbLine
 10
-31.0178947084565
 20
128.179987332951
 30
0.0
 11
70.98210529154352
 21
128.179987332951
 31
0.0
  0
LINE
  5
183
330
181
100
AcDbEntity
  8
1
  6
Continuous
 62
     4
100
AcDbLine
 10
70.98210529154352
 20
107.0
 30
0.0
 11
70.98210529154352
 21
130.179987332951
 31
0.0
  0
LINE
  5
184
330
181
100
AcDbEntity
  8
1
  6
Continuous
 62
     4
100
AcDbLine
 10
-31.0178947084565
 20
107.0
 30
0.0
 11
-31.0178947084565
 21
130.179987332951
 31
0.0
  0
SOLID
  5
185
330
181
100
AcDbEntity
  8
1
 62
     4
100
AcDbTrace
 10
63.98210529154352
 20
127.2584198498392
 30
0.0
 11
63.98210529154352
 21
129.1015548160628
 31
0.0
 12
70.98210529154352
 22
128.179987332951
 32
0.0
 13
70.98210529154352
 23
128.179987332951
 33
0.0
  0
SOLID
  5
186
330
181
100
AcDbEntity
  8
1
 62
     4
100
AcDbTrace
 10
-24.0178947084565
 20
129.1015548160628
 30
0.0
 11
-24.0178947084565
 21
127.2584198498392
 31
0.0
 12
-31.0178947084565
 22
128.179987332951
 32
0.0
 13
-31.0178947084565
 23
128.179987332951
 33
0.0
  0
MTEXT
  5
187
330
181
100
AcDbEntity
  8
1
 62
     1
100
AcDbMText
 10
9.20390665583663
 20
130.1799595046457
 30
0.0
 40
7.0
 41
0.0
 71
     7
 72
     1
  1
\C1;\U+00d8\C1;\C1;102\C2;\H7;{\Fgdt;`}5
  7
CONVERTER_11
 11
0.9999999999970619
 21
2.424068405545306E-6
 31
0.0
 73
     1
 44
0.60024009603842
  0
ENDBLK
  5
189
330
181
100
AcDbEntity
  8
0
100
AcDbBlockEnd
  0
BLOCK
  5
193
330
18C
100
AcDbEntity
  8
0
100
AcDbBlockBegin
  2
*D8
 70
     1
 10
0.0
 20
0.0
 30
0.0
  3
*D8
  1

  0
LINE
  5
18D
330
18C
100
AcDbEntity
  8
1
  6
Continuous
 62
     4
100
AcDbLine
 10
97.4991085560404
 20
0.99999999999995
 30
0.0
 11
97.4991085560404
 21
55.0
 31
0.0
  0
LINE
  5
18E
330
18C
100
AcDbEntity
  8
1
  6
Continuous
 62
     4
100
AcDbLine
 10
34.98260934499031
 20
0.99999999999995
 30
0.0
 11
99.4991085560404
 21
0.99999999999995
 31
0.0
  0
LINE
  5
18F
330
18C
100
AcDbEntity
  8
1
  6
Continuous
 62
     4
100
AcDbLine
 10
86.0
 20
55.0
 30
0.0
 11
99.4991085560404
 21
55.0
 31
0.0
  0
SOLID
  5
190
330
18C
100
AcDbEntity
  8
1
 62
     4
100
AcDbTrace
 10
96.57754107292862
 20
7.99999999999995
 30
0.0
 11
98.42067603915217
 21
7.99999999999995
 31
0.0
 12
97.4991085560404
 22
0.99999999999995
 32
0.0
 13
97.4991085560404
 23
0.99999999999995
 33
0.0
  0
SOLID
  5
191
330
18C
100
AcDbEntity
  8
1
 62
     4
100
AcDbTrace
 10
98.42067603915217
 20
48.0
 30
0.0
 11
96.57754107292862
 21
48.0
 31
0.0
 12
97.4991085560404
 22
55.0
 32
0.0
 13
97.4991085560404
 23
55.0
 33
0.0
  0
MTEXT
  5
192
330
18C
100
AcDbEntity
  8
1
 62
     1
100
AcDbMText
 10
95.4991085560404
 20
23.446614411336
 30
0.0
 40
7.0
 41
0.0
 71
     7
 72
     1
  1
54
  7
CONVERTER_11
 11
0.0
 21
1.0
 31
0.0
 73
     1
 44
0.60024009603842
  0
ENDBLK
  5
194
330
18C
100
AcDbEntity
  8
0
100
AcDbBlockEnd
  0
BLOCK
  5
19E
330
197
100
AcDbEntity
  8
0
100
AcDbBlockBegin
  2
*D9
 70
     1
 10
0.0
 20
0.0
 30
0.0
  3
*D9
  1

  0
LINE
  5
198
330
197
100
AcDbEntity
  8
1
  6
Continuous
 62
     4
100
AcDbLine
 10
114.746376964592
 20
0.99999999999995
 30
0.0
 11
114.746376964592
 21
102.0
 31
0.0
  0
LINE
  5
199
330
197
100
AcDbEntity
  8
1
  6
Continuous
 62
     4
100
AcDbLine
 10
34.98260934499031
 20
0.99999999999995
 30
0.0
 11
116.746376964592
 21
0.99999999999995
 31
0.0
  0
LINE
  5
19A
330
197
100
AcDbEntity
  8
1
  6
Continuous
 62
     4
100
AcDbLine
 10
80.96000000000033
 20
102.0
 30
0.0
 11
116.746376964592
 21
102.0
 31
0.0
  0
SOLID
  5
19B
330
197
100
AcDbEntity
  8
1
 62
     4
100
AcDbTrace
 10
113.8248094814802
 20
7.99999999999995
 30
0.0
 11
115.6679444477038
 21
7.99999999999995
 31
0.0
 12
114.746376964592
 22
0.99999999999995
 32
0.0
 13
114.746376964592
 23
0.99999999999995
 33
0.0
  0
SOLID
  5
19C
330
197
100
AcDbEntity
  8
1
 62
     4
100
AcDbTrace
 10
115.6679444477038
 20
95.0
 30
0.0
 11
113.8248094814802
 21
95.0
 31
0.0
 12
114.746376964592
 22
102.0
 32
0.0
 13
114.746376964592
 23
102.0
 33
0.0
  0
MTEXT
  5
19D
330
197
100
AcDbEntity
  8
1
 62
     1
100
AcDbMText
 10
112.746376964592
 20
47.5176357890082
 30
0.0
 40
7.0
 41
0.0
 71
     7
 72
     1
  1
101
  7
CONVERTER_11
 11
0.0
 21
1.0
 31
0.0
 73
     1
 44
0.60024009603842
  0
ENDBLK
  5
19F
330
197
100
AcDbEntity
  8
0
100
AcDbBlockEnd
  0
ENDSEC
  0
SECTION
  2
ENTITIES
  0
INSERT
  5
70
330
1F
100
AcDbEntity
  8
0
100
AcDbBlockReference
  2
HL_200_Vario
 10
25.35318848229623
 20
65.93540329980854
 30
0.0
  0
ENDSEC
  0
SECTION
  2
OBJECTS
  0
DICTIONARY
  5
C
330
0
100
AcDbDictionary
281
     1
  3
ACAD_GROUP
350
D
  3
ACAD_LAYOUT
350
1A
  3
ACAD_MLEADERSTYLE
350
1A4
  3
ACAD_MLINESTYLE
350
17
  3
ACAD_PLOTSETTINGS
350
19
  3
ACAD_PLOTSTYLENAME
350
E
  3
ACAD_SCALELIST
350
4A
  3
ACAD_VISUALSTYLE
350
2A
  3
AcDbVariableDictionary
350
1A2
  0
DICTIONARY
  5
D
102
{ACAD_REACTORS
330
C
102
}
330
C
100
AcDbDictionary
281
     1
  0
DICTIONARY
  5
1A
102
{ACAD_REACTORS
330
C
102
}
330
C
100
AcDbDictionary
281
     1
  3
Layout1
350
1E
  3
Layout2
350
26
  3
Model
350
22
  0
DICTIONARY
  5
1A4
102
{ACAD_REACTORS
330
C
102
}
330
C
100
AcDbDictionary
281
     1
  0
DICTIONARY
  5
17
102
{ACAD_REACTORS
330
C
102
}
330
C
100
AcDbDictionary
281
     1
  3
Standard
350
18
  0
DICTIONARY
  5
19
102
{ACAD_REACTORS
330
C
102
}
330
C
100
AcDbDictionary
281
     1
  0
ACDBDICTIONARYWDFLT
  5
E
102
{ACAD_REACTORS
330
C
102
}
330
C
100
AcDbDictionary
281
     1
  3
Normal
350
F
100
AcDbDictionaryWithDefault
340
F
  0
DICTIONARY
  5
4A
102
{ACAD_REACTORS
330
C
102
}
330
C
100
AcDbDictionary
281
     1
  3
A0
350
4B
  3
A1
350
4C
  3
A2
350
4D
  3
A3
350
4E
  3
A4
350
4F
  3
A5
350
50
  3
A6
350
51
  3
A7
350
52
  3
A8
350
53
  3
A9
350
54
  3
B0
350
55
  3
B1
350
56
  3
B2
350
57
  3
B3
350
58
  3
B4
350
59
  3
B5
350
5A
  3
B6
350
5B
  3
B7
350
5C
  3
B8
350
5D
  3
B9
350
5E
  3
C0
350
5F
  3
C1
350
60
  3
C2
350
61
  3
C3
350
62
  3
C4
350
63
  3
C5
350
64
  3
C6
350
65
  3
C7
350
66
  3
C8
350
67
  3
C9
350
68
  3
D0
350
69
  3
D1
350
6A
  3
D2
350
6B
  0
DICTIONARY
  5
2A
102
{ACAD_REACTORS
330
C
102
}
330
C
100
AcDbDictionary
281
     1
  3
2dWireframe
350
2F
  3
3D Hidden
350
31
  3
3dWireframe
350
30
  3
Basic
350
32
  3
Brighten
350
36
  3
ColorChange
350
3A
  3
Conceptual
350
34
  3
Dim
350
35
  3
Facepattern
350
39
  3
Flat
350
2B
  3
FlatWithEdges
350
2C
  3
Gouraud
350
2D
  3
GouraudWithEdges
350
2E
  3
Linepattern
350
38
  3
Realistic
350
33
  3
Thicken
350
37
  0
DICTIONARY
  5
1A2
102
{ACAD_REACTORS
330
C
102
}
330
C
100
AcDbDictionary
281
     1
  3
CANNOSCALE
350
1A5
  0
LAYOUT
  5
1E
102
{ACAD_REACTORS
330
1A
102
}
330
1A
100
AcDbPlotSettings
  1

  2
none_device
  4

  6

 40
0.0
 41
0.0
 42
0.0
 43
0.0
 44
0.0
 45
0.0
 46
0.0
 47
0.0
 48
0.0
 49
0.0
140
0.0
141
0.0
142
1.0
143
1.0
 70
   688
 72
     0
 73
     0
 74
     5
  7

 75
    16
147
1.0
148
0.0
149
0.0
100
AcDbLayout
  1
Layout1
 70
     1
 71
     1
 10
0.0
 20
0.0
 11
12.0
 21
9.0
 12
0.0
 22
0.0
 32
0.0
 14
1.00000000000000E+20
 24
1.00000000000000E+20
 34
1.00000000000000E+20
 15
-1.00000000000000E+20
 25
-1.00000000000000E+20
 35
-1.00000000000000E+20
146
0.0
 13
0.0
 23
0.0
 33
0.0
 16
1.0
 26
0.0
 36
0.0
 17
0.0
 27
1.0
 37
0.0
 76
     0
330
1B
  0
LAYOUT
  5
26
102
{ACAD_REACTORS
330
1A
102
}
330
1A
100
AcDbPlotSettings
  1

  2
none_device
  4

  6

 40
0.0
 41
0.0
 42
0.0
 43
0.0
 44
0.0
 45
0.0
 46
0.0
 47
0.0
 48
0.0
 49
0.0
140
0.0
141
0.0
142
1.0
143
1.0
 70
   688
 72
     0
 73
     0
 74
     5
  7

 75
    16
147
1.0
148
0.0
149
0.0
100
AcDbLayout
  1
Layout2
 70
     1
 71
     2
 10
0.0
 20
0.0
 11
0.0
 21
0.0
 12
0.0
 22
0.0
 32
0.0
 14
0.0
 24
0.0
 34
0.0
 15
0.0
 25
0.0
 35
0.0
146
0.0
 13
0.0
 23
0.0
 33
0.0
 16
1.0
 26
0.0
 36
0.0
 17
0.0
 27
1.0
 37
0.0
 76
     0
330
23
  0
LAYOUT
  5
22
102
{ACAD_REACTORS
330
1A
102
}
330
1A
100
AcDbPlotSettings
  1

  2
none_device
  4

  6

 40
0.0
 41
0.0
 42
0.0
 43
0.0
 44
0.0
 45
0.0
 46
0.0
 47
0.0
 48
0.0
 49
0.0
140
0.0
141
0.0
142
1.0
143
1.0
 70
  1712
 72
     0
 73
     0
 74
     0
  7

 75
     0
147
1.0
148
0.0
149
0.0
100
AcDbLayout
  1
Model
 70
     1
 71
     0
 10
0.0
 20
0.0
 11
12.0
 21
9.0
 12
0.0
 22
0.0
 32
0.0
 14
-66.03999999999955
 24
-18.0571617309589
 34
0.0
 15
116.746376964592
 25
149.927968330576
 35
0.0
146
0.0
 13
0.0
 23
0.0
 33
0.0
 16
1.0
 26
0.0
 36
0.0
 17
0.0
 27
1.0
 37
0.0
 76
     0
330
1F
331
29
  0
MLINESTYLE
  5
18
102
{ACAD_REACTORS
330
17
102
}
330
17
100
AcDbMlineStyle
  2
Standard
 70
     0
  3

 62
   256
 51
90.0
 52
90.0
 71
     2
 49
0.5
 62
   256
  6
BYLAYER
 49
-0.5
 62
   256
  6
BYLAYER
  0
ACDBPLACEHOLDER
  5
F
102
{ACAD_REACTORS
330
E
102
}
330
E
  0
SCALE
  5
4B
102
{ACAD_REACTORS
330
4A
102
}
330
4A
100
AcDbScale
 70
     0
300
1:1
140
1.0
141
1.0
290
     1
  0
SCALE
  5
4C
102
{ACAD_REACTORS
330
4A
102
}
330
4A
100
AcDbScale
 70
     0
300
1:2
140
1.0
141
2.0
290
     0
  0
SCALE
  5
4D
102
{ACAD_REACTORS
330
4A
102
}
330
4A
100
AcDbScale
 70
     0
300
1:4
140
1.0
141
4.0
290
     0
  0
SCALE
  5
4E
102
{ACAD_REACTORS
330
4A
102
}
330
4A
100
AcDbScale
 70
     0
300
1:5
140
1.0
141
5.0
290
     0
  0
SCALE
  5
4F
102
{ACAD_REACTORS
330
4A
102
}
330
4A
100
AcDbScale
 70
     0
300
1:8
140
1.0
141
8.0
290
     0
  0
SCALE
  5
50
102
{ACAD_REACTORS
330
4A
102
}
330
4A
100
AcDbScale
 70
     0
300
1:10
140
1.0
141
10.0
290
     0
  0
SCALE
  5
51
102
{ACAD_REACTORS
330
4A
102
}
330
4A
100
AcDbScale
 70
     0
300
1:16
140
1.0
141
16.0
290
     0
  0
SCALE
  5
52
102
{ACAD_REACTORS
330
4A
102
}
330
4A
100
AcDbScale
 70
     0
300
1:20
140
1.0
141
20.0
290
     0
  0
SCALE
  5
53
102
{ACAD_REACTORS
330
4A
102
}
330
4A
100
AcDbScale
 70
     0
300
1:30
140
1.0
141
30.0
290
     0
  0
SCALE
  5
54
102
{ACAD_REACTORS
330
4A
102
}
330
4A
100
AcDbScale
 70
     0
300
1:40
140
1.0
141
40.0
290
     0
  0
SCALE
  5
55
102
{ACAD_REACTORS
330
4A
102
}
330
4A
100
AcDbScale
 70
     0
300
1:50
140
1.0
141
50.0
290
     0
  0
SCALE
  5
56
102
{ACAD_REACTORS
330
4A
102
}
330
4A
100
AcDbScale
 70
     0
300
1:100
140
1.0
141
100.0
290
     0
  0
SCALE
  5
57
102
{ACAD_REACTORS
330
4A
102
}
330
4A
100
AcDbScale
 70
     0
300
2:1
140
2.0
141
1.0
290
     0
  0
SCALE
  5
58
102
{ACAD_REACTORS
330
4A
102
}
330
4A
100
AcDbScale
 70
     0
300
4:1
140
4.0
141
1.0
290
     0
  0
SCALE
  5
59
102
{ACAD_REACTORS
330
4A
102
}
330
4A
100
AcDbScale
 70
     0
300
8:1
140
8.0
141
1.0
290
     0
  0
SCALE
  5
5A
102
{ACAD_REACTORS
330
4A
102
}
330
4A
100
AcDbScale
 70
     0
300
10:1
140
10.0
141
1.0
290
     0
  0
SCALE
  5
5B
102
{ACAD_REACTORS
330
4A
102
}
330
4A
100
AcDbScale
 70
     0
300
100:1
140
100.0
141
1.0
290
     0
  0
SCALE
  5
5C
102
{ACAD_REACTORS
330
4A
102
}
330
4A
100
AcDbScale
 70
     0
300
1/128" = 1'-0"
140
0.0078125
141
12.0
290
     0
  0
SCALE
  5
5D
102
{ACAD_REACTORS
330
4A
102
}
330
4A
100
AcDbScale
 70
     0
300
1/64" = 1'-0"
140
0.015625
141
12.0
290
     0
  0
SCALE
  5
5E
102
{ACAD_REACTORS
330
4A
102
}
330
4A
100
AcDbScale
 70
     0
300
1/32" = 1'-0"
140
0.03125
141
12.0
290
     0
  0
SCALE
  5
5F
102
{ACAD_REACTORS
330
4A
102
}
330
4A
100
AcDbScale
 70
     0
300
1/16" = 1'-0"
140
0.0625
141
12.0
290
     0
  0
SCALE
  5
60
102
{ACAD_REACTORS
330
4A
102
}
330
4A
100
AcDbScale
 70
     0
300
3/32" = 1'-0"
140
0.09375
141
12.0
290
     0
  0
SCALE
  5
61
102
{ACAD_REACTORS
330
4A
102
}
330
4A
100
AcDbScale
 70
     0
300
1/8" = 1'-0"
140
0.125
141
12.0
290
     0
  0
SCALE
  5
62
102
{ACAD_REACTORS
330
4A
102
}
330
4A
100
AcDbScale
 70
     0
300
3/16" = 1'-0"
140
0.1875
141
12.0
290
     0
  0
SCALE
  5
63
102
{ACAD_REACTORS
330
4A
102
}
330
4A
100
AcDbScale
 70
     0
300
1/4" = 1'-0"
140
0.25
141
12.0
290
     0
  0
SCALE
  5
64
102
{ACAD_REACTORS
330
4A
102
}
330
4A
100
AcDbScale
 70
     0
300
3/8" = 1'-0"
140
0.375
141
12.0
290
     0
  0
SCALE
  5
65
102
{ACAD_REACTORS
330
4A
102
}
330
4A
100
AcDbScale
 70
     0
300
1/2" = 1'-0"
140
0.5
141
12.0
290
     0
  0
SCALE
  5
66
102
{ACAD_REACTORS
330
4A
102
}
330
4A
100
AcDbScale
 70
     0
300
3/4" = 1'-0"
140
0.75
141
12.0
290
     0
  0
SCALE
  5
67
102
{ACAD_REACTORS
330
4A
102
}
330
4A
100
AcDbScale
 70
     0
300
1" = 1'-0"
140
1.0
141
12.0
290
     0
  0
SCALE
  5
68
102
{ACAD_REACTORS
330
4A
102
}
330
4A
100
AcDbScale
 70
     0
300
1-1/2" = 1'-0"
140
1.5
141
12.0
290
     0
  0
SCALE
  5
69
102
{ACAD_REACTORS
330
4A
102
}
330
4A
100
AcDbScale
 70
     0
300
3" = 1'-0"
140
3.0
141
12.0
290
     0
  0
SCALE
  5
6A
102
{ACAD_REACTORS
330
4A
102
}
330
4A
100
AcDbScale
 70
     0
300
6" = 1'-0"
140
6.0
141
12.0
290
     0
  0
SCALE
  5
6B
102
{ACAD_REACTORS
330
4A
102
}
330
4A
100
AcDbScale
 70
     0
300
1'-0" = 1'-0"
140
12.0
141
12.0
290
     0
  0
VISUALSTYLE
  5
2F
102
{ACAD_REACTORS
330
2A
102
}
330
2A
100
AcDbVisualStyle
  2
2dWireframe
 70
     4
 71
     0
 72
     2
 73
     0
 90
        0
 40
-0.6
 41
-30.0
 62
     5
 63
     7
 74
     1
 91
        4
 64
     7
 65
   257
 75
     1
175
     1
 42
1.0
 92
        0
 66
   257
 43
1.0
 76
     1
 77
     6
 78
     2
 67
     7
 79
     5
170
     0
171
     0
290
     0
174
     0
 93
        1
 44
0.0
173
     0
291
     0
 45
0.0
1001
ACAD
1000
AcDbSavedByObjectVersion
1070
     0
  0
VISUALSTYLE
  5
31
102
{ACAD_REACTORS
330
2A
102
}
330
2A
100
AcDbVisualStyle
  2
3D Hidden
 70
     6
 71
     1
 72
     2
 73
     2
 90
        0
 40
-0.6
 41
-30.0
 62
     5
 63
     7
 74
     2
 91
        2
 64
     7
 65
   257
 75
     2
175
     1
 42
40.0
 92
        0
 66
   257
 43
1.0
 76
     1
 77
     6
 78
     2
 67
     7
 79
     3
170
     0
171
     0
290
     0
174
     0
 93
        1
 44
0.0
173
     0
291
     0
 45
0.0
1001
ACAD
1000
AcDbSavedByObjectVersion
1070
     0
  0
VISUALSTYLE
  5
30
102
{ACAD_REACTORS
330
2A
102
}
330
2A
100
AcDbVisualStyle
  2
3dWireframe
 70
     5
 71
     0
 72
     2
 73
     0
 90
        0
 40
-0.6
 41
-30.0
 62
     5
 63
     7
 74
     1
 91
        4
 64
     7
 65
   257
 75
     1
175
     1
 42
1.0
 92
        0
 66
   257
 43
1.0
 76
     1
 77
     6
 78
     2
 67
     7
 79
     5
170
     0
171
     0
290
     0
174
     0
 93
        1
 44
0.0
173
     0
291
     0
 45
0.0
1001
ACAD
1000
AcDbSavedByObjectVersion
1070
     0
  0
VISUALSTYLE
  5
32
102
{ACAD_REACTORS
330
2A
102
}
330
2A
100
AcDbVisualStyle
  2
Basic
 70
     7
 71
     1
 72
     0
 73
     1
 90
        0
 40
-0.6
 41
-30.0
 62
     5
 63
     7
 74
     0
 91
        4
 64
     7
 65
   257
 75
     1
175
     1
 42
1.0
 92
        8
 66
     7
 43
1.0
 76
     1
 77
     6
 78
     2
 67
     7
 79
     5
170
     0
171
     0
290
     0
174
     0
 93
        1
 44
0.0
173
     0
291
     1
 45
0.0
1001
ACAD
1000
AcDbSavedByObjectVersion
1070
     0
  0
VISUALSTYLE
  5
36
102
{ACAD_REACTORS
330
2A
102
}
330
2A
100
AcDbVisualStyle
  2
Brighten
 70
    12
 71
     2
 72
     2
 73
     0
 90
        0
 40
-0.6
 41
-30.0
 62
     5
 63
     7
 74
     1
 91
        4
 64
     7
 65
   257
 75
     1
175
     1
 42
1.0
 92
        8
 66
     7
 43
1.0
 76
     1
 77
     6
 78
     2
 67
     7
 79
     5
170
     0
171
     0
290
     0
174
     0
 93
        1
 44
50.0
173
     0
291
     1
 45
0.0
1001
ACAD
1000
AcDbSavedByObjectVersion
1070
     0
  0
VISUALSTYLE
  5
3A
102
{ACAD_REACTORS
330
2A
102
}
330
2A
100
AcDbVisualStyle
  2
ColorChange
 70
    16
 71
     2
 72
     2
 73
     3
 90
        0
 40
-0.6
 41
-30.0
 62
     5
 63
     8
 74
     1
 91
        4
 64
     7
 65
   257
 75
     1
175
     1
 42
1.0
 92
        8
 66
     8
 43
1.0
 76
     1
 77
     6
 78
     2
 67
     7
 79
     5
170
     0
171
     0
290
     0
174
     0
 93
        1
 44
0.0
173
     0
291
     1
 45
0.0
1001
ACAD
1000
AcDbSavedByObjectVersion
1070
     0
  0
VISUALSTYLE
  5
34
102
{ACAD_REACTORS
330
2A
102
}
330
2A
100
AcDbVisualStyle
  2
Conceptual
 70
     9
 71
     3
 72
     2
 73
     0
 90
        0
 40
-0.6
 41
-30.0
 62
     5
 63
     7
 74
     2
 91
        2
 64
     7
 65
   257
 75
     1
175
     1
 42
40.0
 92
        8
 66
     7
 43
1.0
 76
     1
 77
     6
 78
     2
 67
     7
 79
     3
170
     0
171
     0
290
     0
174
     0
 93
        1
 44
0.0
173
     0
291
     0
 45
0.0
1001
ACAD
1000
AcDbSavedByObjectVersion
1070
     0
  0
VISUALSTYLE
  5
35
102
{ACAD_REACTORS
330
2A
102
}
330
2A
100
AcDbVisualStyle
  2
Dim
 70
    11
 71
     2
 72
     2
 73
     0
 90
        0
 40
-0.6
 41
-30.0
 62
     5
 63
     7
 74
     1
 91
        4
 64
     7
 65
   257
 75
     1
175
     1
 42
1.0
 92
        8
 66
     7
 43
1.0
 76
     1
 77
     6
 78
     2
 67
     7
 79
     5
170
     0
171
     0
290
     0
174
     0
 93
        1
 44
-50.0
173
     0
291
     1
 45
0.0
1001
ACAD
1000
AcDbSavedByObjectVersion
1070
     0
  0
VISUALSTYLE
  5
39
102
{ACAD_REACTORS
330
2A
102
}
330
2A
100
AcDbVisualStyle
  2
Facepattern
 70
    15
 71
     2
 72
     2
 73
     0
 90
        0
 40
-0.6
 41
-30.0
 62
     5
 63
     7
 74
     1
 91
        4
 64
     7
 65
   257
 75
     1
175
     1
 42
1.0
 92
        8
 66
     7
 43
1.0
 76
     1
 77
     6
 78
     2
 67
     7
 79
     5
170
     0
171
     0
290
     0
174
     0
 93
        1
 44
0.0
173
     0
291
     1
 45
0.0
1001
ACAD
1000
AcDbSavedByObjectVersion
1070
     0
  0
VISUALSTYLE
  5
2B
102
{ACAD_REACTORS
330
2A
102
}
330
2A
100
AcDbVisualStyle
  2
Flat
 70
     0
 71
     2
 72
     1
 73
     1
 90
        2
 40
-0.6
 41
30.0
 62
     5
 63
     7
 74
     0
 91
        4
 64
     7
 65
   257
 75
     1
175
     1
 42
1.0
 92
        8
 66
     7
 43
1.0
 76
     1
 77
     6
 78
     2
 67
     7
 79
     5
170
     0
171
     0
290
     0
174
     0
 93
       13
 44
0.0
173
     0
291
     1
 45
0.0
1001
ACAD
1000
AcDbSavedByObjectVersion
1070
     0
  0
VISUALSTYLE
  5
2C
102
{ACAD_REACTORS
330
2A
102
}
330
2A
100
AcDbVisualStyle
  2
FlatWithEdges
 70
     1
 71
     2
 72
     1
 73
     1
 90
        2
 40
-0.6
 41
30.0
 62
     5
 63
     7
 74
     1
 91
        4
 64
     7
 65
   257
 75
     1
175
     1
 42
1.0
 92
        0
 66
   257
 43
1.0
 76
     1
 77
     6
 78
     2
 67
     7
 79
     5
170
     0
171
     0
290
     0
174
     0
 93
       13
 44
0.0
173
     0
291
     1
 45
0.0
1001
ACAD
1000
AcDbSavedByObjectVersion
1070
     0
  0
VISUALSTYLE
  5
2D
102
{ACAD_REACTORS
330
2A
102
}
330
2A
100
AcDbVisualStyle
  2
Gouraud
 70
     2
 71
     2
 72
     2
 73
     1
 90
        2
 40
-0.6
 41
30.0
 62
     5
 63
     7
 74
     0
 91
        4
 64
     7
 65
   257
 75
     1
175
     1
 42
1.0
 92
        0
 66
     7
 43
1.0
 76
     1
 77
     6
 78
     2
 67
     7
 79
     5
170
     0
171
     0
290
     0
174
     0
 93
       13
 44
0.0
173
     0
291
     1
 45
0.0
1001
ACAD
1000
AcDbSavedByObjectVersion
1070
     0
  0
VISUALSTYLE
  5
2E
102
{ACAD_REACTORS
330
2A
102
}
330
2A
100
AcDbVisualStyle
  2
GouraudWithEdges
 70
     3
 71
     2
 72
     2
 73
     1
 90
        2
 40
-0.6
 41
30.0
 62
     5
 63
     7
 74
     1
 91
        4
 64
     7
 65
   257
 75
     1
175
     1
 42
1.0
 92
        0
 66
   257
 43
1.0
 76
     1
 77
     6
 78
     2
 67
     7
 79
     5
170
     0
171
     0
290
     0
174
     0
 93
       13
 44
0.0
173
     0
291
     1
 45
0.0
1001
ACAD
1000
AcDbSavedByObjectVersion
1070
     0
  0
VISUALSTYLE
  5
38
102
{ACAD_REACTORS
330
2A
102
}
330
2A
100
AcDbVisualStyle
  2
Linepattern
 70
    14
 71
     2
 72
     2
 73
     0
 90
        0
 40
-0.6
 41
-30.0
 62
     5
 63
     7
 74
     1
 91
        4
 64
     7
 65
   257
 75
     7
175
     7
 42
1.0
 92
        8
 66
     7
 43
1.0
 76
     1
 77
     6
 78
     2
 67
     7
 79
     5
170
     0
171
     0
290
     0
174
     0
 93
        1
 44
0.0
173
     0
291
     1
 45
0.0
1001
ACAD
1000
AcDbSavedByObjectVersion
1070
     0
  0
VISUALSTYLE
  5
33
102
{ACAD_REACTORS
330
2A
102
}
330
2A
100
AcDbVisualStyle
  2
Realistic
 70
     8
 71
     2
 72
     2
 73
     0
 90
        0
 40
-0.6
 41
-30.0
 62
     5
 63
     7
 74
     1
 91
        0
 64
     7
 65
   257
 75
     1
175
     1
 42
1.0
 92
        8
 66
     8
 43
1.0
 76
     1
 77
     6
 78
     2
 67
     7
 79
     5
170
     0
171
     0
290
     0
174
     0
 93
       13
 44
0.0
173
     0
291
     0
 45
0.0
1001
ACAD
1000
AcDbSavedByObjectVersion
1070
     0
  0
VISUALSTYLE
  5
37
102
{ACAD_REACTORS
330
2A
102
}
330
2A
100
AcDbVisualStyle
  2
Thicken
 70
    13
 71
     2
 72
     2
 73
     0
 90
        0
 40
-0.6
 41
-30.0
 62
     5
 63
     7
 74
     1
 91
        4
 64
     7
 65
   257
 75
     1
175
     1
 42
1.0
 92
       12
 66
     7
 43
1.0
 76
     1
 77
     6
 78
     2
 67
     7
 79
     5
170
     0
171
     0
290
     0
174
     0
 93
        1
 44
0.0
173
     0
291
     1
 45
0.0
1001
ACAD
1000
AcDbSavedByObjectVersion
1070
     0
  0
DICTIONARYVAR
  5
1A5
102
{ACAD_REACTORS
330
1A2
102
}
330
1A2
100
DictionaryVariables
280
     0
  1
1:1
  0
ENDSEC
  0
EOF
