  0
SECTION
  2
HEADER
  9
$ACADVER
  1
AC1014
  9
$ACADMAINTVER
 70
             0
  9
$DWGCODEPAGE
  3
ANSI_1252
  9
$INSBASE
 10
0.0
 20
0.0
 30
0.0
  9
$EXTMIN
 10
1.00000000000000E+20
 20
1.00000000000000E+20
 30
1.00000000000000E+20
  9
$EXTMAX
 10
-1.00000000000000E+20
 20
-1.00000000000000E+20
 30
-1.00000000000000E+20
  9
$LIMMIN
 10
0.0
 20
0.0
  9
$LIMMAX
 10
0.0
 20
0.0
  9
$ORTHOMODE
 70
             0
  9
$REGENMODE
 70
             1
  9
$FILLMODE
 70
             1
  9
$QTEXTMODE
 70
             0
  9
$MIRRTEXT
 70
             1
  9
$DRAGMODE
 70
             2
  9
$LTSCALE
 40
1.0
  9
$OSMODE
 70
             0
  9
$ATTMODE
 70
             1
  9
$TEXTSIZE
 40
0.2
  9
$TRACEWID
 40
0.05
  9
$TEXTSTYLE
  7
STANDARD
  9
$CLAYER
  8
0
  9
$CELTYPE
  6
CONTINUOUS
  9
$CECOLOR
 62
           256
  9
$CELTSCALE
 40
1.0
  9
$DELOBJ
 70
             1
  9
$DISPSILH
 70
             0
  9
$DIMSCALE
 40
1.0
  9
$DIMASZ
 40
0.18
  9
$DIMEXO
 40
0.0625
  9
$DIMDLI
 40
0.38
  9
$DIMRND
 40
0.0
  9
$DIMDLE
 40
0.0
  9
$DIMEXE
 40
0.18
  9
$DIMTP
 40
0.0
  9
$DIMTM
 40
0.0
  9
$DIMTXT
 40
0.18
  9
$DIMCEN
 40
0.09
  9
$DIMTSZ
 40
0.0
  9
$DIMTOL
 70
             0
  9
$DIMLIM
 70
             0
  9
$DIMTIH
 70
             1
  9
$DIMTOH
 70
             1
  9
$DIMSE1
 70
             0
  9
$DIMSE2
 70
             0
  9
$DIMTAD
 70
             0
  9
$DIMZIN
 70
             0
  9
$DIMBLK
  1

  9
$DIMASO
 70
             1
  9
$DIMSHO
 70
             1
  9
$DIMPOST
  1

  9
$DIMAPOST
  1

  9
$DIMALT
 70
             0
  9
$DIMALTD
 70
             2
  9
$DIMALTF
 40
25.4
  9
$DIMLFAC
 40
1.0
  9
$DIMTOFL
 70
             0
  9
$DIMTVP
 40
0.0
  9
$DIMTIX
 70
             0
  9
$DIMSOXD
 70
             0
  9
$DIMSAH
 70
             0
  9
$DIMBLK1
  1

  9
$DIMBLK2
  1

  9
$DIMSTYLE
  2
STANDARD
  9
$DIMCLRD
 70
             0
  9
$DIMCLRE
 70
             0
  9
$DIMCLRT
 70
             0
  9
$DIMTFAC
 40
1.0
  9
$DIMGAP
 40
0.09
  9
$DIMJUST
 70
             0
  9
$DIMSD1
 70
             0
  9
$DIMSD2
 70
             0
  9
$DIMTOLJ
 70
             1
  9
$DIMTZIN
 70
             0
  9
$DIMALTZ
 70
             0
  9
$DIMALTTZ
 70
             0
  9
$DIMFIT
 70
             3
  9
$DIMUPT
 70
             0
  9
$DIMUNIT
 70
             2
  9
$DIMDEC
 70
             4
  9
$DIMTDEC
 70
             4
  9
$DIMALTU
 70
             2
  9
$DIMALTTD
 70
             2
  9
$DIMTXSTY
  7
STANDARD
  9
$DIMAUNIT
 70
             0
  9
$LUNITS
 70
             2
  9
$LUPREC
 70
             4
  9
$SKETCHINC
 40
0.1
  9
$FILLETRAD
 40
0.0
  9
$AUNITS
 70
             0
  9
$AUPREC
 70
             0
  9
$MENU
  1
acad
  9
$ELEVATION
 40
0.0
  9
$PELEVATION
 40
0.0
  9
$THICKNESS
 40
0.0
  9
$LIMCHECK
 70
             0
  9
$BLIPMODE
 70
             1
  9
$CHAMFERA
 40
0.0
  9
$CHAMFERB
 40
0.0
  9
$CHAMFERC
 40
0.0
  9
$CHAMFERD
 40
0.0
  9
$SKPOLY
 70
             0
  9
$TDCREATE
 40
0.000000000
  9
$TDUPDATE
 40
0.000000000
  9
$TDINDWG
 40
0.0000000000
  9
$TDUSRTIMER
 40
0.0000000000
  9
$USRTIMER
 70
             1
  9
$ANGBASE
 50
0.0
  9
$ANGDIR
 70
             0
  9
$PDMODE
 70
             0
  9
$PDSIZE
 40
0.0
  9
$PLINEWID
 40
0.0
  9
$COORDS
 70
             0
  9
$SPLFRAME
 70
             0
  9
$SPLINETYPE
 70
             6
  9
$SPLINESEGS
 70
             8
  9
$ATTDIA
 70
             0
  9
$ATTREQ
 70
             1
  9
$HANDLING
 70
             1
  9
$HANDSEED
  5
74
  9
$SURFTAB1
 70
             6
  9
$SURFTAB2
 70
             6
  9
$SURFTYPE
 70
             6
  9
$SURFU
 70
             6
  9
$SURFV
 70
             6
  9
$UCSNAME
  2

  9
$UCSORG
 10
0.0
 20
0.0
 30
0.0
  9
$UCSXDIR
 10
1.0
 20
0.0
 30
0.0
  9
$UCSYDIR
 10
0.0
 20
1.0
 30
0.0
  9
$PUCSNAME
  2

  9
$PUCSORG
 10
0.0
 20
0.0
 30
0.0
  9
$PUCSXDIR
 10
1.0
 20
0.0
 30
0.0
  9
$PUCSYDIR
 10
0.0
 20
1.0
 30
0.0
  9
$USERI1
 70
             0
  9
$USERI2
 70
             0
  9
$USERI3
 70
             0
  9
$USERI4
 70
             0
  9
$USERI5
 70
             0
  9
$USERR1
 40
11.6
  9
$USERR2
 40
0.0
  9
$USERR3
 40
0.0
  9
$USERR4
 40
0.0
  9
$USERR5
 40
0.0
  9
$WORLDVIEW
 70
             1
  9
$SHADEDGE
 70
             3
  9
$SHADEDIF
 70
            70
  9
$TILEMODE
 70
             1
  9
$MAXACTVP
 70
            16
  9
$PINSBASE
 10
0.0
 20
0.0
 30
0.0
  9
$PLIMCHECK
 70
             0
  9
$PEXTMIN
 10
1.00000000000000E+20
 20
1.00000000000000E+20
 30
1.00000000000000E+20
  9
$PEXTMAX
 10
-1.00000000000000E+20
 20
-1.00000000000000E+20
 30
-1.00000000000000E+20
  9
$PLIMMIN
 10
0.0
 20
0.0
  9
$PLIMMAX
 10
12.0
 20
9.0
  9
$UNITMODE
 70
             0
  9
$VISRETAIN
 70
             0
  9
$PLINEGEN
 70
             1
  9
$PSLTSCALE
 70
             0
  9
$TREEDEPTH
 70
          3020
  9
$PICKSTYLE
 70
             1
  9
$CMLSTYLE
  2
STANDARD
  9
$CMLJUST
 70
             0
  9
$CMLSCALE
 40
1.0
  9
$PROXYGRAPHICS
 70
             0
  9
$MEASUREMENT
 70
             1
  0
ENDSEC
  0
SECTION
  2
CLASSES
  0
CLASS
  1
LWPOLYLINE
  2
AcDbPolyline
  3
"AutoCAD"
 90
        0
280
             0
281
             1
  0
CLASS
  1
IMAGE
  2
AcDbRasterImage
  3
ISM
 90
      127
280
             0
281
             1
  0
CLASS
  1
OLE2FRAME
  2
AcDbOle2Frame
  3
""
 90
        0
280
             0
281
             1
  0
CLASS
  1
HATCH
  2
AcDbHatch
  3
"ACAD_SEDONA"
 90
        0
280
             0
281
             1
  0
CLASS
  1
DICTIONARYVAR
  2
AcDbDictionaryVar
  3
"AutoCAD"
 90
        0
280
             0
281
             0
  0
CLASS
  1
RASTERVARIABLES
  2
AcDbRasterVariables
  3
ISM
 90
        0
280
             0
281
             0
  0
CLASS
  1
IMAGEDEF
  2
AcDbRasterImageDef
  3
ISM
 90
        0
280
             0
281
             0
  0
CLASS
  1
IMAGEDEF_REACTOR
  2
AcDbRasterImageDefReactor
  3
ISM
 90
        1
280
             0
281
             0
  0
CLASS
  1
IDBUFFER
  2
AcDbIdBuffer
  3
"Acad"
 90
        0
280
             0
281
             0
  0
CLASS
  1
SPATIAL_FILTER
  2
AcDbSpatialFilter
  3
"Acad"
 90
        0
280
             0
281
             0
  0
CLASS
  1
XRECORD
  2
AcDbXrecord
  3
"<Built In>"
 90
        0
280
             0
281
             0
  0
CLASS
  1
SORTENTSTABLE
  2
AcDbSortentsTable
  3
"AutoCAD"
 90
        0
280
             0
281
             0
  0
CLASS
  1
LAYER_INDEX
  2
AcDbLayerIndex
  3
"Acad"
 90
        0
280
             0
281
             0
  0
CLASS
  1
SPATIAL_INDEX
  2
AcDbSpatialIndex
  3
"Acad"
 90
        0
280
             0
281
             0
  0
CLASS
  1
OBJECT_PTR
  2
CAseDLPNTableRecord
  3
"ASE-LPNTableRecord"
 90
        1
280
             0
281
             0
  0
CLASS
  1
LAYOUT
  2
AcDbLayout
  3
"AutoCAD 2000"
 90
        1
280
             0
281
             0
  0
CLASS
  1
PLOTSETTINGS
  2
AcDbPlotSettings
  3
"AutoCAD 2000"
 90
        1
280
             0
281
             0
  0
CLASS
  1
ACDBDICTIONARYWDFLT
  2
AcDbDictionaryWithDefault
  3
"AutoCAD 2000"
 90
        1
280
             0
281
             0
  0
CLASS
  1
ACDBPLACEHOLDER
  2
AcDbPlaceHolder
  3
"AutoCAD 2000"
 90
        1
280
             0
281
             0
  0
ENDSEC
  0
SECTION
  2
TABLES
  0
TABLE
  2
VPORT
  5
7
100
AcDbSymbolTable
 70
             1
  0
VPORT
  5
15
100
AcDbSymbolTableRecord
100
AcDbViewportTableRecord
  2
*ACTIVE
 70
             0
 10
0.0
 20
0.0
 11
1.0
 21
1.0
 12
-34.5
 22
146.46591460196549
 13
0.0
 23
0.0
 14
1.0
 24
1.0
 15
0.0
 25
0.0
 16
0.0
 26
0.0
 36
1.0
 17
0.0
 27
0.0
 37
0.0
 40
374.07498787567596
 41
1.60267857142857
 42
50.0
 43
0.0
 44
0.0
 50
0.0
 51
0.0
 71
             0
 72
           100
 73
             1
 74
             1
 75
             0
 76
             0
 77
             0
 78
             0
  0
ENDTAB
  0
TABLE
  2
LTYPE
  5
4
100
AcDbSymbolTable
 70
            11
  0
LTYPE
  5
11
100
AcDbSymbolTableRecord
100
AcDbLinetypeTableRecord
  2
BYBLOCK
 70
            64
  3

 72
            65
 73
             0
 40
0.0
  0
LTYPE
  5
12
100
AcDbSymbolTableRecord
100
AcDbLinetypeTableRecord
  2
BYLAYER
 70
            64
  3

 72
            65
 73
             0
 40
0.0
  0
LTYPE
  5
13
100
AcDbSymbolTableRecord
100
AcDbLinetypeTableRecord
  2
CONTINUOUS
 70
            64
  3
Solid line
 72
            65
 73
             0
 40
0.0
  0
LTYPE
  5
1D
100
AcDbSymbolTableRecord
100
AcDbLinetypeTableRecord
  2
DASHED
 70
            64
  3
Dashed
 72
            65
 73
             2
 40
15.0
 49
12.0
 74
             0
 49
-3.0
 74
             0
  0
LTYPE
  5
1E
100
AcDbSymbolTableRecord
100
AcDbLinetypeTableRecord
  2
DOTTED
 70
            64
  3
Dotted
 72
            65
 73
             2
 40
3.5
 49
0.5
 74
             0
 49
-3.0
 74
             0
  0
LTYPE
  5
1F
100
AcDbSymbolTableRecord
100
AcDbLinetypeTableRecord
  2
DOT_CENTER
 70
            64
  3
Dot_Center
 72
            65
 73
             4
 40
2.0
 49
1.25
 74
             0
 49
-0.25
 74
             0
 49
0.25
 74
             0
 49
-0.25
 74
             0
  0
LTYPE
  5
20
100
AcDbSymbolTableRecord
100
AcDbLinetypeTableRecord
  2
LONG_DASHED
 70
            64
  3
Long_Dashed
 72
            65
 73
             2
 40
2.0
 49
1.5
 74
             0
 49
-0.5
 74
             0
  0
LTYPE
  5
21
100
AcDbSymbolTableRecord
100
AcDbLinetypeTableRecord
  2
DASH_CENTER
 70
            64
  3
Dash_Center
 72
            65
 73
             4
 40
36.0
 49
24.0
 74
             0
 49
-3.0
 74
             0
 49
6.0
 74
             0
 49
-3.0
 74
             0
  0
LTYPE
  5
22
100
AcDbSymbolTableRecord
100
AcDbLinetypeTableRecord
  2
PHANTOM
 70
            64
  3
Phantom
 72
            65
 73
             6
 40
2.5
 49
1.25
 74
             0
 49
-0.25
 74
             0
 49
0.25
 74
             0
 49
-0.25
 74
             0
 49
0.25
 74
             0
 49
-0.25
 74
             0
  0
LTYPE
  5
23
100
AcDbSymbolTableRecord
100
AcDbLinetypeTableRecord
  2
CENTER_DASH_DASH
 70
            64
  3
Center_Dash_Dash
 72
            65
 73
             6
 40
22.0
 49
12.0
 74
             0
 49
-3.0
 74
             0
 49
0.5
 74
             0
 49
-3.0
 74
             0
 49
0.5
 74
             0
 49
-3.0
 74
             0
  0
LTYPE
  5
24
100
AcDbSymbolTableRecord
100
AcDbLinetypeTableRecord
  2
DASHDOT
 70
            64
  3
DASHDOT
 72
            65
 73
             4
 40
16.0
 49
10.0
 74
             0
 49
-3.0
 74
             0
 49
0.0
 74
             0
 49
-3.0
 74
             0
  0
ENDTAB
  0
TABLE
  2
LAYER
  5
2
100
AcDbSymbolTable
 70
             3
  0
LAYER
  5
14
100
AcDbSymbolTableRecord
100
AcDbLayerTableRecord
  2
0
 70
             0
 62
             7
  6
CONTINUOUS
  0
LAYER
  5
25
100
AcDbSymbolTableRecord
100
AcDbLayerTableRecord
  2
1
 70
             0
 62
             7
  6
CONTINUOUS
  0
LAYER
  5
26
100
AcDbSymbolTableRecord
100
AcDbLayerTableRecord
  2
LC-001-002-----0
 70
             0
 62
             7
  6
CONTINUOUS
  0
ENDTAB
  0
TABLE
  2
STYLE
  5
3
100
AcDbSymbolTable
 70
             2
  0
STYLE
  5
17
100
AcDbSymbolTableRecord
100
AcDbTextStyleTableRecord
  2
STANDARD
 70
             0
 40
0.0
 41
1.0
 50
0.0
 71
             0
 42
0.0
  3
txt
  4

  0
STYLE
  5
58
100
AcDbSymbolTableRecord
100
AcDbTextStyleTableRecord
  2
CONVERTER_1
 70
             0
 40
0.0
 41
0.9
 50
0.0
 71
             0
 42
0.0
  3
txt.shx
  4

  0
ENDTAB
  0
TABLE
  2
VIEW
  5
5
100
AcDbSymbolTable
 70
             0
  0
ENDTAB
  0
TABLE
  2
UCS
  5
6
100
AcDbSymbolTable
 70
             0
  0
ENDTAB
  0
TABLE
  2
APPID
  5
8
100
AcDbSymbolTable
 70
             1
  0
APPID
  5
16
100
AcDbSymbolTableRecord
100
AcDbRegAppTableRecord
  2
ACAD
 70
             0
  0
ENDTAB
  0
TABLE
  2
DIMSTYLE
  5
9
100
AcDbSymbolTable
 70
             4
  0
DIMSTYLE
105
18
100
AcDbSymbolTableRecord
100
AcDbDimStyleTableRecord
  2
STANDARD
 70
             0
  3

  4

  5

  6

  7

 40
1.0
 41
0.18
 42
0.0625
 43
0.38
 44
0.18
 45
0.0
 46
0.0
 47
0.0
 48
0.0
 71
             0
 72
             0
 73
             1
 74
             1
 75
             0
 76
             0
 77
             0
 78
             0
140
0.18
141
0.09
142
0.0
143
25.4
144
1.0
145
0.0
146
1.0
147
0.09
170
             0
171
             2
172
             0
173
             0
174
             0
175
             0
176
             0
177
             0
178
             0
270
             2
271
             4
272
             4
273
             2
274
             2
275
             0
280
             0
281
             0
282
             0
283
             1
284
             0
285
             0
286
             0
287
             0
288
             0
340
17
  0
DIMSTYLE
105
5B
100
AcDbSymbolTableRecord
100
AcDbDimStyleTableRecord
  2
ME10_DIM_0
 70
             0
  3
DN<>
  4

  5

  6

  7

 40
1.0
 41
12.0
 42
0.0
 43
0.38
 44
2.0
 45
0.0
 46
0.0
 47
0.0
 48
0.0
 71
             0
 72
             0
 73
             0
 74
             0
 75
             0
 76
             0
 77
             1
 78
             8
140
12.0
141
0.09
142
0.0
143
25.4
144
1.0
145
0.0
146
1.0
147
0.625
170
             0
171
             2
172
             0
173
             1
174
             0
175
             0
176
             4
177
             4
178
             1
270
             2
271
             2
272
             4
273
             2
274
             2
275
             0
280
             0
281
             0
282
             0
283
             1
284
             0
285
             0
286
             0
287
             0
288
             0
340
17
  0
DIMSTYLE
105
66
100
AcDbSymbolTableRecord
100
AcDbDimStyleTableRecord
  2
ME10_DIM_1
 70
             0
  3

  4

  5

  6

  7

 40
1.0
 41
12.0
 42
0.0
 43
0.38
 44
2.0
 45
0.0
 46
0.0
 47
0.0
 48
0.0
 71
             0
 72
             0
 73
             0
 74
             0
 75
             0
 76
             0
 77
             1
 78
             8
140
12.0
141
0.09
142
0.0
143
25.4
144
1.0
145
0.0
146
1.0
147
0.625
170
             0
171
             2
172
             0
173
             1
174
             0
175
             0
176
             4
177
             4
178
             1
270
             2
271
             2
272
             4
273
             2
274
             2
275
             0
280
             0
281
             0
282
             0
283
             1
284
             0
285
             0
286
             0
287
             0
288
             0
340
17
  0
DIMSTYLE
105
71
100
AcDbSymbolTableRecord
100
AcDbDimStyleTableRecord
  2
ME10_DIM_2
 70
             0
  3

  4

  5

  6

  7

 40
1.0
 41
12.0
 42
0.0
 43
0.38
 44
2.0
 45
0.0
 46
0.0
 47
0.0
 48
0.0
 71
             0
 72
             0
 73
             0
 74
             0
 75
             0
 76
             0
 77
             1
 78
             8
140
12.0
141
0.09
142
0.0
143
25.4
144
1.0
145
0.0
146
1.0
147
0.625
170
             0
171
             2
172
             0
173
             1
174
             0
175
             0
176
             4
177
             4
178
             1
270
             2
271
             2
272
             4
273
             2
274
             2
275
             0
280
             0
281
             0
282
             0
283
             1
284
             0
285
             0
286
             0
287
             0
288
             0
340
17
  0
ENDTAB
  0
TABLE
  2
BLOCK_RECORD
  5
1
100
AcDbSymbolTable
 70
             5
  0
BLOCK_RECORD
  5
A
100
AcDbSymbolTableRecord
100
AcDbBlockTableRecord
  2
*MODEL_SPACE
  0
BLOCK_RECORD
  5
B
100
AcDbSymbolTableRecord
100
AcDbBlockTableRecord
  2
*PAPER_SPACE
  0
BLOCK_RECORD
  5
27
100
AcDbSymbolTableRecord
100
AcDbBlockTableRecord
  2
HL_205_WC_BOGEN__1
  0
BLOCK_RECORD
  5
29
100
AcDbSymbolTableRecord
100
AcDbBlockTableRecord
  2
STECKRING
  0
BLOCK_RECORD
  5
51
100
AcDbSymbolTableRecord
100
AcDbBlockTableRecord
  2
*D2
  0
BLOCK_RECORD
  5
5D
100
AcDbSymbolTableRecord
100
AcDbBlockTableRecord
  2
*D3
  0
BLOCK_RECORD
  5
68
100
AcDbSymbolTableRecord
100
AcDbBlockTableRecord
  2
*D4
  0
ENDTAB
  0
ENDSEC
  0
SECTION
  2
BLOCKS
  0
BLOCK
  5
D
100
AcDbEntity
  8
0
100
AcDbBlockBegin
  2
*MODEL_SPACE
 70
             0
 10
0.0
 20
0.0
 30
0.0
  3
*MODEL_SPACE
  1

  0
ENDBLK
  5
E
100
AcDbEntity
  8
0
100
AcDbBlockEnd
  0
BLOCK
  5
F
100
AcDbEntity
 67
             1
  8
0
100
AcDbBlockBegin
  2
*PAPER_SPACE
 70
             0
 10
0.0
 20
0.0
 30
0.0
  3
*PAPER_SPACE
  1

  0
ENDBLK
  5
10
100
AcDbEntity
 67
             1
  8
0
100
AcDbBlockEnd
  0
BLOCK
  5
28
100
AcDbEntity
  8
0
100
AcDbBlockBegin
  2
HL_205_WC_BOGEN__1
 70
             0
 10
-19.0
 20
-249.03792651961399
 30
0.0
  3
HL_205_WC_BOGEN__1
  1

  0
ARC
  5
47
100
AcDbEntity
  8
LC-001-002-----0
  6
CONTINUOUS
 62
             7
100
AcDbCircle
 10
-87.5
 20
291.0
 40
0.99999999999998
100
AcDbArc
 50
-59.99999999999946
 51
0.0
  0
ARC
  5
46
100
AcDbEntity
  8
LC-001-002-----0
  6
CONTINUOUS
 62
             7
100
AcDbCircle
 10
-87.502386
 20
168.99830700000001
 40
1.00000000000009
100
AcDbArc
 50
-0.00030400000487
 51
59.84201756161041
  0
ARC
  5
45
100
AcDbEntity
  8
LC-001-002-----0
  6
CONTINUOUS
 62
             7
100
AcDbCircle
 10
-45.0
 20
192.5
 40
100.0
100
AcDbArc
 50
0.0
 51
90.0
  0
ARC
  5
44
100
AcDbEntity
  8
LC-001-002-----0
  6
DASHDOT
 62
             2
100
AcDbCircle
 10
-45.0
 20
185.0
 40
45.0
100
AcDbArc
 50
0.0
 51
90.0
  0
LINE
  5
43
100
AcDbEntity
  8
LC-001-002-----0
  6
CONTINUOUS
 62
             7
100
AcDbLine
 10
52.5
 20
0.0
 11
-52.5
 21
0.0
  0
LINE
  5
42
100
AcDbEntity
  8
LC-001-002-----0
  6
CONTINUOUS
 62
             7
100
AcDbLine
 10
-55.0
 20
3.0
 11
-55.0
 21
167.5
  0
LINE
  5
41
100
AcDbEntity
  8
LC-001-002-----0
  6
CONTINUOUS
 62
             7
100
AcDbLine
 10
-86.5
 20
292.5
 11
-86.5
 21
291.0
  0
LINE
  5
40
100
AcDbEntity
  8
LC-001-002-----0
  6
CONTINUOUS
 62
             7
100
AcDbLine
 10
-86.50239399999998
 20
167.498301
 11
-86.502386
 21
168.998301
  0
LINE
  5
3F
100
AcDbEntity
  8
LC-001-002-----0
  6
CONTINUOUS
 62
             7
100
AcDbLine
 10
-86.50239399999998
 20
167.5
 11
-55.0
 21
167.5
  0
LINE
  5
3E
100
AcDbEntity
  8
LC-001-002-----0
  6
DOT_CENTER
 62
             2
100
AcDbLine
 10
-60.0
 20
295.80000000000001
 11
-60.0
 21
285.5
  0
LINE
  5
3D
100
AcDbEntity
  8
LC-001-002-----0
  6
CONTINUOUS
 62
             7
100
AcDbLine
 10
-86.5
 20
292.5
 11
-45.0
 21
292.5
  0
LINE
  5
3C
100
AcDbEntity
  8
LC-001-002-----0
  6
CONTINUOUS
 62
             7
100
AcDbLine
 10
55.0
 20
3.0
 11
55.0
 21
192.5
  0
LINE
  5
3B
100
AcDbEntity
  8
LC-001-002-----0
  6
DASHDOT
 62
             2
100
AcDbLine
 10
-100.0
 20
230.0
 11
-45.0
 21
230.0
  0
LINE
  5
3A
100
AcDbEntity
  8
LC-001-002-----0
  6
DASHDOT
 62
             2
100
AcDbLine
 10
0.0
 20
185.0
 11
0.0
 21
0.0
  0
LINE
  5
39
100
AcDbEntity
  8
LC-001-002-----0
  6
CONTINUOUS
 62
             7
100
AcDbLine
 10
-55.0
 20
3.0
 11
-52.5
 21
0.0
  0
LINE
  5
38
100
AcDbEntity
  8
LC-001-002-----0
  6
CONTINUOUS
 62
             7
100
AcDbLine
 10
52.5
 20
0.0
 11
55.0
 21
3.0
  0
LINE
  5
37
100
AcDbEntity
  8
1
  6
CONTINUOUS
 62
             7
100
AcDbLine
 10
-55.0
 20
167.5
 11
-4.08831175456857
 21
218.41168824543141
  0
LINE
  5
36
100
AcDbEntity
  8
1
  6
CONTINUOUS
 62
             7
100
AcDbLine
 10
-55.0
 20
3.0
 11
55.0
 21
3.0
  0
LINE
  5
35
100
AcDbEntity
  8
1
  6
CONTINUOUS
 62
             7
100
AcDbLine
 10
-86.502386
 20
168.998301
 11
-86.502386
 21
291.0
  0
POINT
  5
34
100
AcDbEntity
  8
0
 62
             7
100
AcDbPoint
 10
-100.0
 20
292.5
  0
POINT
  5
33
100
AcDbEntity
  8
0
 62
             7
100
AcDbPoint
 10
-60.0
 20
287.80000000000001
  0
POINT
  5
32
100
AcDbEntity
  8
0
 62
             7
100
AcDbPoint
 10
-55.0
 20
3.0
  0
POINT
  5
31
100
AcDbEntity
  8
0
 62
             7
100
AcDbPoint
 10
55.0
 20
3.0
  0
POINT
  5
30
100
AcDbEntity
  8
0
 62
             7
100
AcDbPoint
 10
-100.0
 20
230.0
  0
POINT
  5
2F
100
AcDbEntity
  8
0
 62
             7
100
AcDbPoint
 10
-52.5
 20
0.0
  0
ENDBLK
  5
48
100
AcDbEntity
  8
0
100
AcDbBlockEnd
  0
BLOCK
  5
2A
100
AcDbEntity
  8
0
100
AcDbBlockBegin
  2
STECKRING
 70
             0
 10
-233.66171040081099
 20
-34.28642004957146
 30
0.0
  3
STECKRING
  1

  0
LINE
  5
4E
100
AcDbEntity
  8
LC-001-002-----0
  6
CONTINUOUS
 62
             7
100
AcDbLine
 10
-87.0
 20
292.5
 11
-87.0
 21
290.13397459621558
  0
LINE
  5
4D
100
AcDbEntity
  8
LC-001-002-----0
  6
CONTINUOUS
 62
             7
100
AcDbLine
 10
-87.0
 20
290.13397459621558
 11
-87.0
 21
167.5
  0
LINE
  5
4C
100
AcDbEntity
  8
LC-001-002-----0
  6
CONTINUOUS
 62
             7
100
AcDbLine
 10
-87.00239399999998
 20
167.49830399999999
 11
-87.002388
 21
168.69830400000001
  0
LINE
  5
4B
100
AcDbEntity
  8
LC-001-002-----0
  6
CONTINUOUS
 62
             7
100
AcDbLine
 10
-100.0
 20
167.5
 11
-87.00239399999998
 21
167.5
  0
LINE
  5
4A
100
AcDbEntity
  8
LC-001-002-----0
  6
CONTINUOUS
 62
             7
100
AcDbLine
 10
-100.0
 20
292.5
 11
-100.0
 21
167.5
  0
LINE
  5
49
100
AcDbEntity
  8
LC-001-002-----0
  6
CONTINUOUS
 62
             7
100
AcDbLine
 10
-100.0
 20
292.5
 11
-87.0
 21
292.5
  0
ENDBLK
  5
4F
100
AcDbEntity
  8
0
100
AcDbBlockEnd
  0
BLOCK
  5
52
100
AcDbEntity
  8
0
100
AcDbBlockBegin
  2
*D2
 70
             1
 10
0.0
 20
0.0
 30
0.0
  3
*D2
  1

  0
LINE
  5
53
100
AcDbEntity
  8
0
  6
CONTINUOUS
 62
             4
100
AcDbLine
 10
-54.99999999999999
 20
-21.56817079606901
 11
55.00000000000001
 21
-21.56817079606901
  0
LINE
  5
54
100
AcDbEntity
  8
0
  6
CONTINUOUS
 62
             4
100
AcDbLine
 10
55.00000000000001
 20
3.0
 11
55.00000000000001
 21
-23.56817079606901
  0
LINE
  5
55
100
AcDbEntity
  8
0
  6
CONTINUOUS
 62
             4
100
AcDbLine
 10
-54.99999999999999
 20
3.0
 11
-54.99999999999999
 21
-23.56817079606901
  0
SOLID
  5
56
100
AcDbEntity
  8
0
 62
             4
100
AcDbTrace
 10
-42.99999999999999
 20
-19.98834082502026
 11
-42.99999999999999
 21
-23.14800076711776
 12
-54.99999999999999
 22
-21.56817079606901
 13
-54.99999999999999
 23
-21.56817079606901
  0
SOLID
  5
57
100
AcDbEntity
  8
0
 62
             4
100
AcDbTrace
 10
43.00000000000001
 20
-23.14800076711776
 11
43.00000000000001
 21
-19.98834082502026
 12
55.00000000000001
 22
-21.56817079606901
 13
55.00000000000001
 23
-21.56817079606901
  0
MTEXT
  5
59
100
AcDbEntity
  8
0
 62
             1
100
AcDbMText
 10
-16.28502192565319
 20
-19.56821850173524
 30
0.0
 40
12.0
 41
0.0
 71
             7
 72
             1
  1
\C1;DN\C1;110
  7
CONVERTER_1
 11
0.99999999999706
 21
0.00000242406841
 31
0.0
  0
ENDBLK
  5
5A
100
AcDbEntity
  8
0
100
AcDbBlockEnd
  0
BLOCK
  5
5E
100
AcDbEntity
  8
0
100
AcDbBlockBegin
  2
*D3
 70
             1
 10
0.0
 20
0.0
 30
0.0
  3
*D3
  1

  0
LINE
  5
5F
100
AcDbEntity
  8
0
  6
CONTINUOUS
 62
             4
100
AcDbLine
 10
-100.0
 20
302.5
 11
-60.0
 21
302.5
  0
LINE
  5
60
100
AcDbEntity
  8
0
  6
CONTINUOUS
 62
             4
100
AcDbLine
 10
-100.0
 20
292.5
 11
-100.0
 21
304.5
  0
LINE
  5
61
100
AcDbEntity
  8
0
  6
CONTINUOUS
 62
             4
100
AcDbLine
 10
-60.0
 20
295.80000000000001
 11
-60.0
 21
304.5
  0
SOLID
  5
62
100
AcDbEntity
  8
0
 62
             4
100
AcDbTrace
 10
-88.0
 20
304.07982997104875
 11
-88.0
 21
300.92017002895125
 12
-100.0
 22
302.5
 13
-100.0
 23
302.5
  0
SOLID
  5
63
100
AcDbEntity
  8
0
 62
             4
100
AcDbTrace
 10
-72.0
 20
300.92017002895125
 11
-72.0
 21
304.07982997104875
 12
-60.0
 22
302.5
 13
-60.0
 23
302.5
  0
MTEXT
  5
64
100
AcDbEntity
  8
0
 62
             1
100
AcDbMText
 10
-90.00524148866288
 20
304.5
 30
0.0
 40
12.0
 41
0.0
 71
             7
 72
             1
  1
40
  7
CONVERTER_1
 11
0.99999999999706
 21
0.00000242406841
 31
0.0
  0
ENDBLK
  5
65
100
AcDbEntity
  8
0
100
AcDbBlockEnd
  0
BLOCK
  5
69
100
AcDbEntity
  8
0
100
AcDbBlockBegin
  2
*D4
 70
             1
 10
0.0
 20
0.0
 30
0.0
  3
*D4
  1

  0
LINE
  5
6A
100
AcDbEntity
  8
0
  6
CONTINUOUS
 62
             4
100
AcDbLine
 10
-110.0
 20
0.0
 11
-110.0
 21
230.0
  0
LINE
  5
6B
100
AcDbEntity
  8
0
  6
CONTINUOUS
 62
             4
100
AcDbLine
 10
-99.99999999999999
 20
230.0
 11
-112.0
 21
230.0
  0
LINE
  5
6C
100
AcDbEntity
  8
0
  6
CONTINUOUS
 62
             4
100
AcDbLine
 10
-52.49999999999999
 20
0.0
 11
-112.0
 21
0.0
  0
SOLID
  5
6D
100
AcDbEntity
  8
0
 62
             4
100
AcDbTrace
 10
-111.57982997104875
 20
12.0
 11
-108.42017002895125
 21
12.0
 12
-110.0
 22
0.0
 13
-110.0
 23
0.0
  0
SOLID
  5
6E
100
AcDbEntity
  8
0
 62
             4
100
AcDbTrace
 10
-108.42017002895125
 20
218.0
 11
-111.57982997104875
 21
218.0
 12
-110.0
 22
230.0
 13
-110.0
 23
230.0
  0
MTEXT
  5
6F
100
AcDbEntity
  8
0
 62
             1
100
AcDbMText
 10
-112.0
 20
98.45318030771999
 30
0.0
 40
12.0
 41
0.0
 71
             7
 72
             1
  1
230
  7
CONVERTER_1
 11
0.0
 21
1.0
 31
0.0
  0
ENDBLK
  5
70
100
AcDbEntity
  8
0
100
AcDbBlockEnd
  0
ENDSEC
  0
SECTION
  2
ENTITIES
  0
DIMENSION
  5
72
100
AcDbEntity
  8
1
100
AcDbDimension
  2
*D4
 10
-110.0
 20
0.0
 11
-118.0
 21
112.85318030772
 31
0.0
 53
90.00000000000003
  1
<>
  3
ME10_DIM_2
100
AcDbAlignedDimension
 13
-100.0
 23
230.0
 14
-52.5
 24
0.0
 50
90.00000000000003
100
AcDbRotatedDimension
  0
DIMENSION
  5
67
100
AcDbEntity
  8
1
100
AcDbDimension
  2
*D3
 10
-100.0
 20
302.5
 11
-81.00524148866288
 21
310.5
 31
0.0
 53
0.00013888888889
  1
<>
  3
ME10_DIM_1
100
AcDbAlignedDimension
 13
-60.0
 23
295.80000000000001
 14
-100.0
 24
292.5
100
AcDbRotatedDimension
  0
DIMENSION
  5
5C
100
AcDbEntity
  8
1
100
AcDbDimension
  2
*D2
 10
-54.99999999999999
 20
-21.56817079606901
 11
0.99497807428899
 21
-13.56817079606901
 31
0.0
 53
0.00013888888889
  1
DN110
  3
ME10_DIM_0
100
AcDbAlignedDimension
 13
55.0
 23
3.0
 14
-55.0
 24
3.0
100
AcDbRotatedDimension
  0
INSERT
  5
2D
100
AcDbEntity
  8
1
100
AcDbBlockReference
  2
HL_205_WC_BOGEN__1
 10
-19.0
 20
-249.03792651961399
  0
INSERT
  5
2E
100
AcDbEntity
  8
1
100
AcDbBlockReference
  2
STECKRING
 10
-233.66171040081099
 20
-34.28642004957146
  0
ENDSEC
  0
SECTION
  2
OBJECTS
  0
DICTIONARY
  5
19
100
AcDbDictionary
  3
ACAD_GROUP
350
1A
  3
ACAD_MLINESTYLE
350
1B
  0
DICTIONARY
  5
1A
102
{ACAD_REACTORS
330
19
102
}
100
AcDbDictionary
  0
DICTIONARY
  5
1B
102
{ACAD_REACTORS
330
19
102
}
100
AcDbDictionary
  3
STANDARD
350
1C
  0
MLINESTYLE
  5
1C
102
{ACAD_REACTORS
330
1B
102
}
100
AcDbMlineStyle
  2
STANDARD
 70
             0
  3

 62
             0
 51
90.0
 52
90.0
 71
             2
 49
0.5
 62
           256
  6
BYLAYER
 49
-0.5
 62
           256
  6
BYLAYER
  0
ENDSEC
  0
EOF
