  0
SECTION
  2
HEADER
  9
$ACADVER
  1
AC1014
  9
$ACADMAINTVER
 70
             0
  9
$DWGCODEPAGE
  3
ANSI_1252
  9
$INSBASE
 10
0.0
 20
0.0
 30
0.0
  9
$EXTMIN
 10
1.00000000000000E+20
 20
1.00000000000000E+20
 30
1.00000000000000E+20
  9
$EXTMAX
 10
-1.00000000000000E+20
 20
-1.00000000000000E+20
 30
-1.00000000000000E+20
  9
$LIMMIN
 10
0.0
 20
0.0
  9
$LIMMAX
 10
0.0
 20
0.0
  9
$ORTHOMODE
 70
             0
  9
$REGENMODE
 70
             1
  9
$FILLMODE
 70
             1
  9
$QTEXTMODE
 70
             0
  9
$MIRRTEXT
 70
             1
  9
$DRAGMODE
 70
             2
  9
$LTSCALE
 40
1.0
  9
$OSMODE
 70
             0
  9
$ATTMODE
 70
             1
  9
$TEXTSIZE
 40
0.2
  9
$TRACEWID
 40
0.05
  9
$TEXTSTYLE
  7
STANDARD
  9
$CLAYER
  8
0
  9
$CELTYPE
  6
CONTINUOUS
  9
$CECOLOR
 62
           256
  9
$CELTSCALE
 40
1.0
  9
$DELOBJ
 70
             1
  9
$DISPSILH
 70
             0
  9
$DIMSCALE
 40
1.0
  9
$DIMASZ
 40
0.18
  9
$DIMEXO
 40
0.0625
  9
$DIMDLI
 40
0.38
  9
$DIMRND
 40
0.0
  9
$DIMDLE
 40
0.0
  9
$DIMEXE
 40
0.18
  9
$DIMTP
 40
0.0
  9
$DIMTM
 40
0.0
  9
$DIMTXT
 40
0.18
  9
$DIMCEN
 40
0.09
  9
$DIMTSZ
 40
0.0
  9
$DIMTOL
 70
             0
  9
$DIMLIM
 70
             0
  9
$DIMTIH
 70
             1
  9
$DIMTOH
 70
             1
  9
$DIMSE1
 70
             0
  9
$DIMSE2
 70
             0
  9
$DIMTAD
 70
             0
  9
$DIMZIN
 70
             0
  9
$DIMBLK
  1

  9
$DIMASO
 70
             1
  9
$DIMSHO
 70
             1
  9
$DIMPOST
  1

  9
$DIMAPOST
  1

  9
$DIMALT
 70
             0
  9
$DIMALTD
 70
             2
  9
$DIMALTF
 40
25.4
  9
$DIMLFAC
 40
1.0
  9
$DIMTOFL
 70
             0
  9
$DIMTVP
 40
0.0
  9
$DIMTIX
 70
             0
  9
$DIMSOXD
 70
             0
  9
$DIMSAH
 70
             0
  9
$DIMBLK1
  1

  9
$DIMBLK2
  1

  9
$DIMSTYLE
  2
STANDARD
  9
$DIMCLRD
 70
             0
  9
$DIMCLRE
 70
             0
  9
$DIMCLRT
 70
             0
  9
$DIMTFAC
 40
1.0
  9
$DIMGAP
 40
0.09
  9
$DIMJUST
 70
             0
  9
$DIMSD1
 70
             0
  9
$DIMSD2
 70
             0
  9
$DIMTOLJ
 70
             1
  9
$DIMTZIN
 70
             0
  9
$DIMALTZ
 70
             0
  9
$DIMALTTZ
 70
             0
  9
$DIMFIT
 70
             3
  9
$DIMUPT
 70
             0
  9
$DIMUNIT
 70
             2
  9
$DIMDEC
 70
             4
  9
$DIMTDEC
 70
             4
  9
$DIMALTU
 70
             2
  9
$DIMALTTD
 70
             2
  9
$DIMTXSTY
  7
STANDARD
  9
$DIMAUNIT
 70
             0
  9
$LUNITS
 70
             2
  9
$LUPREC
 70
             4
  9
$SKETCHINC
 40
0.1
  9
$FILLETRAD
 40
0.0
  9
$AUNITS
 70
             0
  9
$AUPREC
 70
             0
  9
$MENU
  1
acad
  9
$ELEVATION
 40
0.0
  9
$PELEVATION
 40
0.0
  9
$THICKNESS
 40
0.0
  9
$LIMCHECK
 70
             0
  9
$BLIPMODE
 70
             1
  9
$CHAMFERA
 40
0.0
  9
$CHAMFERB
 40
0.0
  9
$CHAMFERC
 40
0.0
  9
$CHAMFERD
 40
0.0
  9
$SKPOLY
 70
             0
  9
$TDCREATE
 40
0.000000000
  9
$TDUPDATE
 40
0.000000000
  9
$TDINDWG
 40
0.0000000000
  9
$TDUSRTIMER
 40
0.0000000000
  9
$USRTIMER
 70
             1
  9
$ANGBASE
 50
0.0
  9
$ANGDIR
 70
             0
  9
$PDMODE
 70
             0
  9
$PDSIZE
 40
0.0
  9
$PLINEWID
 40
0.0
  9
$COORDS
 70
             0
  9
$SPLFRAME
 70
             0
  9
$SPLINETYPE
 70
             6
  9
$SPLINESEGS
 70
             8
  9
$ATTDIA
 70
             0
  9
$ATTREQ
 70
             1
  9
$HANDLING
 70
             1
  9
$HANDSEED
  5
ED
  9
$SURFTAB1
 70
             6
  9
$SURFTAB2
 70
             6
  9
$SURFTYPE
 70
             6
  9
$SURFU
 70
             6
  9
$SURFV
 70
             6
  9
$UCSNAME
  2

  9
$UCSORG
 10
0.0
 20
0.0
 30
0.0
  9
$UCSXDIR
 10
1.0
 20
0.0
 30
0.0
  9
$UCSYDIR
 10
0.0
 20
1.0
 30
0.0
  9
$PUCSNAME
  2

  9
$PUCSORG
 10
0.0
 20
0.0
 30
0.0
  9
$PUCSXDIR
 10
1.0
 20
0.0
 30
0.0
  9
$PUCSYDIR
 10
0.0
 20
1.0
 30
0.0
  9
$USERI1
 70
             0
  9
$USERI2
 70
             0
  9
$USERI3
 70
             0
  9
$USERI4
 70
             0
  9
$USERI5
 70
             0
  9
$USERR1
 40
11.6
  9
$USERR2
 40
0.0
  9
$USERR3
 40
0.0
  9
$USERR4
 40
0.0
  9
$USERR5
 40
0.0
  9
$WORLDVIEW
 70
             1
  9
$SHADEDGE
 70
             3
  9
$SHADEDIF
 70
            70
  9
$TILEMODE
 70
             1
  9
$MAXACTVP
 70
            16
  9
$PINSBASE
 10
0.0
 20
0.0
 30
0.0
  9
$PLIMCHECK
 70
             0
  9
$PEXTMIN
 10
1.00000000000000E+20
 20
1.00000000000000E+20
 30
1.00000000000000E+20
  9
$PEXTMAX
 10
-1.00000000000000E+20
 20
-1.00000000000000E+20
 30
-1.00000000000000E+20
  9
$PLIMMIN
 10
0.0
 20
0.0
  9
$PLIMMAX
 10
12.0
 20
9.0
  9
$UNITMODE
 70
             0
  9
$VISRETAIN
 70
             0
  9
$PLINEGEN
 70
             1
  9
$PSLTSCALE
 70
             0
  9
$TREEDEPTH
 70
          3020
  9
$PICKSTYLE
 70
             1
  9
$CMLSTYLE
  2
STANDARD
  9
$CMLJUST
 70
             0
  9
$CMLSCALE
 40
1.0
  9
$PROXYGRAPHICS
 70
             0
  9
$MEASUREMENT
 70
             1
  0
ENDSEC
  0
SECTION
  2
CLASSES
  0
CLASS
  1
LWPOLYLINE
  2
AcDbPolyline
  3
"AutoCAD"
 90
        0
280
             0
281
             1
  0
CLASS
  1
IMAGE
  2
AcDbRasterImage
  3
ISM
 90
      127
280
             0
281
             1
  0
CLASS
  1
OLE2FRAME
  2
AcDbOle2Frame
  3
""
 90
        0
280
             0
281
             1
  0
CLASS
  1
HATCH
  2
AcDbHatch
  3
"ACAD_SEDONA"
 90
        0
280
             0
281
             1
  0
CLASS
  1
DICTIONARYVAR
  2
AcDbDictionaryVar
  3
"AutoCAD"
 90
        0
280
             0
281
             0
  0
CLASS
  1
RASTERVARIABLES
  2
AcDbRasterVariables
  3
ISM
 90
        0
280
             0
281
             0
  0
CLASS
  1
IMAGEDEF
  2
AcDbRasterImageDef
  3
ISM
 90
        0
280
             0
281
             0
  0
CLASS
  1
IMAGEDEF_REACTOR
  2
AcDbRasterImageDefReactor
  3
ISM
 90
        1
280
             0
281
             0
  0
CLASS
  1
IDBUFFER
  2
AcDbIdBuffer
  3
"Acad"
 90
        0
280
             0
281
             0
  0
CLASS
  1
SPATIAL_FILTER
  2
AcDbSpatialFilter
  3
"Acad"
 90
        0
280
             0
281
             0
  0
CLASS
  1
XRECORD
  2
AcDbXrecord
  3
"<Built In>"
 90
        0
280
             0
281
             0
  0
CLASS
  1
SORTENTSTABLE
  2
AcDbSortentsTable
  3
"AutoCAD"
 90
        0
280
             0
281
             0
  0
CLASS
  1
LAYER_INDEX
  2
AcDbLayerIndex
  3
"Acad"
 90
        0
280
             0
281
             0
  0
CLASS
  1
SPATIAL_INDEX
  2
AcDbSpatialIndex
  3
"Acad"
 90
        0
280
             0
281
             0
  0
CLASS
  1
OBJECT_PTR
  2
CAseDLPNTableRecord
  3
"ASE-LPNTableRecord"
 90
        1
280
             0
281
             0
  0
CLASS
  1
LAYOUT
  2
AcDbLayout
  3
"AutoCAD 2000"
 90
        1
280
             0
281
             0
  0
CLASS
  1
PLOTSETTINGS
  2
AcDbPlotSettings
  3
"AutoCAD 2000"
 90
        1
280
             0
281
             0
  0
CLASS
  1
ACDBDICTIONARYWDFLT
  2
AcDbDictionaryWithDefault
  3
"AutoCAD 2000"
 90
        1
280
             0
281
             0
  0
CLASS
  1
ACDBPLACEHOLDER
  2
AcDbPlaceHolder
  3
"AutoCAD 2000"
 90
        1
280
             0
281
             0
  0
ENDSEC
  0
SECTION
  2
TABLES
  0
TABLE
  2
VPORT
  5
7
100
AcDbSymbolTable
 70
             1
  0
VPORT
  5
15
100
AcDbSymbolTableRecord
100
AcDbViewportTableRecord
  2
*ACTIVE
 70
             0
 10
0.0
 20
0.0
 11
1.0
 21
1.0
 12
-149.11628203709603
 22
69.09491493523889
 13
0.0
 23
0.0
 14
1.0
 24
1.0
 15
0.0
 25
0.0
 16
0.0
 26
0.0
 36
1.0
 17
0.0
 27
0.0
 37
0.0
 40
323.1912473930646
 41
1.60267857142857
 42
50.0
 43
0.0
 44
0.0
 50
0.0
 51
0.0
 71
             0
 72
           100
 73
             1
 74
             1
 75
             0
 76
             0
 77
             0
 78
             0
  0
ENDTAB
  0
TABLE
  2
LTYPE
  5
4
100
AcDbSymbolTable
 70
            11
  0
LTYPE
  5
11
100
AcDbSymbolTableRecord
100
AcDbLinetypeTableRecord
  2
BYBLOCK
 70
            64
  3

 72
            65
 73
             0
 40
0.0
  0
LTYPE
  5
12
100
AcDbSymbolTableRecord
100
AcDbLinetypeTableRecord
  2
BYLAYER
 70
            64
  3

 72
            65
 73
             0
 40
0.0
  0
LTYPE
  5
13
100
AcDbSymbolTableRecord
100
AcDbLinetypeTableRecord
  2
CONTINUOUS
 70
            64
  3
Solid line
 72
            65
 73
             0
 40
0.0
  0
LTYPE
  5
1D
100
AcDbSymbolTableRecord
100
AcDbLinetypeTableRecord
  2
DASHED
 70
            64
  3
Dashed
 72
            65
 73
             2
 40
15.0
 49
12.0
 74
             0
 49
-3.0
 74
             0
  0
LTYPE
  5
1E
100
AcDbSymbolTableRecord
100
AcDbLinetypeTableRecord
  2
DOTTED
 70
            64
  3
Dotted
 72
            65
 73
             2
 40
3.5
 49
0.5
 74
             0
 49
-3.0
 74
             0
  0
LTYPE
  5
1F
100
AcDbSymbolTableRecord
100
AcDbLinetypeTableRecord
  2
DOT_CENTER
 70
            64
  3
Dot_Center
 72
            65
 73
             4
 40
2.0
 49
1.25
 74
             0
 49
-0.25
 74
             0
 49
0.25
 74
             0
 49
-0.25
 74
             0
  0
LTYPE
  5
20
100
AcDbSymbolTableRecord
100
AcDbLinetypeTableRecord
  2
LONG_DASHED
 70
            64
  3
Long_Dashed
 72
            65
 73
             2
 40
2.0
 49
1.5
 74
             0
 49
-0.5
 74
             0
  0
LTYPE
  5
21
100
AcDbSymbolTableRecord
100
AcDbLinetypeTableRecord
  2
DASH_CENTER
 70
            64
  3
Dash_Center
 72
            65
 73
             4
 40
36.0
 49
24.0
 74
             0
 49
-3.0
 74
             0
 49
6.0
 74
             0
 49
-3.0
 74
             0
  0
LTYPE
  5
22
100
AcDbSymbolTableRecord
100
AcDbLinetypeTableRecord
  2
PHANTOM
 70
            64
  3
Phantom
 72
            65
 73
             6
 40
2.5
 49
1.25
 74
             0
 49
-0.25
 74
             0
 49
0.25
 74
             0
 49
-0.25
 74
             0
 49
0.25
 74
             0
 49
-0.25
 74
             0
  0
LTYPE
  5
23
100
AcDbSymbolTableRecord
100
AcDbLinetypeTableRecord
  2
CENTER_DASH_DASH
 70
            64
  3
Center_Dash_Dash
 72
            65
 73
             6
 40
22.0
 49
12.0
 74
             0
 49
-3.0
 74
             0
 49
0.5
 74
             0
 49
-3.0
 74
             0
 49
0.5
 74
             0
 49
-3.0
 74
             0
  0
LTYPE
  5
24
100
AcDbSymbolTableRecord
100
AcDbLinetypeTableRecord
  2
DASHDOT
 70
            64
  3
DASHDOT
 72
            65
 73
             4
 40
16.0
 49
10.0
 74
             0
 49
-3.0
 74
             0
 49
0.0
 74
             0
 49
-3.0
 74
             0
  0
ENDTAB
  0
TABLE
  2
LAYER
  5
2
100
AcDbSymbolTable
 70
             4
  0
LAYER
  5
14
100
AcDbSymbolTableRecord
100
AcDbLayerTableRecord
  2
0
 70
             0
 62
             7
  6
CONTINUOUS
  0
LAYER
  5
25
100
AcDbSymbolTableRecord
100
AcDbLayerTableRecord
  2
1
 70
             0
 62
             7
  6
CONTINUOUS
  0
LAYER
  5
26
100
AcDbSymbolTableRecord
100
AcDbLayerTableRecord
  2
LC-001-002-----0
 70
             0
 62
             7
  6
CONTINUOUS
  0
LAYER
  5
27
100
AcDbSymbolTableRecord
100
AcDbLayerTableRecord
  2
LC-003-002-RND-0
 70
             0
 62
             7
  6
CONTINUOUS
  0
ENDTAB
  0
TABLE
  2
STYLE
  5
3
100
AcDbSymbolTable
 70
             2
  0
STYLE
  5
17
100
AcDbSymbolTableRecord
100
AcDbTextStyleTableRecord
  2
STANDARD
 70
             0
 40
0.0
 41
1.0
 50
0.0
 71
             0
 42
0.0
  3
txt
  4

  0
STYLE
  5
99
100
AcDbSymbolTableRecord
100
AcDbTextStyleTableRecord
  2
CONVERTER_1
 70
             0
 40
0.0
 41
0.9
 50
0.0
 71
             0
 42
0.0
  3
txt.shx
  4

  0
ENDTAB
  0
TABLE
  2
VIEW
  5
5
100
AcDbSymbolTable
 70
             0
  0
ENDTAB
  0
TABLE
  2
UCS
  5
6
100
AcDbSymbolTable
 70
             0
  0
ENDTAB
  0
TABLE
  2
APPID
  5
8
100
AcDbSymbolTable
 70
             1
  0
APPID
  5
16
100
AcDbSymbolTableRecord
100
AcDbRegAppTableRecord
  2
ACAD
 70
             0
  0
ENDTAB
  0
TABLE
  2
DIMSTYLE
  5
9
100
AcDbSymbolTable
 70
             9
  0
DIMSTYLE
105
18
100
AcDbSymbolTableRecord
100
AcDbDimStyleTableRecord
  2
STANDARD
 70
             0
  3

  4

  5

  6

  7

 40
1.0
 41
0.18
 42
0.0625
 43
0.38
 44
0.18
 45
0.0
 46
0.0
 47
0.0
 48
0.0
 71
             0
 72
             0
 73
             1
 74
             1
 75
             0
 76
             0
 77
             0
 78
             0
140
0.18
141
0.09
142
0.0
143
25.4
144
1.0
145
0.0
146
1.0
147
0.09
170
             0
171
             2
172
             0
173
             0
174
             0
175
             0
176
             0
177
             0
178
             0
270
             2
271
             4
272
             4
273
             2
274
             2
275
             0
280
             0
281
             0
282
             0
283
             1
284
             0
285
             0
286
             0
287
             0
288
             0
340
17
  0
DIMSTYLE
105
9C
100
AcDbSymbolTableRecord
100
AcDbDimStyleTableRecord
  2
ME10_DIM_0
 70
             0
  3
DN<>
  4

  5

  6

  7

 40
1.0
 41
12.0
 42
0.0
 43
0.38
 44
2.0
 45
0.0
 46
0.0
 47
0.0
 48
0.0
 71
             0
 72
             0
 73
             0
 74
             0
 75
             0
 76
             0
 77
             1
 78
             8
140
12.0
141
0.09
142
0.0
143
25.4
144
1.0
145
0.0
146
1.0
147
0.625
170
             0
171
             2
172
             0
173
             1
174
             0
175
             0
176
             4
177
             4
178
             1
270
             2
271
             2
272
             4
273
             2
274
             2
275
             0
280
             0
281
             0
282
             0
283
             1
284
             0
285
             0
286
             0
287
             0
288
             0
340
17
  0
DIMSTYLE
105
A7
100
AcDbSymbolTableRecord
100
AcDbDimStyleTableRecord
  2
ME10_DIM_1
 70
             0
  3
DN<>
  4

  5

  6

  7

 40
1.0
 41
12.0
 42
0.0
 43
0.38
 44
2.0
 45
0.0
 46
0.0
 47
0.0
 48
0.0
 71
             0
 72
             0
 73
             0
 74
             0
 75
             0
 76
             0
 77
             1
 78
             8
140
12.0
141
0.09
142
0.0
143
25.4
144
1.0
145
0.0
146
1.0
147
0.625
170
             0
171
             2
172
             0
173
             1
174
             0
175
             0
176
             4
177
             4
178
             1
270
             2
271
             2
272
             4
273
             2
274
             2
275
             0
280
             0
281
             0
282
             0
283
             1
284
             0
285
             0
286
             0
287
             0
288
             0
340
17
  0
DIMSTYLE
105
B2
100
AcDbSymbolTableRecord
100
AcDbDimStyleTableRecord
  2
ME10_DIM_2
 70
             0
  3
DN<>
  4

  5

  6

  7

 40
1.0
 41
12.0
 42
0.0
 43
0.38
 44
2.0
 45
0.0
 46
0.0
 47
0.0
 48
0.0
 71
             0
 72
             0
 73
             0
 74
             0
 75
             0
 76
             0
 77
             1
 78
             8
140
12.0
141
0.09
142
0.0
143
25.4
144
1.0
145
0.0
146
1.0
147
0.625
170
             0
171
             2
172
             0
173
             1
174
             0
175
             0
176
             4
177
             4
178
             1
270
             2
271
             2
272
             4
273
             2
274
             2
275
             0
280
             0
281
             0
282
             0
283
             1
284
             0
285
             0
286
             0
287
             0
288
             0
340
17
  0
DIMSTYLE
105
BD
100
AcDbSymbolTableRecord
100
AcDbDimStyleTableRecord
  2
ME10_DIM_3
 70
             0
  3
DN<>
  4

  5

  6

  7

 40
1.0
 41
12.0
 42
0.0
 43
0.38
 44
2.0
 45
0.0
 46
0.0
 47
0.0
 48
0.0
 71
             0
 72
             0
 73
             0
 74
             0
 75
             0
 76
             0
 77
             1
 78
             8
140
12.0
141
0.09
142
0.0
143
25.4
144
1.0
145
0.0
146
1.0
147
0.625
170
             0
171
             2
172
             0
173
             1
174
             0
175
             0
176
             4
177
             4
178
             1
270
             2
271
             2
272
             4
273
             2
274
             2
275
             0
280
             0
281
             0
282
             0
283
             1
284
             0
285
             0
286
             0
287
             0
288
             0
340
17
  0
DIMSTYLE
105
C9
100
AcDbSymbolTableRecord
100
AcDbDimStyleTableRecord
  2
ME10_DIM_4
 70
             0
  3
-145
  4

  5

  6

  7

 40
1.0
 41
12.0
 42
0.0
 43
0.38
 44
2.0
 45
0.0
 46
0.0
 47
0.0
 48
0.0
 71
             0
 72
             0
 73
             0
 74
             0
 75
             0
 76
             0
 77
             1
 78
             8
140
12.0
141
0.09
142
0.0
143
25.4
144
1.0
145
0.0
146
1.0
147
0.625
170
             0
171
             2
172
             0
173
             1
174
             0
175
             0
176
             4
177
             4
178
             1
270
             2
271
             0
272
             4
273
             2
274
             2
275
             0
280
             0
281
             0
282
             0
283
             1
284
             0
285
             0
286
             0
287
             0
288
             0
340
17
  0
DIMSTYLE
105
D4
100
AcDbSymbolTableRecord
100
AcDbDimStyleTableRecord
  2
ME10_DIM_5
 70
             0
  3

  4

  5

  6

  7

 40
1.0
 41
12.0
 42
0.0
 43
0.38
 44
2.0
 45
0.0
 46
0.0
 47
0.0
 48
0.0
 71
             0
 72
             0
 73
             0
 74
             0
 75
             0
 76
             0
 77
             1
 78
             8
140
12.0
141
0.09
142
0.0
143
25.4
144
1.0
145
0.0
146
1.0
147
0.625
170
             0
171
             2
172
             0
173
             1
174
             0
175
             0
176
             4
177
             4
178
             1
270
             2
271
             0
272
             4
273
             2
274
             2
275
             0
280
             0
281
             0
282
             0
283
             1
284
             0
285
             0
286
             0
287
             0
288
             0
340
17
  0
DIMSTYLE
105
DF
100
AcDbSymbolTableRecord
100
AcDbDimStyleTableRecord
  2
ME10_DIM_6
 70
             0
  3
-135
  4

  5

  6

  7

 40
1.0
 41
12.0
 42
0.0
 43
0.38
 44
2.0
 45
0.0
 46
0.0
 47
0.0
 48
0.0
 71
             0
 72
             0
 73
             0
 74
             0
 75
             0
 76
             0
 77
             1
 78
             8
140
12.0
141
0.09
142
0.0
143
25.4
144
1.0
145
0.0
146
1.0
147
0.625
170
             0
171
             2
172
             0
173
             1
174
             0
175
             0
176
             4
177
             4
178
             1
270
             2
271
             0
272
             4
273
             2
274
             2
275
             0
280
             0
281
             0
282
             0
283
             1
284
             0
285
             0
286
             0
287
             0
288
             0
340
17
  0
DIMSTYLE
105
EA
100
AcDbSymbolTableRecord
100
AcDbDimStyleTableRecord
  2
ME10_DIM_7
 70
             0
  3

  4

  5

  6

  7

 40
1.0
 41
12.0
 42
0.0
 43
0.38
 44
2.0
 45
0.0
 46
0.0
 47
0.0
 48
0.0
 71
             0
 72
             0
 73
             0
 74
             0
 75
             0
 76
             0
 77
             1
 78
             8
140
12.0
141
0.09
142
0.0
143
25.4
144
1.0
145
0.0
146
1.0
147
0.625
170
             0
171
             2
172
             0
173
             1
174
             0
175
             0
176
             4
177
             4
178
             1
270
             2
271
             0
272
             4
273
             2
274
             2
275
             0
280
             0
281
             0
282
             0
283
             1
284
             0
285
             0
286
             0
287
             0
288
             0
340
17
  0
ENDTAB
  0
TABLE
  2
BLOCK_RECORD
  5
1
100
AcDbSymbolTable
 70
             9
  0
BLOCK_RECORD
  5
A
100
AcDbSymbolTableRecord
100
AcDbBlockTableRecord
  2
*MODEL_SPACE
  0
BLOCK_RECORD
  5
B
100
AcDbSymbolTableRecord
100
AcDbBlockTableRecord
  2
*PAPER_SPACE
  0
BLOCK_RECORD
  5
28
100
AcDbSymbolTableRecord
100
AcDbBlockTableRecord
  2
HL_227_WAND_WC-ANSCHLUT__1
  0
BLOCK_RECORD
  5
92
100
AcDbSymbolTableRecord
100
AcDbBlockTableRecord
  2
*D1
  0
BLOCK_RECORD
  5
9E
100
AcDbSymbolTableRecord
100
AcDbBlockTableRecord
  2
*D2
  0
BLOCK_RECORD
  5
A9
100
AcDbSymbolTableRecord
100
AcDbBlockTableRecord
  2
*D3
  0
BLOCK_RECORD
  5
B4
100
AcDbSymbolTableRecord
100
AcDbBlockTableRecord
  2
*D4
  0
BLOCK_RECORD
  5
BF
100
AcDbSymbolTableRecord
100
AcDbBlockTableRecord
  2
*D5
  0
BLOCK_RECORD
  5
CB
100
AcDbSymbolTableRecord
100
AcDbBlockTableRecord
  2
*D6
  0
BLOCK_RECORD
  5
D6
100
AcDbSymbolTableRecord
100
AcDbBlockTableRecord
  2
*D7
  0
BLOCK_RECORD
  5
E1
100
AcDbSymbolTableRecord
100
AcDbBlockTableRecord
  2
*D8
  0
ENDTAB
  0
ENDSEC
  0
SECTION
  2
BLOCKS
  0
BLOCK
  5
D
100
AcDbEntity
  8
0
100
AcDbBlockBegin
  2
*MODEL_SPACE
 70
             0
 10
0.0
 20
0.0
 30
0.0
  3
*MODEL_SPACE
  1

  0
ENDBLK
  5
E
100
AcDbEntity
  8
0
100
AcDbBlockEnd
  0
BLOCK
  5
F
100
AcDbEntity
 67
             1
  8
0
100
AcDbBlockBegin
  2
*PAPER_SPACE
 70
             0
 10
0.0
 20
0.0
 30
0.0
  3
*PAPER_SPACE
  1

  0
ENDBLK
  5
10
100
AcDbEntity
 67
             1
  8
0
100
AcDbBlockEnd
  0
BLOCK
  5
29
100
AcDbEntity
  8
0
100
AcDbBlockBegin
  2
HL_227_WAND_WC-ANSCHLUT__1
 70
             0
 10
-57.26993368349699
 20
-234.45263706449961
 30
0.0
  3
HL_227_WAND_WC-ANSCHLUT__1
  1

  0
CIRCLE
  5
8F
100
AcDbEntity
  8
1
  6
CONTINUOUS
 62
             7
100
AcDbCircle
 10
-288.45740000000012
 20
130.17565399999989
 40
45.00000000000003
  0
ARC
  5
8E
100
AcDbEntity
  8
LC-003-002-RND-0
  6
CONTINUOUS
 62
             7
100
AcDbCircle
 10
-307.49614800000012
 20
-21.5203040000001
 40
1.00000000000007
100
AcDbArc
 50
6.10851299997682
 51
59.99999999998969
  0
ARC
  5
8D
100
AcDbEntity
  8
LC-003-002-RND-0
  6
CONTINUOUS
 62
             7
100
AcDbCircle
 10
-304.51318200000009
 20
-21.20106800000011
 40
2.00000000000033
100
AcDbArc
 50
-176.1255530000071
 51
-90.0
  0
ARC
  5
8C
100
AcDbEntity
  8
LC-003-002-RND-0
  6
CONTINUOUS
 62
             7
100
AcDbCircle
 10
-145.5
 20
65.0
 40
9.99999999999946
100
AcDbArc
 50
-135.00000000000011
 51
-90.0
  0
ARC
  5
8B
100
AcDbEntity
  8
LC-003-002-RND-0
  6
CONTINUOUS
 62
             7
100
AcDbCircle
 10
-168.90306700000011
 20
8.5
 40
43.50000000000025
100
AcDbArc
 50
-134.99999999999997
 51
-90.0
  0
ARC
  5
8A
100
AcDbEntity
  8
LC-003-002-RND-0
  6
CONTINUOUS
 62
             7
100
AcDbCircle
 10
-292.51318200000009
 20
-19.20106800000011
 40
1.0
100
AcDbArc
 50
90.0
 51
180.0
  0
ARC
  5
89
100
AcDbEntity
  8
LC-003-002-RND-0
  6
CONTINUOUS
 62
             7
100
AcDbCircle
 10
-295.51318200000009
 20
-21.20106800000011
 40
2.0
100
AcDbArc
 50
-90.0
 51
0.0
  0
ARC
  5
88
100
AcDbEntity
  8
LC-003-002-RND-0
  6
CONTINUOUS
 62
             7
100
AcDbCircle
 10
-304.51382400000011
 20
41.19909899999993
 40
2.00000000000018
100
AcDbArc
 50
90.00119800000243
 51
179.52504599998989
  0
ARC
  5
87
100
AcDbEntity
  8
LC-003-002-RND-0
  6
CONTINUOUS
 62
             7
100
AcDbCircle
 10
-307.0137380000001
 20
41.21982299999991
 40
0.49999999999952
100
AcDbArc
 50
-59.99880199999175
 51
-0.47495399994294
  0
ARC
  5
86
100
AcDbEntity
  8
LC-003-002-RND-0
  6
CONTINUOUS
 62
             7
100
AcDbCircle
 10
-310.6477670000001
 20
39.69897099999991
 40
0.99999999999951
100
AcDbArc
 50
-89.99880200002525
 51
-59.99880200002025
  0
ARC
  5
85
100
AcDbEntity
  8
LC-003-002-RND-0
  6
CONTINUOUS
 62
             7
100
AcDbCircle
 10
-292.51379200000008
 20
39.19934999999998
 40
0.99999999999963
100
AcDbArc
 50
-179.99880200002485
 51
-89.99880200002525
  0
ARC
  5
84
100
AcDbEntity
  8
LC-003-002-RND-0
  6
CONTINUOUS
 62
             7
100
AcDbCircle
 10
-284.0233760000001
 20
53.19247299999995
 40
3.99999999999972
100
AcDbArc
 50
-134.99999999999991
 51
-45.00000000000008
  0
ARC
  5
83
100
AcDbEntity
  8
LC-003-002-RND-0
  6
CONTINUOUS
 62
             7
100
AcDbCircle
 10
-211.47422000000009
 20
125.7416289999999
 40
3.99999999999972
100
AcDbArc
 50
-45.00000000000015
 51
45.0
  0
ARC
  5
82
100
AcDbEntity
  8
LC-003-002-RND-0
  6
CONTINUOUS
 62
             7
100
AcDbCircle
 10
-218.19173400000011
 20
133.87335699999991
 40
3.00000000000051
100
AcDbArc
 50
45.0
 51
129.26082999999201
  0
ARC
  5
81
100
AcDbEntity
  8
LC-003-002-RND-0
  6
CONTINUOUS
 62
             7
100
AcDbCircle
 10
-295.25219600000008
 20
62.44139399999995
 40
1.00000000000004
100
AcDbArc
 50
-39.26082999996618
 51
44.99999999999942
  0
ARC
  5
80
100
AcDbEntity
  8
LC-003-002-RND-0
  6
CONTINUOUS
 62
             7
100
AcDbCircle
 10
-292.15510300000011
 20
59.909987
 40
2.99999999999992
100
AcDbArc
 50
140.73917000000802
 51
-135.0
  0
ARC
  5
7F
100
AcDbEntity
  8
LC-003-002-RND-0
  6
CONTINUOUS
 62
             7
100
AcDbCircle
 10
-310.64715700000011
 20
-19.70106800000011
 40
0.99999999999972
100
AcDbArc
 50
59.99999999999061
 51
90.0
  0
ARC
  5
7E
100
AcDbEntity
  8
LC-003-002-RND-0
  6
CONTINUOUS
 62
             7
100
AcDbCircle
 10
-295.51382400000011
 20
41.19928699999991
 40
2.00000000000018
100
AcDbArc
 50
0.00119800000406
 51
90.00119800000243
  0
ARC
  5
7D
100
AcDbEntity
  8
LC-001-002-----0
  6
CONTINUOUS
 62
             7
100
AcDbCircle
 10
-288.45740000000012
 20
130.17565399999989
 40
51.70000000000002
100
AcDbArc
 50
0.0
 51
17.87470517514175
  0
ARC
  5
7C
100
AcDbEntity
  8
LC-001-002-----0
  6
CONTINUOUS
 62
             7
100
AcDbCircle
 10
-288.45740000000012
 20
130.17565399999989
 40
51.70000000000001
100
AcDbArc
 50
-7.59892063403163
 51
0.0
  0
ARC
  5
7B
100
AcDbEntity
  8
LC-001-002-----0
  6
CONTINUOUS
 62
             7
100
AcDbCircle
 10
-288.45740000000012
 20
130.17565399999989
 40
51.70000000000004
100
AcDbArc
 50
17.87470517514175
 51
-82.4010600734771
  0
ARC
  5
7A
100
AcDbEntity
  8
LC-001-002-----0
  6
CONTINUOUS
 62
             7
100
AcDbCircle
 10
-288.45740000000012
 20
130.17565399999989
 40
51.70000000000006
100
AcDbArc
 50
-13.47702716782205
 51
-7.59892063403163
  0
ARC
  5
79
100
AcDbEntity
  8
LC-001-002-----0
  6
CONTINUOUS
 62
             7
100
AcDbCircle
 10
-288.45740000000012
 20
130.17565399999989
 40
51.70000000000007
100
AcDbArc
 50
-76.5229535396867
 51
-13.47702716782205
  0
ARC
  5
78
100
AcDbEntity
  8
LC-001-002-----0
  6
CONTINUOUS
 62
             7
100
AcDbCircle
 10
-288.45740000000012
 20
130.17565399999989
 40
51.70000000000004
100
AcDbArc
 50
-82.4010600734771
 51
-76.5229535396867
  0
ARC
  5
77
100
AcDbEntity
  8
1
  6
CONTINUOUS
 62
             7
100
AcDbCircle
 10
-278.48061959982778
 20
-35.07994813186551
 40
73.99999999999997
100
AcDbArc
 50
16.1229701895109
 51
82.00041194799331
  0
LINE
  5
76
100
AcDbEntity
  8
LC-001-002-----0
  6
CONTINUOUS
 62
             7
100
AcDbLine
 10
-67.00000000000003
 20
-55.0
 11
2.0
 21
-55.0
  0
LINE
  5
75
100
AcDbEntity
  8
LC-001-002-----0
  6
CONTINUOUS
 62
             7
100
AcDbLine
 10
-306.99614800000012
 20
-20.65427800000012
 11
-310.14715700000011
 21
-18.83504300000001
  0
LINE
  5
74
100
AcDbEntity
  8
LC-001-002-----0
  6
CONTINUOUS
 62
             7
100
AcDbLine
 10
-293.51318200000009
 20
-19.20106800000011
 11
-293.51318200000009
 21
-21.20106800000011
  0
LINE
  5
73
100
AcDbEntity
  8
LC-001-002-----0
  6
CONTINUOUS
 62
             7
100
AcDbLine
 10
-145.5
 20
55.0
 11
2.0
 21
55.0
  0
LINE
  5
72
100
AcDbEntity
  8
LC-001-002-----0
  6
CONTINUOUS
 62
             7
100
AcDbLine
 10
-168.90306700000011
 20
-35.0
 11
-78.54700600000001
 21
-35.0
  0
LINE
  5
71
100
AcDbEntity
  8
LC-001-002-----0
  6
CONTINUOUS
 62
             7
100
AcDbLine
 10
-310.64715700000011
 20
-18.70106800000011
 11
-312.51318200000009
 21
-18.70106800000011
  0
LINE
  5
70
100
AcDbEntity
  8
LC-001-002-----0
  6
CONTINUOUS
 62
             7
100
AcDbLine
 10
2.0
 20
55.0
 11
2.0
 21
-55.0
  0
LINE
  5
6F
100
AcDbEntity
  8
LC-001-002-----0
  6
CONTINUOUS
 62
             7
100
AcDbLine
 10
-295.51318200000009
 20
-23.20106800000011
 11
-304.51318200000009
 21
-23.20106800000011
  0
LINE
  5
6E
100
AcDbEntity
  8
LC-001-002-----0
  6
CONTINUOUS
 62
             7
100
AcDbLine
 10
-293.51379200000008
 20
39.19932899999992
 11
-293.51383400000009
 21
41.19932899999992
  0
LINE
  5
6D
100
AcDbEntity
  8
LC-001-002-----0
  6
CONTINUOUS
 62
             7
100
AcDbLine
 10
-310.6477460000001
 20
38.69897099999991
 11
-312.51377100000008
 21
38.69893200000001
  0
LINE
  5
6C
100
AcDbEntity
  8
LC-001-002-----0
  6
CONTINUOUS
 62
             7
100
AcDbLine
 10
-295.51386500000012
 20
43.19928699999991
 11
-304.51386500000012
 21
43.19909899999993
  0
LINE
  5
6B
100
AcDbEntity
  8
LC-001-002-----0
  6
CONTINUOUS
 62
             7
100
AcDbLine
 10
-67.00000000000003
 20
-55.0
 11
-78.54700600000001
 21
-35.0
  0
LINE
  5
6A
100
AcDbEntity
  8
LC-001-002-----0
  6
CONTINUOUS
 62
             7
100
AcDbLine
 10
-268.18233700000008
 20
38.19996299999991
 11
-292.51377100000008
 21
38.19934999999997
  0
LINE
  5
69
100
AcDbEntity
  8
LC-001-002-----0
  6
CONTINUOUS
 62
             7
100
AcDbLine
 10
-216.07041400000011
 20
135.99467699999991
 11
-208.64579300000011
 21
128.57005599999999
  0
LINE
  5
68
100
AcDbEntity
  8
LC-001-002-----0
  6
CONTINUOUS
 62
             7
100
AcDbLine
 10
-281.19494800000012
 20
50.36404599999992
 11
-280.77068400000007
 21
50.78830999999991
  0
LINE
  5
67
100
AcDbEntity
  8
LC-001-002-----0
  6
CONTINUOUS
 62
             7
100
AcDbLine
 10
-222.8586390000001
 20
137.69173299999991
 11
-220.7373190000001
 21
135.57041299999989
  0
LINE
  5
66
100
AcDbEntity
  8
LC-001-002-----0
  6
CONTINUOUS
 62
             7
100
AcDbLine
 10
-295.97348000000011
 20
64.57689199999993
 11
-294.54508900000008
 21
63.1485009999999
  0
LINE
  5
65
100
AcDbEntity
  8
LC-001-002-----0
  6
CONTINUOUS
 62
             7
100
AcDbLine
 10
-294.27642400000008
 20
57.78866699999992
 11
-286.85180300000007
 21
50.36404599999992
  0
LINE
  5
64
100
AcDbEntity
  8
LC-001-002-----0
  6
CONTINUOUS
 62
             7
100
AcDbLine
 10
-208.64579300000011
 20
122.913202
 11
-209.07005700000011
 21
122.488938
  0
LINE
  5
63
100
AcDbEntity
  8
LC-001-002-----0
  6
CONTINUOUS
 62
             7
100
AcDbLine
 10
-209.07005700000011
 20
122.488938
 11
-188.0908160000001
 21
101.509697
  0
LINE
  5
62
100
AcDbEntity
  8
LC-001-002-----0
  6
CONTINUOUS
 62
             7
100
AcDbLine
 10
-306.76372900000013
 20
40.78681499999993
 11
-310.14774900000009
 21
38.83295599999997
  0
LINE
  5
61
100
AcDbEntity
  8
LC-001-002-----0
  6
CONTINUOUS
 62
             7
100
AcDbLine
 10
-188.09101200000009
 20
93.44882199999995
 11
-188.09084300000001
 21
101.5096689999999
  0
LINE
  5
60
100
AcDbEntity
  8
LC-001-002-----0
  6
CONTINUOUS
 62
             7
100
AcDbLine
 10
-188.0909850000001
 20
93.44884899999988
 11
-152.57106800000011
 21
57.92893199999992
  0
LINE
  5
5F
100
AcDbEntity
  8
LC-001-002-----0
  6
CONTINUOUS
 62
             7
100
AcDbLine
 10
-220.7373190000001
 20
135.57041299999989
 11
-220.10092200000011
 21
136.20680899999999
  0
LINE
  5
5E
100
AcDbEntity
  8
LC-001-002-----0
  6
CONTINUOUS
 62
             7
100
AcDbLine
 10
-312.51318200000009
 20
38.69893200000001
 11
-312.51318200000009
 21
-18.70106800000011
  0
LINE
  5
5D
100
AcDbEntity
  8
LC-001-002-----0
  6
CONTINUOUS
 62
             7
100
AcDbLine
 10
-238.63912257860341
 20
143.99698659728449
 11
-227.59626564563251
 21
132.95412937817571
  0
LINE
  5
5C
100
AcDbEntity
  8
LC-001-002-----0
  6
CONTINUOUS
 62
             7
100
AcDbLine
 10
-226.8795305952535
 20
133.6708414047466
 11
-222.8586390000001
 21
137.69173299999991
  0
LINE
  5
5B
100
AcDbEntity
  8
LC-001-002-----0
  6
CONTINUOUS
 62
             7
100
AcDbLine
 10
-295.97348000000011
 20
64.57689199999993
 11
-291.95258865594468
 21
68.59778469795997
  0
LINE
  5
5A
100
AcDbEntity
  8
LC-001-002-----0
  6
CONTINUOUS
 62
             7
100
AcDbLine
 10
-280.77068400000007
 20
50.78830999999991
 11
-268.18233700000008
 21
38.19996299999991
  0
LINE
  5
59
100
AcDbEntity
  8
LC-001-002-----0
  6
CONTINUOUS
 62
             7
100
AcDbLine
 10
-263.93866500000013
 20
-18.20106800000011
 11
-292.51318200000009
 21
-18.20106800000011
  0
LINE
  5
58
100
AcDbEntity
  8
LC-001-002-----0
  6
CONTINUOUS
 62
             7
100
AcDbLine
 10
-263.93866500000013
 20
-18.20106800000011
 11
-260.26775900000013
 21
-14.53016200000002
  0
LINE
  5
57
100
AcDbEntity
  8
LC-001-002-----0
  6
CONTINUOUS
 62
             7
100
AcDbLine
 10
-207.3911950000001
 20
-14.53016200000002
 11
-260.26775900000013
 21
-14.53016200000002
  0
LINE
  5
56
100
AcDbEntity
  8
LC-001-002-----0
  6
DASHDOT
 62
             2
100
AcDbLine
 10
4.0
 20
0.0
 11
-64.80606900000012
 21
0.0
  0
LINE
  5
55
100
AcDbEntity
  8
LC-001-002-----0
  6
DASHDOT
 62
             2
100
AcDbLine
 10
-314.51318200000009
 20
10.0
 11
-263.93866500000013
 21
10.0
  0
LINE
  5
54
100
AcDbEntity
  8
LC-001-002-----0
  6
DASHDOT
 62
             2
100
AcDbLine
 10
-326.98434300000008
 20
168.702596
 11
-168.281746
 21
10.0
  0
LINE
  5
53
100
AcDbEntity
  8
LC-001-002-----0
  6
DASHDOT
 62
             2
100
AcDbLine
 10
-325.0148210000001
 20
93.61823299999992
 11
-251.89998000000011
 21
166.73307399999999
  0
LINE
  5
52
100
AcDbEntity
  8
LC-001-002-----0
  6
DASHDOT
 62
             2
100
AcDbLine
 10
-176.722297795212
 20
10.0
 11
-168.281746
 21
10.0
  0
LINE
  5
51
100
AcDbEntity
  8
LC-001-002-----0
  6
DASHDOT
 62
             2
100
AcDbLine
 10
-168.281746
 20
10.0
 11
-64.80606900000012
 21
10.0
  0
LINE
  5
50
100
AcDbEntity
  8
LC-001-002-----0
  6
DASHDOT
 62
             2
100
AcDbLine
 10
-168.281746
 20
10.0
 11
-162.26533688364211
 21
3.98359092155189
  0
LINE
  5
4F
100
AcDbEntity
  8
1
  6
DOT_CENTER
 62
             2
100
AcDbLine
 10
-168.281746
 20
12.97668171397389
 11
-168.281746
 21
10.0
  0
LINE
  5
4E
100
AcDbEntity
  8
1
  6
DOT_CENTER
 62
             2
100
AcDbLine
 10
-288.45740000000012
 20
132.71490006454499
 11
-288.45740000000012
 21
127.71490006454501
  0
LINE
  5
4D
100
AcDbEntity
  8
1
  6
DOT_CENTER
 62
             2
100
AcDbLine
 10
-294.70425420466609
 20
130.17565399999989
 11
-277.70425420466609
 21
130.17565399999989
  0
LINE
  5
4C
100
AcDbEntity
  8
LC-001-002-----0
  6
CONTINUOUS
 62
             7
100
AcDbLine
 10
-207.3911950000001
 20
-14.53016200000002
 11
-199.6622120000001
 21
-22.25914500000002
  0
LINE
  5
4B
100
AcDbEntity
  8
LC-001-002-----0
  6
CONTINUOUS
 62
             7
100
AcDbLine
 10
-291.23586523813663
 20
69.31450835710142
 11
-302.27873437934721
 21
80.35737707300972
  0
LINE
  5
4A
100
AcDbEntity
  8
LC-001-002-----0
  6
CONTINUOUS
 62
             7
100
AcDbLine
 10
-291.95258865594468
 20
68.59778469795997
 11
-281.62069276381328
 21
78.92968406902216
  0
LINE
  5
49
100
AcDbEntity
  8
LC-001-002-----0
  6
CONTINUOUS
 62
             7
100
AcDbLine
 10
-237.21142776698639
 20
123.338964019228
 11
-226.87954222782409
 21
133.67085303731741
  0
LINE
  5
48
100
AcDbEntity
  8
1
  6
CONTINUOUS
 62
             7
100
AcDbLine
 10
-280.77068400000007
 20
50.78830999999991
 11
-209.07005700000011
 21
122.488938
  0
LINE
  5
47
100
AcDbEntity
  8
1
  6
CONTINUOUS
 62
             7
100
AcDbLine
 10
-220.7373190000001
 20
135.57041299999989
 11
-238.1810400218275
 21
118.12668610456549
  0
LINE
  5
46
100
AcDbEntity
  8
1
  6
CONTINUOUS
 62
             7
100
AcDbLine
 10
-276.40841517563649
 20
79.89929807892838
 11
-294.47792211046209
 21
61.808542076913
  0
LINE
  5
45
100
AcDbEntity
  8
1
  6
CONTINUOUS
 62
             7
100
AcDbLine
 10
-67.00000000000003
 20
-55.0
 11
-67.00000000000003
 21
43.0
  0
LINE
  5
44
100
AcDbEntity
  8
1
  6
CONTINUOUS
 62
             7
100
AcDbLine
 10
-67.00000000000003
 20
43.0
 11
-78.54700600000001
 21
-35.0
  0
LINE
  5
43
100
AcDbEntity
  8
1
  6
CONTINUOUS
 62
             7
100
AcDbLine
 10
-310.64715700000011
 20
-18.70106800000011
 11
-310.64715700000011
 21
38.69897100021899
  0
LINE
  5
42
100
AcDbEntity
  8
1
  6
CONTINUOUS
 62
             7
100
AcDbLine
 10
-306.76372900000013
 20
40.78681499999993
 11
-306.76372900000013
 21
-21.3362086654131
  0
LINE
  5
41
100
AcDbEntity
  8
1
  6
CONTINUOUS
 62
             7
100
AcDbLine
 10
-293.51318200000009
 20
-19.20106800000011
 11
-293.51318200000009
 21
39.19932899999992
  0
LINE
  5
40
100
AcDbEntity
  8
1
  6
CONTINUOUS
 62
             7
100
AcDbLine
 10
-292.51377100000008
 20
38.19934999999997
 11
-292.51377100000008
 21
-18.20106800000011
  0
LINE
  5
3F
100
AcDbEntity
  8
1
  6
CONTINUOUS
 62
             7
100
AcDbLine
 10
-263.93866500000013
 20
-18.20106800000011
 11
-263.93866500000013
 21
33.1346732553333
  0
LINE
  5
3E
100
AcDbEntity
  8
LC-001-002-----0
  6
DASHDOT
 62
             2
100
AcDbLine
 10
-263.93866500000013
 20
10.0
 11
-260.26775900000013
 21
10.0
  0
LINE
  5
3D
100
AcDbEntity
  8
1
  6
CONTINUOUS
 62
             7
100
AcDbLine
 10
-260.26775900000013
 20
-14.53016200000002
 11
-260.26775900000013
 21
33.37806778267769
  0
LINE
  5
3C
100
AcDbEntity
  8
LC-001-002-----0
  6
DASHDOT
 62
             2
100
AcDbLine
 10
-260.26775900000013
 20
10.0
 11
-219.43308400000009
 21
10.0
  0
LINE
  5
3B
100
AcDbEntity
  8
1
  6
CONTINUOUS
 62
             7
100
AcDbLine
 10
-188.0909850000001
 20
93.44884899999988
 11
-246.91227951938049
 21
34.62755366024636
  0
LINE
  5
3A
100
AcDbEntity
  8
1
  6
CONTINUOUS
 62
             7
100
AcDbLine
 10
-168.281746
 20
10.0
 11
-150.281746
 21
50.0
  0
LINE
  5
39
100
AcDbEntity
  8
1
  6
DOT_CENTER
 62
             2
100
AcDbLine
 10
-168.281746
 20
10.0
 11
-168.281746
 21
5.97668171397389
  0
LINE
  5
38
100
AcDbEntity
  8
1
  6
CONTINUOUS
 62
             7
100
AcDbLine
 10
-251.9161965948108
 20
37.68431451502458
 11
-188.09084300000001
 21
101.5096689999999
  0
LINE
  5
37
100
AcDbEntity
  8
1
  6
CONTINUOUS
 62
             7
100
AcDbLine
 10
-314.60074395646859
 20
-15.0
 11
-316.60074395646859
 21
-15.0
  0
LINE
  5
36
100
AcDbEntity
  8
1
  6
CONTINUOUS
 62
             7
100
AcDbLine
 10
-316.60074395646859
 20
35.0
 11
-314.60074395646859
 21
35.0
  0
POINT
  5
35
100
AcDbEntity
  8
0
 62
             7
100
AcDbPoint
 10
-312.51318200000009
 20
35.69893200000001
  0
POINT
  5
34
100
AcDbEntity
  8
0
 62
             7
100
AcDbPoint
 10
-225.82848700000011
 20
134.7218849999999
  0
POINT
  5
33
100
AcDbEntity
  8
0
 62
             7
100
AcDbPoint
 10
-293.0036320000001
 20
67.54674099999988
  0
POINT
  5
32
100
AcDbEntity
  8
0
 62
             7
100
AcDbPoint
 10
-288.45740000000012
 20
130.17565399999989
  0
POINT
  5
31
100
AcDbEntity
  8
0
 62
             7
100
AcDbPoint
 10
-288.45740000000012
 20
130.17565399999989
  0
POINT
  5
30
100
AcDbEntity
  8
0
 62
             7
100
AcDbPoint
 10
-251.89998000000011
 20
93.61823299999992
  0
POINT
  5
2F
100
AcDbEntity
  8
0
 62
             7
100
AcDbPoint
 10
-325.0148210000001
 20
166.73307399999999
  0
POINT
  5
2E
100
AcDbEntity
  8
0
 62
             7
100
AcDbPoint
 10
-288.45740000000012
 20
130.17565399999989
  0
POINT
  5
2D
100
AcDbEntity
  8
0
 62
             7
100
AcDbPoint
 10
-312.51318200000009
 20
-18.70106800000011
  0
ENDBLK
  5
90
100
AcDbEntity
  8
0
100
AcDbBlockEnd
  0
BLOCK
  5
93
100
AcDbEntity
  8
0
100
AcDbBlockBegin
  2
*D1
 70
             1
 10
0.0
 20
0.0
 30
0.0
  3
*D1
  1

  0
LINE
  5
94
100
AcDbEntity
  8
0
  6
CONTINUOUS
 62
             4
100
AcDbLine
 10
-369.3079121973542
 20
147.38655446865948
 11
-305.66830173534453
 21
211.02616533166835
  0
LINE
  5
95
100
AcDbEntity
  8
0
  6
CONTINUOUS
 62
             4
100
AcDbLine
 10
-238.63912257860346
 20
143.99698659728446
 11
-307.08251530217319
 21
212.4403788895859
  0
LINE
  5
96
100
AcDbEntity
  8
0
  6
CONTINUOUS
 62
             4
100
AcDbLine
 10
-302.27873437934721
 20
80.35737707300969
 11
-370.72212576418286
 21
148.80076802657703
  0
SOLID
  5
97
100
AcDbEntity
  8
0
 62
             4
100
AcDbTrace
 10
-361.93973933901901
 20
156.98894435176234
 11
-359.70552236067931
 21
154.75472738750079
 12
-369.3079121973542
 22
147.38655446865948
 13
-369.3079121973542
 23
147.38655446865948
  0
SOLID
  5
98
100
AcDbEntity
  8
0
 62
             4
100
AcDbTrace
 10
-313.03647459367971
 20
201.42377544856549
 11
-315.27069157201942
 21
203.65799241282704
 12
-305.66830173534453
 22
211.02616533166835
 13
-305.66830173534453
 23
211.02616533166835
  0
MTEXT
  5
9A
100
AcDbEntity
  8
0
 62
             1
100
AcDbMText
 10
-350.64836036721789
 20
168.87453355002867
 30
0.0
 40
12.0
 41
0.0
 71
             7
 72
             1
  1
\C1;DN\C1;90
  7
CONVERTER_1
 11
0.70710677895877
 21
0.70710678341432
 31
0.0
  0
ENDBLK
  5
9B
100
AcDbEntity
  8
0
100
AcDbBlockEnd
  0
BLOCK
  5
9F
100
AcDbEntity
  8
0
100
AcDbBlockBegin
  2
*D2
 70
             1
 10
0.0
 20
0.0
 30
0.0
  3
*D2
  1

  0
LINE
  5
A0
100
AcDbEntity
  8
0
  6
CONTINUOUS
 62
             4
100
AcDbLine
 10
-326.60074395646859
 20
-15.0
 11
-326.60074395646859
 21
35.0
  0
LINE
  5
A1
100
AcDbEntity
  8
0
  6
CONTINUOUS
 62
             4
100
AcDbLine
 10
-316.60074395646859
 20
35.0
 11
-328.60074395646859
 21
35.0
  0
LINE
  5
A2
100
AcDbEntity
  8
0
  6
CONTINUOUS
 62
             4
100
AcDbLine
 10
-316.60074395646859
 20
-15.0
 11
-328.60074395646859
 21
-15.0
  0
SOLID
  5
A3
100
AcDbEntity
  8
0
 62
             4
100
AcDbTrace
 10
-325.02091398541984
 20
23.0
 11
-328.18057392751734
 21
23.0
 12
-326.60074395646859
 22
35.0
 13
-326.60074395646859
 23
35.0
  0
SOLID
  5
A4
100
AcDbEntity
  8
0
 62
             4
100
AcDbTrace
 10
-328.18057392751734
 20
-3.0
 11
-325.02091398541984
 21
-3.0
 12
-326.60074395646859
 22
-15.0
 13
-326.60074395646859
 23
-15.0
  0
MTEXT
  5
A5
100
AcDbEntity
  8
0
 62
             1
100
AcDbMText
 10
-328.60074395646859
 20
-6.3562793951401
 30
0.0
 40
12.0
 41
0.0
 71
             7
 72
             1
  1
\C1;DN\C1;50
  7
CONVERTER_1
 11
0.0
 21
1.0
 31
0.0
  0
ENDBLK
  5
A6
100
AcDbEntity
  8
0
100
AcDbBlockEnd
  0
BLOCK
  5
AA
100
AcDbEntity
  8
0
100
AcDbBlockBegin
  2
*D3
 70
             1
 10
0.0
 20
0.0
 30
0.0
  3
*D3
  1

  0
LINE
  5
AB
100
AcDbEntity
  8
0
  6
CONTINUOUS
 62
             4
100
AcDbLine
 10
70.48956168999087
 20
-55.0
 11
70.48956168999087
 21
55.0
  0
LINE
  5
AC
100
AcDbEntity
  8
0
  6
CONTINUOUS
 62
             4
100
AcDbLine
 10
2.0
 20
55.0
 11
72.48956168999087
 21
55.0
  0
LINE
  5
AD
100
AcDbEntity
  8
0
  6
CONTINUOUS
 62
             4
100
AcDbLine
 10
2.0
 20
-55.0
 11
72.48956168999087
 21
-55.0
  0
SOLID
  5
AE
100
AcDbEntity
  8
0
 62
             4
100
AcDbTrace
 10
72.06939166103962
 20
43.0
 11
68.90973171894211
 21
43.0
 12
70.48956168999087
 22
55.0
 13
70.48956168999087
 23
55.0
  0
SOLID
  5
AF
100
AcDbEntity
  8
0
 62
             4
100
AcDbTrace
 10
68.90973171894211
 20
-43.0
 11
72.06939166103962
 21
-43.0
 12
70.48956168999087
 22
-55.0
 13
70.48956168999087
 23
-55.0
  0
MTEXT
  5
B0
100
AcDbEntity
  8
0
 62
             1
100
AcDbMText
 10
68.48956168999087
 20
-17.55972440853909
 30
0.0
 40
12.0
 41
0.0
 71
             7
 72
             1
  1
\C1;DN\C1;110
  7
CONVERTER_1
 11
0.0
 21
1.0
 31
0.0
  0
ENDBLK
  5
B1
100
AcDbEntity
  8
0
100
AcDbBlockEnd
  0
BLOCK
  5
B5
100
AcDbEntity
  8
0
100
AcDbBlockBegin
  2
*D4
 70
             1
 10
0.0
 20
0.0
 30
0.0
  3
*D4
  1

  0
LINE
  5
B6
100
AcDbEntity
  8
0
  6
CONTINUOUS
 62
             4
100
AcDbLine
 10
50.27010890246987
 20
-35.0
 11
50.27010890246987
 21
55.0
  0
LINE
  5
B7
100
AcDbEntity
  8
0
  6
CONTINUOUS
 62
             4
100
AcDbLine
 10
2.0
 20
55.0
 11
52.27010890246987
 21
55.0
  0
LINE
  5
B8
100
AcDbEntity
  8
0
  6
CONTINUOUS
 62
             4
100
AcDbLine
 10
-78.54700600000003
 20
-35.0
 11
52.27010890246987
 21
-35.0
  0
SOLID
  5
B9
100
AcDbEntity
  8
0
 62
             4
100
AcDbTrace
 10
51.84993887351862
 20
43.0
 11
48.69027893142112
 21
43.0
 12
50.27010890246987
 22
55.0
 13
50.27010890246987
 23
55.0
  0
SOLID
  5
BA
100
AcDbEntity
  8
0
 62
             4
100
AcDbTrace
 10
48.69027893142112
 20
-23.0
 11
51.84993887351862
 21
-23.0
 12
50.27010890246987
 22
-35.0
 13
50.27010890246987
 23
-35.0
  0
MTEXT
  5
BB
100
AcDbEntity
  8
0
 62
             1
100
AcDbMText
 10
48.27010890246987
 20
-6.7255008226251
 30
0.0
 40
12.0
 41
0.0
 71
             7
 72
             1
  1
\C1;DN\C1;90
  7
CONVERTER_1
 11
0.0
 21
1.0
 31
0.0
  0
ENDBLK
  5
BC
100
AcDbEntity
  8
0
100
AcDbBlockEnd
  0
BLOCK
  5
C0
100
AcDbEntity
  8
0
100
AcDbBlockBegin
  2
*D5
 70
             1
 10
0.0
 20
0.0
 30
0.0
  3
*D5
  1

  0
LINE
  5
C1
100
AcDbEntity
  8
0
  6
CONTINUOUS
 62
             4
100
AcDbLine
 10
30.07782562081585
 20
130.17565399999992
 11
30.07782562081585
 21
204.91555517173009
  0
LINE
  5
C2
100
AcDbEntity
  8
0
  6
CONTINUOUS
 62
             4
100
AcDbLine
 10
30.07782562081585
 20
0.0
 11
30.07782562081585
 21
130.17565399999992
  0
LINE
  5
C3
100
AcDbEntity
  8
0
  6
CONTINUOUS
 62
             4
100
AcDbLine
 10
-277.70425420466614
 20
130.17565399999992
 11
32.07782562081584
 21
130.17565399999992
  0
LINE
  5
C4
100
AcDbEntity
  8
0
  6
CONTINUOUS
 62
             4
100
AcDbLine
 10
4.0
 20
0.0
 11
32.07782562081584
 21
0.0
  0
SOLID
  5
C5
100
AcDbEntity
  8
0
 62
             4
100
AcDbTrace
 10
28.4979956497671
 20
12.0
 11
31.6576555918646
 21
12.0
 12
30.07782562081585
 22
0.0
 13
30.07782562081585
 23
0.0
  0
SOLID
  5
C6
100
AcDbEntity
  8
0
 62
             4
100
AcDbTrace
 10
31.6576555918646
 20
118.17565399999992
 11
28.4979956497671
 21
118.17565399999992
 12
30.07782562081585
 22
130.17565399999992
 13
30.07782562081585
 23
130.17565399999992
  0
MTEXT
  5
C7
100
AcDbEntity
  8
0
 62
             1
100
AcDbMText
 10
28.07782562081585
 20
138.91555517173009
 30
0.0
 40
12.0
 41
0.0
 71
             7
 72
             1
  1
\C1;130\C1;-145
  7
CONVERTER_1
 11
0.0
 21
1.0
 31
0.0
  0
ENDBLK
  5
C8
100
AcDbEntity
  8
0
100
AcDbBlockEnd
  0
BLOCK
  5
CC
100
AcDbEntity
  8
0
100
AcDbBlockBegin
  2
*D6
 70
             1
 10
0.0
 20
0.0
 30
0.0
  3
*D6
  1

  0
LINE
  5
CD
100
AcDbEntity
  8
0
  6
CONTINUOUS
 62
             4
100
AcDbLine
 10
-168.281746
 20
202.0000273866319
 11
2.0
 21
202.0000273866319
  0
LINE
  5
CE
100
AcDbEntity
  8
0
  6
CONTINUOUS
 62
             4
100
AcDbLine
 10
2.0
 20
55.0
 11
2.0
 21
204.0000273866319
  0
LINE
  5
CF
100
AcDbEntity
  8
0
  6
CONTINUOUS
 62
             4
100
AcDbLine
 10
-168.281746
 20
12.9766817139739
 11
-168.281746
 21
204.0000273866319
  0
SOLID
  5
D0
100
AcDbEntity
  8
0
 62
             4
100
AcDbTrace
 10
-10.0
 20
200.42019741558315
 11
-10.0
 21
203.57985735768065
 12
2.0
 22
202.0000273866319
 13
2.0
 23
202.0000273866319
  0
SOLID
  5
D1
100
AcDbEntity
  8
0
 62
             4
100
AcDbTrace
 10
-156.281746
 20
203.57985735768065
 11
-156.281746
 21
200.42019741558315
 12
-168.281746
 22
202.0000273866319
 13
-168.281746
 23
202.0000273866319
  0
MTEXT
  5
D2
100
AcDbEntity
  8
0
 62
             1
100
AcDbMText
 10
-102.00231975063429
 20
204.0000273866319
 30
0.0
 40
12.0
 41
0.0
 71
             7
 72
             1
  1
170
  7
CONVERTER_1
 11
0.99999999999706
 21
0.00000242406841
 31
0.0
  0
ENDBLK
  5
D3
100
AcDbEntity
  8
0
100
AcDbBlockEnd
  0
BLOCK
  5
D7
100
AcDbEntity
  8
0
100
AcDbBlockBegin
  2
*D7
 70
             1
 10
0.0
 20
0.0
 30
0.0
  3
*D7
  1

  0
LINE
  5
D8
100
AcDbEntity
  8
0
  6
CONTINUOUS
 62
             4
100
AcDbLine
 10
-288.45740000000012
 20
202.0000273866319
 11
-168.28174600000003
 21
202.0000273866319
  0
LINE
  5
D9
100
AcDbEntity
  8
0
  6
CONTINUOUS
 62
             4
100
AcDbLine
 10
-168.28174600000003
 20
12.9766817139739
 11
-168.28174600000003
 21
204.0000273866319
  0
LINE
  5
DA
100
AcDbEntity
  8
0
  6
CONTINUOUS
 62
             4
100
AcDbLine
 10
-288.45740000000012
 20
132.71490006454499
 11
-288.45740000000012
 21
204.0000273866319
  0
SOLID
  5
DB
100
AcDbEntity
  8
0
 62
             4
100
AcDbTrace
 10
-180.28174600000003
 20
200.42019741558315
 11
-180.28174600000003
 21
203.57985735768065
 12
-168.28174600000003
 22
202.0000273866319
 13
-168.28174600000003
 23
202.0000273866319
  0
SOLID
  5
DC
100
AcDbEntity
  8
0
 62
             4
100
AcDbTrace
 10
-276.45740000000012
 20
203.57985735768065
 11
-276.45740000000012
 21
200.42019741558315
 12
-288.45740000000012
 22
202.0000273866319
 13
-288.45740000000012
 23
202.0000273866319
  0
MTEXT
  5
DD
100
AcDbEntity
  8
0
 62
             1
100
AcDbMText
 10
-262.27940168367206
 20
204.0000273866319
 30
0.0
 40
12.0
 41
0.0
 71
             7
 72
             1
  1
\C1;120\C1;-135
  7
CONVERTER_1
 11
0.99999999999706
 21
0.00000242406841
 31
0.0
  0
ENDBLK
  5
DE
100
AcDbEntity
  8
0
100
AcDbBlockEnd
  0
BLOCK
  5
E2
100
AcDbEntity
  8
0
100
AcDbBlockBegin
  2
*D8
 70
             1
 10
0.0
 20
0.0
 30
0.0
  3
*D8
  1

  0
LINE
  5
E3
100
AcDbEntity
  8
0
  6
CONTINUOUS
 62
             4
100
AcDbLine
 10
-312.51318200000009
 20
-75.81019751615412
 11
2.0
 21
-75.81019751615412
  0
LINE
  5
E4
100
AcDbEntity
  8
0
  6
CONTINUOUS
 62
             4
100
AcDbLine
 10
2.0
 20
-55.0
 11
2.0
 21
-77.81019751615412
  0
LINE
  5
E5
100
AcDbEntity
  8
0
  6
CONTINUOUS
 62
             4
100
AcDbLine
 10
-312.51318200000009
 20
-18.70106800000011
 11
-312.51318200000009
 21
-77.81019751615412
  0
SOLID
  5
E6
100
AcDbEntity
  8
0
 62
             4
100
AcDbTrace
 10
-10.0
 20
-77.39002748720287
 11
-10.0
 21
-74.23036754510537
 12
2.0
 22
-75.81019751615412
 13
2.0
 23
-75.81019751615412
  0
SOLID
  5
E7
100
AcDbEntity
  8
0
 62
             4
100
AcDbTrace
 10
-300.51318200000009
 20
-74.23036754510537
 11
-300.51318200000009
 21
-77.39002748720287
 12
-312.51318200000009
 22
-75.81019751615412
 13
-312.51318200000009
 23
-75.81019751615412
  0
MTEXT
  5
E8
100
AcDbEntity
  8
0
 62
             1
100
AcDbMText
 10
-135.36704589627581
 20
-73.81019751615412
 30
0.0
 40
12.0
 41
0.0
 71
             7
 72
             1
  1
315
  7
CONVERTER_1
 11
0.99999999999706
 21
0.00000242406841
 31
0.0
  0
ENDBLK
  5
E9
100
AcDbEntity
  8
0
100
AcDbBlockEnd
  0
ENDSEC
  0
SECTION
  2
ENTITIES
  0
DIMENSION
  5
EB
100
AcDbEntity
  8
1
100
AcDbDimension
  2
*D8
 10
2.0
 20
-75.81019751615412
 11
-122.7670458962758
 21
-67.81019751615412
 31
0.0
 53
0.00013888888889
  1
<>
  3
ME10_DIM_7
100
AcDbAlignedDimension
 13
-312.51318200000009
 23
-18.70106800000011
 14
2.0
 24
-55.0
100
AcDbRotatedDimension
  0
DIMENSION
  5
E0
100
AcDbEntity
  8
1
100
AcDbDimension
  2
*D7
 10
-168.28174600000003
 20
202.0000273866319
 11
-229.27940168367209
 21
210.0000273866319
 31
0.0
 53
0.00013888888889
  1
<>
  3
ME10_DIM_6
100
AcDbAlignedDimension
 13
-288.45740000000012
 23
132.71490006454499
 14
-168.281746
 24
12.97668171397389
100
AcDbRotatedDimension
  0
DIMENSION
  5
D5
100
AcDbEntity
  8
1
100
AcDbDimension
  2
*D6
 10
2.0
 20
202.0000273866319
 11
-89.40231975063429
 21
210.0000273866319
 31
0.0
 53
0.00013888888889
  1
<>
  3
ME10_DIM_5
100
AcDbAlignedDimension
 13
-168.281746
 23
12.97668171397389
 14
2.0
 24
55.0
100
AcDbRotatedDimension
  0
DIMENSION
  5
CA
100
AcDbEntity
  8
1
100
AcDbDimension
  2
*D5
 10
30.07782562081585
 20
0.0
 11
22.07782562081585
 21
171.91555517173009
 31
0.0
 53
-90.00000000000003
  1
<>
  3
ME10_DIM_4
100
AcDbAlignedDimension
 13
-277.70425420466609
 23
130.17565399999989
 14
4.0
 24
0.0
 50
-90.00000000000003
100
AcDbRotatedDimension
  0
DIMENSION
  5
BE
100
AcDbEntity
  8
1
100
AcDbDimension
  2
*D4
 10
50.27010890246987
 20
55.0
 11
42.27010890246987
 21
8.7544991773749
 31
0.0
 53
-90.00000000000003
  1
<>
  3
ME10_DIM_3
100
AcDbAlignedDimension
 13
-78.54700600000001
 23
-35.0
 14
2.0
 24
55.0
 50
-90.00000000000003
100
AcDbRotatedDimension
  0
DIMENSION
  5
B3
100
AcDbEntity
  8
1
100
AcDbDimension
  2
*D3
 10
70.48956168999087
 20
55.0
 11
62.48956168999087
 21
-0.27972440853908
 31
0.0
 53
90.00000000000003
  1
<>
  3
ME10_DIM_2
100
AcDbAlignedDimension
 13
2.0
 23
-55.0
 14
2.0
 24
55.0
 50
90.00000000000003
100
AcDbRotatedDimension
  0
DIMENSION
  5
A8
100
AcDbEntity
  8
1
100
AcDbDimension
  2
*D2
 10
-326.60074395646859
 20
35.0
 11
-334.60074395646859
 21
9.1237206048599
 31
0.0
 53
90.0
  1
<>
  3
ME10_DIM_1
100
AcDbAlignedDimension
 13
-316.60074395646859
 23
-15.0
 14
-316.60074395646859
 24
35.0
 50
90.0
100
AcDbRotatedDimension
  0
DIMENSION
  5
9D
100
AcDbEntity
  8
1
100
AcDbDimension
  2
*D1
 10
-369.3079121973542
 20
147.38655446865948
 11
-343.94498812942197
 21
184.06318723103499
 31
0.0
 53
45.00000018051307
  1
<>
  3
ME10_DIM_0
100
AcDbAlignedDimension
 13
-238.63912257860341
 23
143.99698659728449
 14
-302.27873437934721
 24
80.35737707300972
 50
45.00000018051307
100
AcDbRotatedDimension
  0
INSERT
  5
2C
100
AcDbEntity
  8
1
100
AcDbBlockReference
  2
HL_227_WAND_WC-ANSCHLUT__1
 10
-57.26993368349699
 20
-234.45263706449961
  0
ENDSEC
  0
SECTION
  2
OBJECTS
  0
DICTIONARY
  5
19
100
AcDbDictionary
  3
ACAD_GROUP
350
1A
  3
ACAD_MLINESTYLE
350
1B
  0
DICTIONARY
  5
1A
102
{ACAD_REACTORS
330
19
102
}
100
AcDbDictionary
  0
DICTIONARY
  5
1B
102
{ACAD_REACTORS
330
19
102
}
100
AcDbDictionary
  3
STANDARD
350
1C
  0
MLINESTYLE
  5
1C
102
{ACAD_REACTORS
330
1B
102
}
100
AcDbMlineStyle
  2
STANDARD
 70
             0
  3

 62
             0
 51
90.0
 52
90.0
 71
             2
 49
0.5
 62
           256
  6
BYLAYER
 49
-0.5
 62
           256
  6
BYLAYER
  0
ENDSEC
  0
EOF
