  0
SECTION
  2
HEADER
  9
$ACADVER
  1
AC1015
  9
$ACADMAINTVER
 70
     6
  9
$DWGCODEPAGE
  3
ANSI_1252
  9
$INSBASE
 10
0.0
 20
0.0
 30
0.0
  9
$EXTMIN
 10
-379.317034767568
 20
-465.5736198147891
 30
0.0
  9
$EXTMAX
 10
-35.00000344220485
 20
353.077237402388
 30
0.0
  9
$LIMMIN
 10
0.0
 20
0.0
  9
$LIMMAX
 10
12.0
 20
9.0
  9
$ORTHOMODE
 70
     0
  9
$REGENMODE
 70
     1
  9
$FILLMODE
 70
     1
  9
$QTEXTMODE
 70
     0
  9
$MIRRTEXT
 70
     1
  9
$LTSCALE
 40
1.0
  9
$ATTMODE
 70
     1
  9
$TEXTSIZE
 40
0.2
  9
$TRACEWID
 40
0.05
  9
$TEXTSTYLE
  7
Standard
  9
$CLAYER
  8
0
  9
$CELTYPE
  6
ByLayer
  9
$CECOLOR
 62
   256
  9
$CELTSCALE
 40
1.0
  9
$DISPSILH
 70
     0
  9
$DIMSCALE
 40
1.0
  9
$DIMASZ
 40
0.18
  9
$DIMEXO
 40
0.0625
  9
$DIMDLI
 40
0.38
  9
$DIMRND
 40
0.0
  9
$DIMDLE
 40
0.0
  9
$DIMEXE
 40
0.18
  9
$DIMTP
 40
0.0
  9
$DIMTM
 40
0.0
  9
$DIMTXT
 40
0.18
  9
$DIMCEN
 40
0.09
  9
$DIMTSZ
 40
0.0
  9
$DIMTOL
 70
     0
  9
$DIMLIM
 70
     0
  9
$DIMTIH
 70
     1
  9
$DIMTOH
 70
     1
  9
$DIMSE1
 70
     0
  9
$DIMSE2
 70
     0
  9
$DIMTAD
 70
     0
  9
$DIMZIN
 70
     0
  9
$DIMBLK
  1

  9
$DIMASO
 70
     1
  9
$DIMSHO
 70
     1
  9
$DIMPOST
  1

  9
$DIMAPOST
  1

  9
$DIMALT
 70
     0
  9
$DIMALTD
 70
     2
  9
$DIMALTF
 40
25.4
  9
$DIMLFAC
 40
1.0
  9
$DIMTOFL
 70
     0
  9
$DIMTVP
 40
0.0
  9
$DIMTIX
 70
     0
  9
$DIMSOXD
 70
     0
  9
$DIMSAH
 70
     0
  9
$DIMBLK1
  1

  9
$DIMBLK2
  1

  9
$DIMSTYLE
  2
Standard
  9
$DIMCLRD
 70
     0
  9
$DIMCLRE
 70
     0
  9
$DIMCLRT
 70
     0
  9
$DIMTFAC
 40
1.0
  9
$DIMGAP
 40
0.09
  9
$DIMJUST
 70
     0
  9
$DIMSD1
 70
     0
  9
$DIMSD2
 70
     0
  9
$DIMTOLJ
 70
     1
  9
$DIMTZIN
 70
     0
  9
$DIMALTZ
 70
     0
  9
$DIMALTTZ
 70
     0
  9
$DIMUPT
 70
     0
  9
$DIMDEC
 70
     4
  9
$DIMTDEC
 70
     4
  9
$DIMALTU
 70
     2
  9
$DIMALTTD
 70
     2
  9
$DIMTXSTY
  7
Standard
  9
$DIMAUNIT
 70
     0
  9
$DIMADEC
 70
     0
  9
$DIMALTRND
 40
0.0
  9
$DIMAZIN
 70
     0
  9
$DIMDSEP
 70
    46
  9
$DIMATFIT
 70
     3
  9
$DIMFRAC
 70
     0
  9
$DIMLDRBLK
  1

  9
$DIMLUNIT
 70
     2
  9
$DIMLWD
 70
    -2
  9
$DIMLWE
 70
    -2
  9
$DIMTMOVE
 70
     0
  9
$LUNITS
 70
     2
  9
$LUPREC
 70
     4
  9
$SKETCHINC
 40
0.1
  9
$FILLETRAD
 40
0.5
  9
$AUNITS
 70
     0
  9
$AUPREC
 70
     0
  9
$MENU
  1
.
  9
$ELEVATION
 40
0.0
  9
$PELEVATION
 40
0.0
  9
$THICKNESS
 40
0.0
  9
$LIMCHECK
 70
     0
  9
$CHAMFERA
 40
0.0
  9
$CHAMFERB
 40
0.0
  9
$CHAMFERC
 40
0.0
  9
$CHAMFERD
 40
0.0
  9
$SKPOLY
 70
     0
  9
$TDCREATE
 40
2458785.549282257
  9
$TDUCREATE
 40
2458785.50761559
  9
$TDUPDATE
 40
2458785.549282685
  9
$TDUUPDATE
 40
2458785.507616018
  9
$TDINDWG
 40
0.0000000116
  9
$TDUSRTIMER
 40
0.0000000116
  9
$USRTIMER
 70
     1
  9
$ANGBASE
 50
0.0
  9
$ANGDIR
 70
     0
  9
$PDMODE
 70
     0
  9
$PDSIZE
 40
0.0
  9
$PLINEWID
 40
0.0
  9
$SPLFRAME
 70
     0
  9
$SPLINETYPE
 70
     6
  9
$SPLINESEGS
 70
     8
  9
$HANDSEED
  5
22B
  9
$SURFTAB1
 70
     6
  9
$SURFTAB2
 70
     6
  9
$SURFTYPE
 70
     6
  9
$SURFU
 70
     6
  9
$SURFV
 70
     6
  9
$UCSBASE
  2

  9
$UCSNAME
  2

  9
$UCSORG
 10
0.0
 20
0.0
 30
0.0
  9
$UCSXDIR
 10
1.0
 20
0.0
 30
0.0
  9
$UCSYDIR
 10
0.0
 20
1.0
 30
0.0
  9
$UCSORTHOREF
  2

  9
$UCSORTHOVIEW
 70
     0
  9
$UCSORGTOP
 10
0.0
 20
0.0
 30
0.0
  9
$UCSORGBOTTOM
 10
0.0
 20
0.0
 30
0.0
  9
$UCSORGLEFT
 10
0.0
 20
0.0
 30
0.0
  9
$UCSORGRIGHT
 10
0.0
 20
0.0
 30
0.0
  9
$UCSORGFRONT
 10
0.0
 20
0.0
 30
0.0
  9
$UCSORGBACK
 10
0.0
 20
0.0
 30
0.0
  9
$PUCSBASE
  2

  9
$PUCSNAME
  2

  9
$PUCSORG
 10
0.0
 20
0.0
 30
0.0
  9
$PUCSXDIR
 10
1.0
 20
0.0
 30
0.0
  9
$PUCSYDIR
 10
0.0
 20
1.0
 30
0.0
  9
$PUCSORTHOREF
  2

  9
$PUCSORTHOVIEW
 70
     0
  9
$PUCSORGTOP
 10
0.0
 20
0.0
 30
0.0
  9
$PUCSORGBOTTOM
 10
0.0
 20
0.0
 30
0.0
  9
$PUCSORGLEFT
 10
0.0
 20
0.0
 30
0.0
  9
$PUCSORGRIGHT
 10
0.0
 20
0.0
 30
0.0
  9
$PUCSORGFRONT
 10
0.0
 20
0.0
 30
0.0
  9
$PUCSORGBACK
 10
0.0
 20
0.0
 30
0.0
  9
$USERI1
 70
     0
  9
$USERI2
 70
     0
  9
$USERI3
 70
     0
  9
$USERI4
 70
     0
  9
$USERI5
 70
     0
  9
$USERR1
 40
20.0
  9
$USERR2
 40
0.0
  9
$USERR3
 40
0.0
  9
$USERR4
 40
0.0
  9
$USERR5
 40
0.0
  9
$WORLDVIEW
 70
     1
  9
$SHADEDGE
 70
     3
  9
$SHADEDIF
 70
    70
  9
$TILEMODE
 70
     1
  9
$MAXACTVP
 70
    64
  9
$PINSBASE
 10
0.0
 20
0.0
 30
0.0
  9
$PLIMCHECK
 70
     0
  9
$PEXTMIN
 10
1.00000000000000E+20
 20
1.00000000000000E+20
 30
1.00000000000000E+20
  9
$PEXTMAX
 10
-1.00000000000000E+20
 20
-1.00000000000000E+20
 30
-1.00000000000000E+20
  9
$PLIMMIN
 10
0.0
 20
0.0
  9
$PLIMMAX
 10
12.0
 20
9.0
  9
$UNITMODE
 70
     0
  9
$VISRETAIN
 70
     1
  9
$PLINEGEN
 70
     0
  9
$PSLTSCALE
 70
     1
  9
$TREEDEPTH
 70
  3020
  9
$CMLSTYLE
  2
Standard
  9
$CMLJUST
 70
     0
  9
$CMLSCALE
 40
1.0
  9
$PROXYGRAPHICS
 70
     1
  9
$MEASUREMENT
 70
     1
  9
$CELWEIGHT
370
    -1
  9
$ENDCAPS
280
     0
  9
$JOINSTYLE
280
     0
  9
$LWDISPLAY
290
     0
  9
$INSUNITS
 70
     4
  9
$HYPERLINKBASE
  1

  9
$STYLESHEET
  1

  9
$XEDIT
290
     1
  9
$CEPSNTYPE
380
     0
  9
$PSTYLEMODE
290
     1
  9
$FINGERPRINTGUID
  2
{EBF0916C-D1D5-41F8-80CE-AC4582FF38D5}
  9
$VERSIONGUID
  2
{FAEB1C32-E019-11D5-929B-00C0DF256EC4}
  9
$EXTNAMES
290
     1
  9
$PSVPSCALE
 40
0.0
  9
$OLESTARTUP
290
     0
  0
ENDSEC
  0
SECTION
  2
CLASSES
  0
CLASS
  1
ACDBDICTIONARYWDFLT
  2
AcDbDictionaryWithDefault
  3
ObjectDBX Classes
 90
        0
280
     0
281
     0
  0
CLASS
  1
VISUALSTYLE
  2
AcDbVisualStyle
  3
ObjectDBX Classes
 90
     4095
280
     0
281
     0
  0
CLASS
  1
MATERIAL
  2
AcDbMaterial
  3
ObjectDBX Classes
 90
     1153
280
     0
281
     0
  0
CLASS
  1
SCALE
  2
AcDbScale
  3
ObjectDBX Classes
 90
     1153
280
     0
281
     0
  0
CLASS
  1
TABLESTYLE
  2
AcDbTableStyle
  3
ObjectDBX Classes
 90
     4095
280
     0
281
     0
  0
CLASS
  1
MLEADERSTYLE
  2
AcDbMLeaderStyle
  3
ACDB_MLEADERSTYLE_CLASS
 90
     4095
280
     0
281
     0
  0
CLASS
  1
SUN
  2
AcDbSun
  3
SCENEOE
 90
     1153
280
     0
281
     0
  0
CLASS
  1
DICTIONARYVAR
  2
AcDbDictionaryVar
  3
ObjectDBX Classes
 90
        0
280
     0
281
     0
  0
CLASS
  1
ACDBPLACEHOLDER
  2
AcDbPlaceHolder
  3
ObjectDBX Classes
 90
        0
280
     0
281
     0
  0
CLASS
  1
LAYOUT
  2
AcDbLayout
  3
ObjectDBX Classes
 90
        0
280
     0
281
     0
  0
ENDSEC
  0
SECTION
  2
TABLES
  0
TABLE
  2
VPORT
  5
8
102
{ACAD_XDICTIONARY
360
1EE
102
}
330
0
100
AcDbSymbolTable
 70
     1
  0
VPORT
  5
29
330
8
100
AcDbSymbolTableRecord
100
AcDbViewportTableRecord
  2
*Active
 70
     0
 10
0.0
 20
0.0
 11
1.0
 21
1.0
 12
-207.1585191048864
 22
-56.24819120620054
 13
0.0
 23
0.0
 14
0.5
 24
0.5
 15
0.5
 25
0.5
 16
0.0
 26
0.0
 36
1.0
 17
0.0
 27
0.0
 37
0.0
 40
900.5159429388949
 41
1.60267857142857
 42
50.0
 43
0.0
 44
0.0
 50
0.0
 51
0.0
 71
     0
 72
   100
 73
     1
 74
     3
 75
     0
 76
     0
 77
     0
 78
     0
281
     0
 65
     1
110
0.0
120
0.0
130
0.0
111
1.0
121
0.0
131
0.0
112
0.0
122
1.0
132
0.0
 79
     0
146
0.0
  0
ENDTAB
  0
TABLE
  2
LTYPE
  5
5
330
0
100
AcDbSymbolTable
 70
     8
  0
LTYPE
  5
14
330
5
100
AcDbSymbolTableRecord
100
AcDbLinetypeTableRecord
  2
ByBlock
 70
     0
  3

 72
    65
 73
     0
 40
0.0
  0
LTYPE
  5
15
330
5
100
AcDbSymbolTableRecord
100
AcDbLinetypeTableRecord
  2
ByLayer
 70
     0
  3

 72
    65
 73
     0
 40
0.0
  0
LTYPE
  5
16
330
5
100
AcDbSymbolTableRecord
100
AcDbLinetypeTableRecord
  2
Continuous
 70
     0
  3
Solid line
 72
    65
 73
     0
 40
0.0
  0
LTYPE
  5
6E
330
5
100
AcDbSymbolTableRecord
100
AcDbLinetypeTableRecord
  2
DASHED
 70
     0
  3
Dashed
 72
    65
 73
     2
 40
15.0
 49
7.0
 74
     0
 49
-8.0
 74
     0
  0
LTYPE
  5
6F
330
5
100
AcDbSymbolTableRecord
100
AcDbLinetypeTableRecord
  2
DOTTED
 70
     0
  3
Dotted
 72
    65
 73
     2
 40
1.0
 49
0.0
 74
     0
 49
-1.0
 74
     0
  0
LTYPE
  5
70
330
5
100
AcDbSymbolTableRecord
100
AcDbLinetypeTableRecord
  2
DOT_CENTER
 70
     0
  3
Dot_Center
 72
    65
 73
     4
 40
14.0
 49
12.0
 74
     0
 49
-1.0
 74
     0
 49
0.0
 74
     0
 49
-1.0
 74
     0
  0
LTYPE
  5
71
330
5
100
AcDbSymbolTableRecord
100
AcDbLinetypeTableRecord
  2
LONG_DASHED
 70
     0
  3
Long_Dashed
 72
    65
 73
     2
 40
15.0
 49
10.0
 74
     0
 49
-5.0
 74
     0
  0
LTYPE
  5
72
330
5
100
AcDbSymbolTableRecord
100
AcDbLinetypeTableRecord
  2
DASH_CENTER
 70
     0
  3
Dash_Center
 72
    65
 73
     4
 40
14.0
 49
11.0
 74
     0
 49
-1.0
 74
     0
 49
1.0
 74
     0
 49
-1.0
 74
     0
  0
LTYPE
  5
73
330
5
100
AcDbSymbolTableRecord
100
AcDbLinetypeTableRecord
  2
PHANTOM
 70
     0
  3
Phantom
 72
    65
 73
     6
 40
13.0
 49
10.0
 74
     0
 49
-1.0
 74
     0
 49
0.0
 74
     0
 49
-1.0
 74
     0
 49
0.0
 74
     0
 49
-1.0
 74
     0
  0
LTYPE
  5
74
330
5
100
AcDbSymbolTableRecord
100
AcDbLinetypeTableRecord
  2
CENTER_DASH_DASH
 70
     0
  3
Center_Dash_Dash
 72
    65
 73
     6
 40
14.0
 49
9.0
 74
     0
 49
-1.0
 74
     0
 49
1.0
 74
     0
 49
-1.0
 74
     0
 49
1.0
 74
     0
 49
-1.0
 74
     0
  0
ENDTAB
  0
TABLE
  2
LAYER
  5
2
330
0
100
AcDbSymbolTable
 70
     2
  0
LAYER
  5
10
330
2
100
AcDbSymbolTableRecord
100
AcDbLayerTableRecord
  2
0
 70
     0
 62
     7
  6
Continuous
370
    -3
390
F
  0
LAYER
  5
75
330
2
100
AcDbSymbolTableRecord
100
AcDbLayerTableRecord
  2
1
 70
     0
 62
     7
  6
Continuous
370
    -3
390
F
  0
ENDTAB
  0
TABLE
  2
STYLE
  5
3
330
0
100
AcDbSymbolTable
 70
     2
  0
STYLE
  5
11
330
3
100
AcDbSymbolTableRecord
100
AcDbTextStyleTableRecord
  2
Standard
 70
     0
 40
0.0
 41
1.0
 50
0.0
 71
     0
 42
0.2
  3
txt
  4

  0
STYLE
  5
A7
330
3
100
AcDbSymbolTableRecord
100
AcDbTextStyleTableRecord
  2
CONVERTER_11
 70
     0
 40
0.0
 41
0.9
 50
0.0
 71
     0
 42
0.2
  3
txt.shx
  4

  0
ENDTAB
  0
TABLE
  2
VIEW
  5
6
330
0
100
AcDbSymbolTable
 70
     0
  0
ENDTAB
  0
TABLE
  2
UCS
  5
7
330
0
100
AcDbSymbolTable
 70
     0
  0
ENDTAB
  0
TABLE
  2
APPID
  5
9
330
0
100
AcDbSymbolTable
 70
     2
  0
APPID
  5
12
330
9
100
AcDbSymbolTableRecord
100
AcDbRegAppTableRecord
  2
ACAD
 70
     0
  0
APPID
  5
228
330
9
100
AcDbSymbolTableRecord
100
AcDbRegAppTableRecord
  2
ACAD_MLEADERVER
 70
     0
  0
ENDTAB
  0
TABLE
  2
DIMSTYLE
  5
A
330
0
100
AcDbSymbolTable
 70
     4
100
AcDbDimStyleTable
  0
DIMSTYLE
105
27
330
A
100
AcDbSymbolTableRecord
100
AcDbDimStyleTableRecord
  2
Standard
 70
     0
178
     0
340
11
  0
DIMSTYLE
105
1CF
102
{ACAD_REACTORS
330
1D0
102
}
330
A
100
AcDbSymbolTableRecord
100
AcDbDimStyleTableRecord
  2
ME10_DIM_10
 70
     0
  3
 {\Fgdt;n}<>
 41
7.0
 42
0.0
 44
2.0
 73
     0
 74
     0
 77
     1
 78
     8
140
7.0
147
2.0
172
     1
173
     1
174
     1
175
     1
176
     4
177
     4
271
     1
178
     1
271
     1
340
A7
  0
DIMSTYLE
105
1DA
102
{ACAD_REACTORS
330
1DB
102
}
330
A
100
AcDbSymbolTableRecord
100
AcDbDimStyleTableRecord
  2
ME10_DIM_11
 70
     0
 41
7.0
 42
0.0
 44
2.0
 73
     0
 74
     0
 77
     1
 78
     8
140
7.0
147
2.0
172
     1
173
     1
174
     1
175
     1
176
     4
177
     4
271
     1
178
     1
271
     1
340
A7
  0
DIMSTYLE
105
1E5
102
{ACAD_REACTORS
330
1E6
102
}
330
A
100
AcDbSymbolTableRecord
100
AcDbDimStyleTableRecord
  2
ME10_DIM_12
 70
     0
  3
 {\Fgdt;n}<>
 41
7.0
 42
0.0
 44
2.0
 73
     0
 74
     0
 77
     1
 78
     8
140
7.0
147
2.0
172
     1
173
     1
174
     1
175
     1
176
     4
177
     4
271
     2
178
     1
271
     2
340
A7
  0
ENDTAB
  0
TABLE
  2
BLOCK_RECORD
  5
1
330
0
100
AcDbSymbolTable
 70
    13
  0
BLOCK_RECORD
  5
1F
330
1
100
AcDbSymbolTableRecord
100
AcDbBlockTableRecord
  2
*Model_Space
340
22
  0
BLOCK_RECORD
  5
1B
330
1
100
AcDbSymbolTableRecord
100
AcDbBlockTableRecord
  2
*Paper_Space
340
1E
  0
BLOCK_RECORD
  5
23
330
1
100
AcDbSymbolTableRecord
100
AcDbBlockTableRecord
  2
*Paper_Space0
340
26
  0
BLOCK_RECORD
  5
76
330
1
100
AcDbSymbolTableRecord
100
AcDbBlockTableRecord
  2
HL350_1-Aufstockelement__1
340
0
102
{BLKREFS
331
7D
102
}
  0
BLOCK_RECORD
  5
79
330
1
100
AcDbSymbolTableRecord
100
AcDbBlockTableRecord
  2
HL084_2E_Edelstahlflansch__2
340
0
102
{BLKREFS
331
7E
102
}
  0
BLOCK_RECORD
  5
7C
330
1
100
AcDbSymbolTableRecord
100
AcDbBlockTableRecord
  2
BG-HL350_0__3
340
0
102
{BLKREFS
331
82
102
}
  0
BLOCK_RECORD
  5
81
330
1
100
AcDbSymbolTableRecord
100
AcDbBlockTableRecord
  2
Drfsicht2
340
0
102
{BLKREFS
331
98
102
}
  0
BLOCK_RECORD
  5
85
330
1
100
AcDbSymbolTableRecord
100
AcDbBlockTableRecord
  2
HL084_4E-Klemmring
340
0
102
{BLKREFS
331
8F
102
}
  0
BLOCK_RECORD
  5
88
330
1
100
AcDbSymbolTableRecord
100
AcDbBlockTableRecord
  2
HL350_1-Aufstockelement__4
340
0
102
{BLKREFS
331
90
102
}
  0
BLOCK_RECORD
  5
8B
330
1
100
AcDbSymbolTableRecord
100
AcDbBlockTableRecord
  2
HL084_2E_Edelstahlflansch__5
340
0
102
{BLKREFS
331
91
102
}
  0
BLOCK_RECORD
  5
8E
330
1
100
AcDbSymbolTableRecord
100
AcDbBlockTableRecord
  2
BG-HL350_0__6
340
0
102
{BLKREFS
331
95
102
}
  0
BLOCK_RECORD
  5
94
330
1
100
AcDbSymbolTableRecord
100
AcDbBlockTableRecord
  2
Vordans1
340
0
102
{BLKREFS
331
99
102
}
  0
BLOCK_RECORD
  5
1C6
330
1
100
AcDbSymbolTableRecord
100
AcDbBlockTableRecord
  2
*D10
340
0
  0
BLOCK_RECORD
  5
1D1
330
1
100
AcDbSymbolTableRecord
100
AcDbBlockTableRecord
  2
*D11
340
0
  0
BLOCK_RECORD
  5
1DC
330
1
100
AcDbSymbolTableRecord
100
AcDbBlockTableRecord
  2
*D12
340
0
  0
ENDTAB
  0
ENDSEC
  0
SECTION
  2
BLOCKS
  0
BLOCK
  5
20
330
1F
100
AcDbEntity
  8
0
100
AcDbBlockBegin
  2
*Model_Space
 70
     0
 10
0.0
 20
0.0
 30
0.0
  3
*Model_Space
  1

  0
ENDBLK
  5
21
330
1F
100
AcDbEntity
  8
0
100
AcDbBlockEnd
  0
BLOCK
  5
1C
330
1B
100
AcDbEntity
 67
     1
  8
0
100
AcDbBlockBegin
  2
*Paper_Space
 70
     0
 10
0.0
 20
0.0
 30
0.0
  3
*Paper_Space
  1

  0
ENDBLK
  5
1D
330
1B
100
AcDbEntity
 67
     1
  8
0
100
AcDbBlockEnd
  0
BLOCK
  5
24
330
23
100
AcDbEntity
  8
0
100
AcDbBlockBegin
  2
*Paper_Space0
 70
     0
 10
0.0
 20
0.0
 30
0.0
  3
*Paper_Space0
  1

  0
ENDBLK
  5
25
330
23
100
AcDbEntity
  8
0
100
AcDbBlockEnd
  0
BLOCK
  5
77
330
76
100
AcDbEntity
  8
0
100
AcDbBlockBegin
  2
HL350_1-Aufstockelement__1
 70
     0
 10
-350.0000034422048
 20
-442.073619814789
 30
0.0
  3
HL350_1-Aufstockelement__1
  1

  0
LINE
  5
9A
330
76
100
AcDbEntity
  8
1
  6
DOT_CENTER
 62
     2
100
AcDbLine
 10
-200.0000034422048
 20
-127.0736198147891
 30
0.0
 11
-200.0000034422048
 21
-457.0736198147891
 31
0.0
  0
LINE
  5
9B
330
76
100
AcDbEntity
  8
1
  6
DOT_CENTER
 62
     2
100
AcDbLine
 10
-35.00000344220485
 20
-292.0736198147891
 30
0.0
 11
-365.0000034422048
 21
-292.0736198147891
 31
0.0
  0
CIRCLE
  5
9C
330
76
100
AcDbEntity
  8
0
  6
Continuous
 62
     7
100
AcDbCircle
 10
-200.0000034422048
 20
-292.0736198147891
 30
0.0
 40
69.39999999999992
  0
CIRCLE
  5
9D
330
76
100
AcDbEntity
  8
0
  6
Continuous
 62
     3
100
AcDbCircle
 10
-200.0000034422048
 20
-292.0736198147891
 30
0.0
 40
74.39999999999992
  0
CIRCLE
  5
9E
330
76
100
AcDbEntity
  8
0
  6
Continuous
 62
     7
100
AcDbCircle
 10
-200.0000034422048
 20
-292.0736198147891
 30
0.0
 40
110.999999071306
  0
CIRCLE
  5
9F
330
76
100
AcDbEntity
  8
0
  6
Continuous
 62
     7
100
AcDbCircle
 10
-200.0000034422048
 20
-292.0736198147891
 30
0.0
 40
149.9999999999999
  0
ENDBLK
  5
78
330
76
100
AcDbEntity
  8
0
100
AcDbBlockEnd
  0
BLOCK
  5
7A
330
79
100
AcDbEntity
  8
0
100
AcDbBlockBegin
  2
HL084_2E_Edelstahlflansch__2
 70
     0
 10
-309.9990033421848
 20
-402.0726197147691
 30
0.0
  3
HL084_2E_Edelstahlflansch__2
  1

  0
CIRCLE
  5
A0
330
79
100
AcDbEntity
  8
0
  6
Continuous
 62
     7
100
AcDbCircle
 10
-200.0000034422047
 20
-292.0736198147891
 30
0.0
 40
109.99899989998
  0
CIRCLE
  5
A1
330
79
100
AcDbEntity
  8
0
  6
Continuous
 62
     7
100
AcDbCircle
 10
-200.0000034422047
 20
-292.0736198147891
 30
0.0
 40
105.5262389627584
  0
CIRCLE
  5
A2
330
79
100
AcDbEntity
  8
0
  6
Continuous
 62
     3
100
AcDbCircle
 10
-200.0000034422047
 20
-292.0736198147891
 30
0.0
 40
76.00000000000004
  0
CIRCLE
  5
A3
330
79
100
AcDbEntity
  8
0
  6
Continuous
 62
     7
100
AcDbCircle
 10
-200.0000034422047
 20
-292.0736198147891
 30
0.0
 40
74.8
  0
CIRCLE
  5
A4
330
79
100
AcDbEntity
  8
0
  6
Continuous
 62
     7
100
AcDbCircle
 10
-200.0000034422047
 20
-292.0736198147891
 30
0.0
 40
78.50000000000001
  0
CIRCLE
  5
A5
330
79
100
AcDbEntity
  8
0
  6
Continuous
 62
     3
100
AcDbCircle
 10
-200.0000034422047
 20
-292.0736198147891
 30
0.0
 40
85.37783315493913
  0
CIRCLE
  5
A6
330
79
100
AcDbEntity
  8
0
  6
Continuous
 62
     7
100
AcDbCircle
 10
-200.0000034422047
 20
-292.0736198147891
 30
0.0
 40
108.9597979746447
  0
ENDBLK
  5
7B
330
79
100
AcDbEntity
  8
0
100
AcDbBlockEnd
  0
BLOCK
  5
7F
330
7C
100
AcDbEntity
  8
0
100
AcDbBlockBegin
  2
BG-HL350_0__3
 70
     0
 10
-350.0000034422048
 20
-442.073619814789
 30
0.0
  3
BG-HL350_0__3
  1

  0
INSERT
  5
7D
330
7C
100
AcDbEntity
  8
0
100
AcDbBlockReference
  2
HL350_1-Aufstockelement__1
 10
-350.0000034422048
 20
-442.073619814789
 30
0.0
  0
INSERT
  5
7E
330
7C
100
AcDbEntity
  8
0
100
AcDbBlockReference
  2
HL084_2E_Edelstahlflansch__2
 10
-309.9990033421848
 20
-402.0726197147691
 30
0.0
  0
ENDBLK
  5
80
330
7C
100
AcDbEntity
  8
0
100
AcDbBlockEnd
  0
BLOCK
  5
83
330
81
100
AcDbEntity
  8
0
100
AcDbBlockBegin
  2
Drfsicht2
 70
     0
 10
-199.9999999999998
 20
-292.0736198147891
 30
0.0
  3
Drfsicht2
  1

  0
INSERT
  5
82
330
81
100
AcDbEntity
  8
0
100
AcDbBlockReference
  2
BG-HL350_0__3
 10
-350.0000034422048
 20
-442.073619814789
 30
0.0
  0
MTEXT
  5
A8
330
81
100
AcDbEntity
  8
1
 62
     1
100
AcDbMText
 10
-200.0000034422048
 20
-462.0736198147891
 30
0.0
 40
3.5
 41
0.0
 71
     2
 72
     1
  1
 
  7
CONVERTER_11
 73
     1
 44
1.32052821128451
  0
ENDBLK
  5
84
330
81
100
AcDbEntity
  8
0
100
AcDbBlockEnd
  0
BLOCK
  5
86
330
85
100
AcDbEntity
  8
0
100
AcDbBlockBegin
  2
HL084_4E-Klemmring
 70
     0
 10
-292.5011709422049
 20
285.5765280252394
 30
0.0
  3
HL084_4E-Klemmring
  1

  0
LINE
  5
A9
330
85
100
AcDbEntity
  8
1
  6
DOT_CENTER
 62
     2
100
AcDbLine
 10
-200.0000034422048
 20
283.153797674585
 30
0.0
 11
-200.0000034422048
 21
304.204047854421
 31
0.0
  0
LINE
  5
AA
330
85
100
AcDbEntity
  8
0
  6
Continuous
 62
     7
100
AcDbLine
 10
-289.3597889422049
 20
292.4493880252394
 30
0.0
 11
-291.5709275704096
 21
292.6040062443163
 31
0.0
  0
LINE
  5
AB
330
85
100
AcDbEntity
  8
0
  6
Continuous
 62
     7
100
AcDbLine
 10
-112.3584075930158
 20
292.4493880252404
 30
0.0
 11
-289.3597889422049
 21
292.4493880252394
 31
0.0
  0
LINE
  5
AC
330
85
100
AcDbEntity
  8
0
  6
Continuous
 62
     3
100
AcDbLine
 10
-108.429079314
 20
292.6040062443179
 30
0.0
 11
-291.5709275704096
 21
292.6040062443163
 31
0.0
  0
LINE
  5
AD
330
85
100
AcDbEntity
  8
0
  6
Continuous
 62
     7
100
AcDbLine
 10
-292.5011709422049
 20
293.6015702837757
 30
0.0
 11
-292.5011709422049
 21
301.2897936467837
 31
0.0
  0
LINE
  5
AE
330
85
100
AcDbEntity
  8
0
  6
Continuous
 62
     3
100
AcDbLine
 10
-107.4988359422047
 20
293.6015702837768
 30
0.0
 11
-292.5011709422049
 21
293.6015702837757
 31
0.0
  0
LINE
  5
AF
330
85
100
AcDbEntity
  8
0
  6
Continuous
 62
     7
100
AcDbLine
 10
-107.4988359422047
 20
301.2897936467846
 30
0.0
 11
-292.5011709422049
 21
301.2897936467837
 31
0.0
  0
LINE
  5
B0
330
85
100
AcDbEntity
  8
0
  6
Continuous
 62
     7
100
AcDbLine
 10
-107.4988359422047
 20
293.6015702837768
 30
0.0
 11
-107.4988359422047
 21
301.2897936467846
 31
0.0
  0
LINE
  5
B1
330
85
100
AcDbEntity
  8
0
  6
Continuous
 62
     7
100
AcDbLine
 10
-287.6415992913939
 20
292.4493880252394
 30
0.0
 11
-287.6413169422049
 21
285.5765280252394
 31
0.0
  0
LINE
  5
B2
330
85
100
AcDbEntity
  8
0
  6
Continuous
 62
     7
100
AcDbLine
 10
-112.3586899422046
 20
285.5765280252404
 30
0.0
 11
-287.6413169422049
 21
285.5765280252394
 31
0.0
  0
LINE
  5
B3
330
85
100
AcDbEntity
  8
0
  6
Continuous
 62
     7
100
AcDbLine
 10
-110.6402179422047
 20
292.4493880252402
 30
0.0
 11
-112.3584075930158
 21
292.4493880252404
 31
0.0
  0
LINE
  5
B4
330
85
100
AcDbEntity
  8
0
  6
Continuous
 62
     7
100
AcDbLine
 10
-110.6402179422047
 20
292.4493880252402
 30
0.0
 11
-108.429079314
 21
292.6040062443179
 31
0.0
  0
LINE
  5
B5
330
85
100
AcDbEntity
  8
0
  6
Continuous
 62
     7
100
AcDbLine
 10
-112.3584075930158
 20
292.4493880252404
 30
0.0
 11
-112.3586899422046
 21
285.5765280252404
 31
0.0
  0
ARC
  5
B6
330
85
100
AcDbEntity
  8
0
  6
Continuous
 62
     7
100
AcDbCircle
 10
-291.5011709422049
 20
293.6015702837756
 30
0.0
 40
1.0
100
AcDbArc
 50
179.9999999999935
 51
265.9999911284527
  0
ARC
  5
B7
330
85
100
AcDbEntity
  8
0
  6
Continuous
 62
     7
100
AcDbCircle
 10
-108.4988359422047
 20
293.6015702837768
 30
0.0
 40
1.000000000000073
100
AcDbArc
 50
274.0000088715495
 51
0.0
  0
ENDBLK
  5
87
330
85
100
AcDbEntity
  8
0
100
AcDbBlockEnd
  0
BLOCK
  5
89
330
88
100
AcDbEntity
  8
0
100
AcDbBlockBegin
  2
HL350_1-Aufstockelement__4
 70
     0
 10
-350.0000034422048
 20
15.27533102523935
 30
0.0
  3
HL350_1-Aufstockelement__4
  1

  0
LINE
  5
B8
330
88
100
AcDbEntity
  8
1
  6
DOT_CENTER
 62
     2
100
AcDbLine
 10
-200.0000034422048
 20
13.6964404677009
 30
0.0
 11
-200.0000034422049
 21
240.747850064706
 31
0.0
  0
LINE
  5
B9
330
88
100
AcDbEntity
  8
0
  6
Continuous
 62
     7
100
AcDbLine
 10
-89.00000344220484
 20
229.5702080252394
 30
0.0
 11
-311.0000034422048
 21
229.5702080252394
 31
0.0
  0
LINE
  5
BA
330
88
100
AcDbEntity
  8
0
  6
Continuous
 62
     7
100
AcDbLine
 10
-104.0375664447819
 20
228.5186800250592
 30
0.0
 11
-295.9624404396277
 21
228.5186800250592
 31
0.0
  0
LINE
  5
BB
330
88
100
AcDbEntity
  8
0
  6
Continuous
 62
     7
100
AcDbLine
 10
-127.5000034422048
 20
20.27533102523935
 30
0.0
 11
-272.5000034422048
 21
20.27533102523935
 31
0.0
  0
LINE
  5
BC
330
88
100
AcDbEntity
  8
0
  6
Continuous
 62
     3
100
AcDbLine
 10
-127.5000034422048
 20
193.2753310252393
 30
0.0
 11
-272.5000034422048
 21
193.2753310252393
 31
0.0
  0
LINE
  5
BD
330
88
100
AcDbEntity
  8
0
  6
Continuous
 62
     7
100
AcDbLine
 10
-295.9624404396277
 20
228.5186800250592
 30
0.0
 11
-295.9622154422048
 21
218.5652210252393
 31
0.0
  0
LINE
  5
BE
330
88
100
AcDbEntity
  8
0
  6
Continuous
 62
     7
100
AcDbLine
 10
-127.5000034422048
 20
20.27533102523935
 30
0.0
 11
-127.5000034422048
 21
193.2753310252393
 31
0.0
  0
LINE
  5
BF
330
88
100
AcDbEntity
  8
0
  6
Continuous
 62
     7
100
AcDbLine
 10
-50.00000344220484
 20
234.3022350719285
 30
0.0
 11
-50.00000344220484
 21
237.3095610651875
 31
0.0
  0
LINE
  5
C0
330
88
100
AcDbEntity
  8
0
  6
Continuous
 62
     7
100
AcDbLine
 10
-350.0000034422048
 20
234.3022350719285
 30
0.0
 11
-350.0000034422048
 21
237.3095610651875
 31
0.0
  0
LINE
  5
C1
330
88
100
AcDbEntity
  8
0
  6
Continuous
 62
     7
100
AcDbLine
 10
-350.0000034422048
 20
234.3022350719285
 30
0.0
 11
-50.00000344220484
 21
234.3022350719285
 31
0.0
  0
LINE
  5
C2
330
88
100
AcDbEntity
  8
0
  6
Continuous
 62
     7
100
AcDbLine
 10
-350.0000034422048
 20
237.3095610651875
 30
0.0
 11
-50.00000344220484
 21
237.3095610651875
 31
0.0
  0
LINE
  5
C3
330
88
100
AcDbEntity
  8
0
  6
Continuous
 62
     7
100
AcDbLine
 10
-104.0375664447819
 20
228.5186800250592
 30
0.0
 11
-89.00000344220484
 21
229.5702080252394
 31
0.0
  0
LINE
  5
C4
330
88
100
AcDbEntity
  8
0
  6
Continuous
 62
     7
100
AcDbLine
 10
-89.00000344220484
 20
229.5702080252394
 30
0.0
 11
-81.96825144220486
 21
232.0667990252393
 31
0.0
  0
LINE
  5
C5
330
88
100
AcDbEntity
  8
0
  6
Continuous
 62
     7
100
AcDbLine
 10
-81.96825144220486
 20
232.0667990252393
 30
0.0
 11
-318.0317554422047
 21
232.0667990252393
 31
0.0
  0
LINE
  5
C6
330
88
100
AcDbEntity
  8
0
  6
Continuous
 62
     7
100
AcDbLine
 10
-279.9473384422047
 20
207.5985120252394
 30
0.0
 11
-290.7248464422048
 21
207.5985120252394
 31
0.0
  0
LINE
  5
C7
330
88
100
AcDbEntity
  8
0
  6
Continuous
 62
     7
100
AcDbLine
 10
-290.7252974422047
 20
218.5653400252393
 30
0.0
 11
-290.7248464422048
 21
207.5985120252394
 31
0.0
  0
LINE
  5
C8
330
88
100
AcDbEntity
  8
0
  6
Continuous
 62
     7
100
AcDbLine
 10
-279.9473384422047
 20
207.5985120252394
 30
0.0
 11
-279.9473024422018
 21
200.2753064458373
 31
0.0
  0
LINE
  5
C9
330
88
100
AcDbEntity
  8
0
  6
Continuous
 62
     7
100
AcDbLine
 10
-274.5000034422048
 20
195.2753310252393
 30
0.0
 11
-274.9473024422048
 21
195.2753310251817
 31
0.0
  0
LINE
  5
CA
330
88
100
AcDbEntity
  8
0
  6
Continuous
 62
     7
100
AcDbLine
 10
-271.1602574422047
 20
15.27533102523935
 30
0.0
 11
-272.5000034422048
 21
20.27533102523935
 31
0.0
  0
LINE
  5
CB
330
88
100
AcDbEntity
  8
0
  6
Continuous
 62
     7
100
AcDbLine
 10
-272.5000034422048
 20
20.27533102523935
 30
0.0
 11
-272.5000034422048
 21
193.2753310252393
 31
0.0
  0
LINE
  5
CC
330
88
100
AcDbEntity
  8
0
  6
Continuous
 62
     7
100
AcDbLine
 10
-295.9624404396277
 20
228.5186800250592
 30
0.0
 11
-311.0000034422048
 21
229.5702080252394
 31
0.0
  0
LINE
  5
CD
330
88
100
AcDbEntity
  8
0
  6
Continuous
 62
     7
100
AcDbLine
 10
-311.0000034422048
 20
229.5702080252394
 30
0.0
 11
-318.0317554422047
 21
232.0667990252393
 31
0.0
  0
LINE
  5
CE
330
88
100
AcDbEntity
  8
0
  6
Continuous
 62
     7
100
AcDbLine
 10
-318.0317554422047
 20
232.0667990252393
 30
0.0
 11
-350.0000034422048
 21
234.3022350719285
 31
0.0
  0
LINE
  5
CF
330
88
100
AcDbEntity
  8
0
  6
Continuous
 62
     7
100
AcDbLine
 10
-109.274709442205
 20
218.5653400252393
 30
0.0
 11
-109.2751604422049
 21
207.5985120252394
 31
0.0
  0
LINE
  5
D0
330
88
100
AcDbEntity
  8
0
  6
Continuous
 62
     7
100
AcDbLine
 10
-109.2751604422049
 20
207.5985120252394
 30
0.0
 11
-120.052668442205
 21
207.5985120252394
 31
0.0
  0
LINE
  5
D1
330
88
100
AcDbEntity
  8
0
  6
Continuous
 62
     7
100
AcDbLine
 10
-120.052668442205
 20
207.5985120252394
 30
0.0
 11
-120.0527044422076
 21
200.2753064458373
 31
0.0
  0
LINE
  5
D2
330
88
100
AcDbEntity
  8
0
  6
Continuous
 62
     7
100
AcDbLine
 10
-128.839749442205
 20
15.27533102523935
 30
0.0
 11
-127.5000034422048
 21
20.27533102523935
 31
0.0
  0
LINE
  5
D3
330
88
100
AcDbEntity
  8
0
  6
Continuous
 62
     7
100
AcDbLine
 10
-125.0527044422049
 20
195.2753310251817
 30
0.0
 11
-125.5000034422048
 21
195.2753310252393
 31
0.0
  0
LINE
  5
D4
330
88
100
AcDbEntity
  8
0
  6
Continuous
 62
     7
100
AcDbLine
 10
-128.839749442205
 20
15.27533102523935
 30
0.0
 11
-271.1602574422047
 21
15.27533102523935
 31
0.0
  0
LINE
  5
D5
330
88
100
AcDbEntity
  8
0
  6
Continuous
 62
     7
100
AcDbLine
 10
-104.0375664447819
 20
228.5186800250592
 30
0.0
 11
-104.0377914422049
 21
218.5652210252393
 31
0.0
  0
LINE
  5
D6
330
88
100
AcDbEntity
  8
0
  6
Continuous
 62
     7
100
AcDbLine
 10
-125.5000034422048
 20
195.2753310252393
 30
0.0
 11
-274.5000034422048
 21
195.2753310252393
 31
0.0
  0
LINE
  5
D7
330
88
100
AcDbEntity
  8
0
  6
Continuous
 62
     3
100
AcDbLine
 10
-120.0527044422076
 20
200.2753064458373
 30
0.0
 11
-279.9473024422018
 21
200.2753064458373
 31
0.0
  0
LINE
  5
D8
330
88
100
AcDbEntity
  8
0
  6
Continuous
 62
     7
100
AcDbLine
 10
-104.0377914422049
 20
218.5652210252393
 30
0.0
 11
-109.274709442205
 21
218.5653400252393
 31
0.0
  0
LINE
  5
D9
330
88
100
AcDbEntity
  8
0
  6
Continuous
 62
     7
100
AcDbLine
 10
-290.7252974422047
 20
218.5653400252393
 30
0.0
 11
-295.9622154422048
 21
218.5652210252393
 31
0.0
  0
LINE
  5
DA
330
88
100
AcDbEntity
  8
0
  6
Continuous
 62
     7
100
AcDbLine
 10
-109.274709442205
 20
218.5653400252393
 30
0.0
 11
-290.7252974422047
 21
218.5653400252393
 31
0.0
  0
LINE
  5
DB
330
88
100
AcDbEntity
  8
0
  6
Continuous
 62
     7
100
AcDbLine
 10
-120.052668442205
 20
207.5985120252394
 30
0.0
 11
-279.9473384422047
 21
207.5985120252394
 31
0.0
  0
LINE
  5
DC
330
88
100
AcDbEntity
  8
0
  6
Continuous
 62
     7
100
AcDbLine
 10
-81.96825144220486
 20
232.0667990252393
 30
0.0
 11
-50.00000344220484
 21
234.3022350719285
 31
0.0
  0
ARC
  5
DD
330
88
100
AcDbEntity
  8
0
  6
Continuous
 62
     7
100
AcDbCircle
 10
-274.5000034422048
 20
193.2753310252393
 30
0.0
 40
2.0
100
AcDbArc
 50
0.0
 51
90.0
  0
ARC
  5
DE
330
88
100
AcDbEntity
  8
0
  6
Continuous
 62
     7
100
AcDbCircle
 10
-274.9473024422048
 20
200.2753310252393
 30
0.0
 40
5.000000000057459
100
AcDbArc
 50
180.0002816591996
 51
270.0
  0
ARC
  5
DF
330
88
100
AcDbEntity
  8
0
  6
Continuous
 62
     7
100
AcDbCircle
 10
-125.5000034422048
 20
193.2753310252393
 30
0.0
 40
2.0
100
AcDbArc
 50
90.0
 51
180.0
  0
ARC
  5
E0
330
88
100
AcDbEntity
  8
0
  6
Continuous
 62
     7
100
AcDbCircle
 10
-125.0527044422049
 20
200.2753310252393
 30
0.0
 40
5.000000000057582
100
AcDbArc
 50
270.0
 51
359.9997183408004
  0
ENDBLK
  5
8A
330
88
100
AcDbEntity
  8
0
100
AcDbBlockEnd
  0
BLOCK
  5
8C
330
8B
100
AcDbEntity
  8
0
100
AcDbBlockBegin
  2
HL084_2E_Edelstahlflansch__5
 70
     0
 10
-309.9990033421848
 20
318.224669088293
 30
0.0
  3
HL084_2E_Edelstahlflansch__5
  1

  0
LINE
  5
E1
330
8B
100
AcDbEntity
  8
1
  6
DOT_CENTER
 62
     2
100
AcDbLine
 10
-200.0000034422048
 20
353.077237402388
 30
0.0
 11
-200.0000034422048
 21
316.146560164928
 31
0.0
  0
LINE
  5
E2
330
8B
100
AcDbEntity
  8
0
  6
Continuous
 62
     7
100
AcDbLine
 10
-90.0010035422248
 20
350.7246690882942
 30
0.0
 11
-309.9990033421848
 21
350.7246690882942
 31
0.0
  0
LINE
  5
E3
330
8B
100
AcDbEntity
  8
0
  6
Continuous
 62
     7
100
AcDbLine
 10
-193.964571611499
 20
326.0246690882942
 30
0.0
 11
-276.0000034422047
 21
326.0246690882942
 31
0.0
  0
LINE
  5
E4
330
8B
100
AcDbEntity
  8
0
  6
Continuous
 62
     3
100
AcDbLine
 10
-124.5000034422047
 20
325.5246690882942
 30
0.0
 11
-275.5000034422047
 21
325.5246690882942
 31
0.0
  0
LINE
  5
E5
330
8B
100
AcDbEntity
  8
0
  6
Continuous
 62
     7
100
AcDbLine
 10
-120.8000034422048
 20
341.9960603308763
 30
0.0
 11
-120.8000034422048
 21
329.2246690882943
 31
0.0
  0
LINE
  5
E6
330
8B
100
AcDbEntity
  8
0
  6
Continuous
 62
     7
100
AcDbLine
 10
-124.3657149573179
 20
320.5246690882948
 30
0.0
 11
-124.1642192658516
 21
320.524669088293
 31
0.0
  0
LINE
  5
E7
330
8B
100
AcDbEntity
  8
0
  6
Continuous
 62
     7
100
AcDbLine
 10
-125.3733668528107
 20
321.7246690882943
 30
0.0
 11
-124.667979968925
 21
321.7246690882943
 31
0.0
  0
LINE
  5
E8
330
8B
100
AcDbEntity
  8
0
  6
Continuous
 62
     3
100
AcDbLine
 10
-124.667979968925
 20
321.5246690882942
 30
0.0
 11
-124.5000034422047
 21
321.5246690882929
 31
0.0
  0
LINE
  5
E9
330
8B
100
AcDbEntity
  8
0
  6
Continuous
 62
     7
100
AcDbLine
 10
-124.1642192658517
 20
321.224669088293
 30
0.0
 11
-124.2000034422048
 21
321.2246690882947
 31
0.0
  0
LINE
  5
EA
330
8B
100
AcDbEntity
  8
0
  6
Continuous
 62
     7
100
AcDbLine
 10
-125.9113179536874
 20
320.524669088293
 30
0.0
 11
-124.3657149573179
 21
320.5246690882948
 31
0.0
  0
LINE
  5
EB
330
8B
100
AcDbEntity
  8
0
  6
Continuous
 62
     7
100
AcDbLine
 10
-124.5000034422047
 20
325.5246690882942
 30
0.0
 11
-124.5000034422047
 21
321.5246690882929
 31
0.0
  0
LINE
  5
EC
330
8B
100
AcDbEntity
  8
0
  6
Continuous
 62
     3
100
AcDbLine
 10
-275.5000034422047
 20
321.5246690882929
 30
0.0
 11
-273.5849282276486
 21
321.5246690882942
 31
0.0
  0
LINE
  5
ED
330
8B
100
AcDbEntity
  8
0
  6
Continuous
 62
     7
100
AcDbLine
 10
-273.5849282276486
 20
321.7246690882943
 30
0.0
 11
-273.5849282276486
 21
321.5246690882942
 31
0.0
  0
LINE
  5
EE
330
8B
100
AcDbEntity
  8
0
  6
Continuous
 62
     7
100
AcDbLine
 10
-205.0897098536291
 20
321.7246690882943
 30
0.0
 11
-205.0897098536291
 21
321.5246690882942
 31
0.0
  0
LINE
  5
EF
330
8B
100
AcDbEntity
  8
0
  6
Continuous
 62
     7
100
AcDbLine
 10
-205.0335150813307
 20
321.5246690882942
 30
0.0
 11
-205.0335150813307
 21
321.7246690882943
 31
0.0
  0
LINE
  5
F0
330
8B
100
AcDbEntity
  8
0
  6
Continuous
 62
     7
100
AcDbLine
 10
-131.6206689049411
 20
321.7246690882943
 30
0.0
 11
-131.6206689049411
 21
321.5246690882942
 31
0.0
  0
LINE
  5
F1
330
8B
100
AcDbEntity
  8
0
  6
Continuous
 62
     3
100
AcDbLine
 10
-168.4630261967983
 20
321.5246690882942
 30
0.0
 11
-158.1221068492001
 21
321.5246690882942
 31
0.0
  0
LINE
  5
F2
330
8B
100
AcDbEntity
  8
0
  6
Continuous
 62
     7
100
AcDbLine
 10
-262.4491721524048
 20
321.5246690882942
 30
0.0
 11
-262.4491721524048
 21
321.7246690882943
 31
0.0
  0
LINE
  5
F3
330
8B
100
AcDbEntity
  8
0
  6
Continuous
 62
     7
100
AcDbLine
 10
-267.8266874701205
 20
321.7246690882943
 30
0.0
 11
-262.4491721524048
 21
321.7246690882943
 31
0.0
  0
LINE
  5
F4
330
8B
100
AcDbEntity
  8
0
  6
Continuous
 62
     3
100
AcDbLine
 10
-267.8266874701205
 20
321.5246690882942
 30
0.0
 11
-262.4491721524048
 21
321.5246690882942
 31
0.0
  0
LINE
  5
F5
330
8B
100
AcDbEntity
  8
0
  6
Continuous
 62
     7
100
AcDbLine
 10
-267.8266874701205
 20
321.7246690882943
 30
0.0
 11
-267.8266874701205
 21
321.5246690882942
 31
0.0
  0
LINE
  5
F6
330
8B
100
AcDbEntity
  8
0
  6
Continuous
 62
     7
100
AcDbLine
 10
-268.3793379794686
 20
321.7246690882943
 30
0.0
 11
-268.3793379794686
 21
321.5246690882942
 31
0.0
  0
LINE
  5
F7
330
8B
100
AcDbEntity
  8
0
  6
Continuous
 62
     7
100
AcDbLine
 10
-272.8795413437629
 20
321.7246690882943
 30
0.0
 11
-272.8795413437629
 21
321.5246690882942
 31
0.0
  0
LINE
  5
F8
330
8B
100
AcDbEntity
  8
0
  6
Continuous
 62
     7
100
AcDbLine
 10
-205.0897098536291
 20
321.7246690882943
 30
0.0
 11
-205.0335150813307
 21
321.7246690882943
 31
0.0
  0
LINE
  5
F9
330
8B
100
AcDbEntity
  8
0
  6
Continuous
 62
     7
100
AcDbLine
 10
-216.8408156332882
 20
321.7246690882943
 30
0.0
 11
-205.0897098536291
 21
321.7246690882943
 31
0.0
  0
LINE
  5
FA
330
8B
100
AcDbEntity
  8
0
  6
Continuous
 62
     7
100
AcDbLine
 10
-158.1221068492001
 20
321.7246690882943
 30
0.0
 11
-157.5694563398521
 21
321.7246690882943
 31
0.0
  0
LINE
  5
FB
330
8B
100
AcDbEntity
  8
0
  6
Continuous
 62
     7
100
AcDbLine
 10
-183.1029964788224
 20
321.7246690882943
 30
0.0
 11
-183.1029964788224
 21
321.5246690882942
 31
0.0
  0
LINE
  5
FC
330
8B
100
AcDbEntity
  8
0
  6
Continuous
 62
     3
100
AcDbLine
 10
-157.5694563398521
 20
321.5246690882942
 30
0.0
 11
-131.6206689049411
 21
321.5246690882942
 31
0.0
  0
LINE
  5
FD
330
8B
100
AcDbEntity
  8
0
  6
Continuous
 62
     3
100
AcDbLine
 10
-216.8408156332882
 20
321.5246690882942
 30
0.0
 11
-205.0897098536291
 21
321.5246690882942
 31
0.0
  0
LINE
  5
FE
330
8B
100
AcDbEntity
  8
0
  6
Continuous
 62
     7
100
AcDbLine
 10
-168.4630261967983
 20
321.7246690882943
 30
0.0
 11
-158.1221068492001
 21
321.7246690882943
 31
0.0
  0
LINE
  5
FF
330
8B
100
AcDbEntity
  8
0
  6
Continuous
 62
     3
100
AcDbLine
 10
-127.1204655406466
 20
321.5246690882942
 30
0.0
 11
-125.3733668528107
 21
321.5246690882942
 31
0.0
  0
LINE
  5
100
330
8B
100
AcDbEntity
  8
0
  6
Continuous
 62
     7
100
AcDbLine
 10
-127.1204655406466
 20
321.7246690882943
 30
0.0
 11
-125.3733668528107
 21
321.7246690882943
 31
0.0
  0
LINE
  5
101
330
8B
100
AcDbEntity
  8
0
  6
Continuous
 62
     7
100
AcDbLine
 10
-204.9933828947976
 20
321.2246690882947
 30
0.0
 11
-205.0094350851059
 21
321.2246690882968
 31
0.0
  0
LINE
  5
102
330
8B
100
AcDbEntity
  8
0
  6
Continuous
 62
     3
100
AcDbLine
 10
-205.0335150813307
 20
321.5246690882942
 30
0.0
 11
-183.1029964788224
 21
321.5246690882942
 31
0.0
  0
LINE
  5
103
330
8B
100
AcDbEntity
  8
0
  6
Continuous
 62
     7
100
AcDbLine
 10
-273.8871932392557
 20
321.2246690882943
 30
0.0
 11
-274.0886889307219
 21
321.2246690882948
 31
0.0
  0
LINE
  5
104
330
8B
100
AcDbEntity
  8
0
  6
Continuous
 62
     7
100
AcDbLine
 10
-262.7854653494519
 20
321.2246690882942
 30
0.0
 11
-262.6509680168424
 21
321.2246690882939
 31
0.0
  0
LINE
  5
105
330
8B
100
AcDbEntity
  8
0
  6
Continuous
 62
     7
100
AcDbLine
 10
-268.6160691810751
 20
321.2246690882943
 30
0.0
 11
-268.7738509832456
 21
321.2246690882939
 31
0.0
  0
LINE
  5
106
330
8B
100
AcDbEntity
  8
0
  6
Continuous
 62
     7
100
AcDbLine
 10
-126.1128136451538
 20
320.5246690882942
 30
0.0
 11
-125.9113179536874
 21
320.524669088293
 31
0.0
  0
LINE
  5
107
330
8B
100
AcDbEntity
  8
0
  6
Continuous
 62
     7
100
AcDbLine
 10
-131.3839377033347
 20
321.2246690882943
 30
0.0
 11
-131.2261559011643
 21
321.2246690882946
 31
0.0
  0
LINE
  5
108
330
8B
100
AcDbEntity
  8
0
  6
Continuous
 62
     7
100
AcDbLine
 10
-131.3839377033347
 20
321.2246690882943
 30
0.0
 11
-157.1749433360751
 21
321.2246690882946
 31
0.0
  0
LINE
  5
109
330
8B
100
AcDbEntity
  8
0
  6
Continuous
 62
     7
100
AcDbLine
 10
-262.6509680168424
 20
321.2246690882939
 30
0.0
 11
-232.3443676251924
 21
321.2246690882942
 31
0.0
  0
LINE
  5
10A
330
8B
100
AcDbEntity
  8
0
  6
Continuous
 62
     3
100
AcDbLine
 10
-262.4491721524048
 20
321.5246690882942
 30
0.0
 11
-232.0080744281452
 21
321.5246690882942
 31
0.0
  0
LINE
  5
10B
330
8B
100
AcDbEntity
  8
0
  6
Continuous
 62
     7
100
AcDbLine
 10
-268.6160691810751
 20
320.5246690882942
 30
0.0
 11
-263.6381529085938
 21
320.5246690882946
 31
0.0
  0
LINE
  5
10C
330
8B
100
AcDbEntity
  8
0
  6
Continuous
 62
     7
100
AcDbLine
 10
-167.7901365918273
 20
320.5246690882942
 30
0.0
 11
-167.6556392592178
 21
320.5246690882943
 31
0.0
  0
LINE
  5
10D
330
8B
100
AcDbEntity
  8
0
  6
Continuous
 62
     7
100
AcDbLine
 10
-167.6556392592178
 20
320.5246690882943
 30
0.0
 11
-157.3327251382457
 21
320.5246690882946
 31
0.0
  0
LINE
  5
10E
330
8B
100
AcDbEntity
  8
0
  6
Continuous
 62
     7
100
AcDbLine
 10
-216.9210904018114
 20
320.5246690882892
 30
0.0
 11
-205.0094350851059
 21
320.5246690882942
 31
0.0
  0
LINE
  5
10F
330
8B
100
AcDbEntity
  8
0
  6
Continuous
 62
     7
100
AcDbLine
 10
-268.7738509832456
 20
320.524669088294
 30
0.0
 11
-268.6160691810751
 21
320.5246690882942
 31
0.0
  0
LINE
  5
110
330
8B
100
AcDbEntity
  8
0
  6
Continuous
 62
     7
100
AcDbLine
 10
-205.0094350851059
 20
320.5246690882942
 30
0.0
 11
-204.9933828947977
 21
320.5246690882935
 31
0.0
  0
LINE
  5
111
330
8B
100
AcDbEntity
  8
0
  6
Continuous
 62
     7
100
AcDbLine
 10
-157.3327251382457
 20
320.5246690882946
 30
0.0
 11
-157.1749433360751
 21
320.5246690882941
 31
0.0
  0
LINE
  5
112
330
8B
100
AcDbEntity
  8
0
  6
Continuous
 62
     7
100
AcDbLine
 10
-274.0886889307219
 20
320.5246690882935
 30
0.0
 11
-273.8871932392557
 21
320.5246690882942
 31
0.0
  0
LINE
  5
113
330
8B
100
AcDbEntity
  8
0
  6
Continuous
 62
     7
100
AcDbLine
 10
-275.8000034422048
 20
321.2246690882936
 30
0.0
 11
-274.0886889307219
 21
321.2246690882948
 31
0.0
  0
LINE
  5
114
330
8B
100
AcDbEntity
  8
0
  6
Continuous
 62
     7
100
AcDbLine
 10
-276.0000034422047
 20
318.2246690882947
 30
0.0
 11
-274.0912279660093
 21
318.2247379019489
 31
0.0
  0
LINE
  5
115
330
8B
100
AcDbEntity
  8
0
  6
Continuous
 62
     7
100
AcDbLine
 10
-262.7622853326651
 20
318.224669088294
 30
0.0
 11
-232.3815735078504
 21
318.224669088294
 31
0.0
  0
LINE
  5
116
330
8B
100
AcDbEntity
  8
0
  6
Continuous
 62
     7
100
AcDbLine
 10
-232.2631295702287
 20
318.2246690882943
 30
0.0
 11
-232.3815735078504
 21
318.224669088294
 31
0.0
  0
LINE
  5
117
330
8B
100
AcDbEntity
  8
0
  6
Continuous
 62
     7
100
AcDbLine
 10
-232.2631295702287
 20
318.9246690882942
 30
0.0
 11
-232.2631295702287
 21
318.2246690882943
 31
0.0
  0
LINE
  5
118
330
8B
100
AcDbEntity
  8
0
  6
Continuous
 62
     7
100
AcDbLine
 10
-215.5053484465435
 20
318.2246690882943
 30
0.0
 11
-204.9820106166765
 21
318.2246690882947
 31
0.0
  0
LINE
  5
119
330
8B
100
AcDbEntity
  8
0
  6
Continuous
 62
     3
100
AcDbLine
 10
-215.5053484465435
 20
318.9246690882942
 30
0.0
 11
-215.5053484465435
 21
318.2246690882943
 31
0.0
  0
LINE
  5
11A
330
8B
100
AcDbEntity
  8
0
  6
Continuous
 62
     7
100
AcDbLine
 10
-157.1409790494075
 20
318.2246690882945
 30
0.0
 11
-157.3553690717314
 21
318.2246690882943
 31
0.0
  0
LINE
  5
11B
330
8B
100
AcDbEntity
  8
0
  6
Continuous
 62
     7
100
AcDbLine
 10
-131.2436661336795
 20
318.2246690882945
 30
0.0
 11
-157.1409790494075
 21
318.2246690882945
 31
0.0
  0
LINE
  5
11C
330
8B
100
AcDbEntity
  8
0
  6
Continuous
 62
     7
100
AcDbLine
 10
-267.1590796663481
 20
318.2246690882943
 30
0.0
 11
-268.7563407507303
 21
318.2246690882943
 31
0.0
  0
LINE
  5
11D
330
8B
100
AcDbEntity
  8
0
  6
Continuous
 62
     7
100
AcDbLine
 10
-267.1590796663481
 20
318.2246690882943
 30
0.0
 11
-262.7622853326651
 21
318.224669088294
 31
0.0
  0
LINE
  5
11E
330
8B
100
AcDbEntity
  8
0
  6
Continuous
 62
     7
100
AcDbLine
 10
-183.0739747123699
 20
318.2246690882947
 30
0.0
 11
-204.9820106166765
 21
318.2246690882947
 31
0.0
  0
LINE
  5
11F
330
8B
100
AcDbEntity
  8
0
  6
Continuous
 62
     7
100
AcDbLine
 10
-215.5053484465435
 20
318.2246690882943
 30
0.0
 11
-216.9260321720391
 21
318.2246690882943
 31
0.0
  0
LINE
  5
120
330
8B
100
AcDbEntity
  8
0
  6
Continuous
 62
     7
100
AcDbLine
 10
-157.3553690717314
 20
318.9246690882942
 30
0.0
 11
-157.3553690717314
 21
318.2246690882943
 31
0.0
  0
LINE
  5
121
330
8B
100
AcDbEntity
  8
0
  6
Continuous
 62
     3
100
AcDbLine
 10
-167.0652424635712
 20
318.9246690882942
 30
0.0
 11
-167.0652424635712
 21
318.2246690882943
 31
0.0
  0
LINE
  5
122
330
8B
100
AcDbEntity
  8
0
  6
Continuous
 62
     3
100
AcDbLine
 10
-204.9802180844455
 20
318.9416665284639
 30
0.0
 11
-204.9802180844455
 21
318.2336650612371
 31
0.0
  0
LINE
  5
123
330
8B
100
AcDbEntity
  8
0
  6
Continuous
 62
     7
100
AcDbLine
 10
-167.0652424635712
 20
318.2246690882943
 30
0.0
 11
-157.3553690717314
 21
318.2246690882943
 31
0.0
  0
LINE
  5
124
330
8B
100
AcDbEntity
  8
0
  6
Continuous
 62
     7
100
AcDbLine
 10
-167.0652424635712
 20
318.9246690882942
 30
0.0
 11
-157.3553690717314
 21
318.9246690882942
 31
0.0
  0
LINE
  5
125
330
8B
100
AcDbEntity
  8
0
  6
Continuous
 62
     7
100
AcDbLine
 10
-216.9260321720394
 20
318.9248198382309
 30
0.0
 11
-215.5053484465435
 21
318.9246690882942
 31
0.0
  0
LINE
  5
126
330
8B
100
AcDbEntity
  8
0
  6
Continuous
 62
     7
100
AcDbLine
 10
-157.3553690717314
 20
318.9246690882942
 30
0.0
 11
-157.1409790494072
 21
318.9246690882941
 31
0.0
  0
LINE
  5
127
330
8B
100
AcDbEntity
  8
0
  6
Continuous
 62
     7
100
AcDbLine
 10
-232.3815735078501
 20
318.924669088294
 30
0.0
 11
-232.2631295702287
 21
318.9246690882942
 31
0.0
  0
LINE
  5
128
330
8B
100
AcDbEntity
  8
0
  6
Continuous
 62
     7
100
AcDbLine
 10
-267.1590796663481
 20
318.9246690882942
 30
0.0
 11
-263.6380310815081
 21
318.9246690882942
 31
0.0
  0
LINE
  5
129
330
8B
100
AcDbEntity
  8
0
  6
Continuous
 62
     7
100
AcDbLine
 10
-268.7563407507305
 20
318.9246690882941
 30
0.0
 11
-267.1590796663481
 21
318.9246690882942
 31
0.0
  0
LINE
  5
12A
330
8B
100
AcDbEntity
  8
0
  6
Continuous
 62
     3
100
AcDbLine
 10
-269.0149616245429
 20
318.2561504745082
 30
0.0
 11
-269.014961624542
 21
318.9853809719035
 31
0.0
  0
LINE
  5
12B
330
8B
100
AcDbEntity
  8
0
  6
Continuous
 62
     7
100
AcDbLine
 10
-124.0000034422048
 20
326.0246690882942
 30
0.0
 11
-193.964571611499
 21
326.0246690882942
 31
0.0
  0
LINE
  5
12C
330
8B
100
AcDbEntity
  8
0
  6
Continuous
 62
     7
100
AcDbLine
 10
-275.5000034422047
 20
325.5246690882942
 30
0.0
 11
-275.5000034422047
 21
321.5246690882929
 31
0.0
  0
LINE
  5
12D
330
8B
100
AcDbEntity
  8
0
  6
Continuous
 62
     7
100
AcDbLine
 10
-279.2000034422048
 20
341.9960603308763
 30
0.0
 11
-279.2000034422048
 21
329.2246690882943
 31
0.0
  0
LINE
  5
12E
330
8B
100
AcDbEntity
  8
0
  6
Continuous
 62
     3
100
AcDbLine
 10
-193.7104481659956
 20
329.2246690882943
 30
0.0
 11
-279.2000034422048
 21
329.2246690882943
 31
0.0
  0
LINE
  5
12F
330
8B
100
AcDbEntity
  8
0
  6
Continuous
 62
     3
100
AcDbLine
 10
-120.8000034422048
 20
341.9960603308763
 30
0.0
 11
-193.7104481659956
 21
341.9960603308763
 31
0.0
  0
LINE
  5
130
330
8B
100
AcDbEntity
  8
0
  6
Continuous
 62
     3
100
AcDbLine
 10
-193.7104481659956
 20
341.9960603308763
 30
0.0
 11
-279.2000034422048
 21
341.9960603308763
 31
0.0
  0
LINE
  5
131
330
8B
100
AcDbEntity
  8
0
  6
Continuous
 62
     3
100
AcDbLine
 10
-114.6099536027596
 20
348.2951008103615
 30
0.0
 11
-285.39005328165
 21
348.2951008103615
 31
0.0
  0
LINE
  5
132
330
8B
100
AcDbEntity
  8
0
  6
Continuous
 62
     7
100
AcDbLine
 10
-276.0000034422047
 20
321.2246690882948
 30
0.0
 11
-275.8000034422048
 21
321.2246690882936
 31
0.0
  0
LINE
  5
133
330
8B
100
AcDbEntity
  8
0
  6
Continuous
 62
     7
100
AcDbLine
 10
-94.43899260329749
 20
348.6471862442717
 30
0.0
 11
-305.5610142811122
 21
348.6471862442716
 31
0.0
  0
LINE
  5
134
330
8B
100
AcDbEntity
  8
0
  6
Continuous
 62
     7
100
AcDbLine
 10
-285.39005328165
 20
348.2951008103615
 30
0.0
 11
-305.5610142811122
 21
348.6471862442716
 31
0.0
  0
LINE
  5
135
330
8B
100
AcDbEntity
  8
0
  6
Continuous
 62
     3
100
AcDbLine
 10
-120.8000034422048
 20
329.2246690882943
 30
0.0
 11
-193.7104481659956
 21
329.2246690882943
 31
0.0
  0
LINE
  5
136
330
8B
100
AcDbEntity
  8
0
  6
Continuous
 62
     7
100
AcDbLine
 10
-125.3733668528107
 20
321.7246690882943
 30
0.0
 11
-125.3733668528107
 21
321.5246690882942
 31
0.0
  0
LINE
  5
137
330
8B
100
AcDbEntity
  8
0
  6
Continuous
 62
     7
100
AcDbLine
 10
-127.1204655406466
 20
321.7246690882943
 30
0.0
 11
-127.1204655406466
 21
321.5246690882942
 31
0.0
  0
LINE
  5
138
330
8B
100
AcDbEntity
  8
0
  6
Continuous
 62
     7
100
AcDbLine
 10
-216.8970104055866
 20
321.7246690882943
 30
0.0
 11
-216.8970104055866
 21
321.5246690882942
 31
0.0
  0
LINE
  5
139
330
8B
100
AcDbEntity
  8
0
  6
Continuous
 62
     7
100
AcDbLine
 10
-231.5369806876117
 20
321.7246690882943
 30
0.0
 11
-231.5369806876117
 21
321.5246690882942
 31
0.0
  0
LINE
  5
13A
330
8B
100
AcDbEntity
  8
0
  6
Continuous
 62
     7
100
AcDbLine
 10
-231.5369806876117
 20
321.7246690882943
 30
0.0
 11
-216.8970104055866
 21
321.7246690882943
 31
0.0
  0
LINE
  5
13B
330
8B
100
AcDbEntity
  8
0
  6
Continuous
 62
     7
100
AcDbLine
 10
-216.8408156332882
 20
321.7246690882943
 30
0.0
 11
-216.8408156332882
 21
321.5246690882942
 31
0.0
  0
LINE
  5
13C
330
8B
100
AcDbEntity
  8
0
  6
Continuous
 62
     7
100
AcDbLine
 10
-158.1221068492001
 20
321.7246690882943
 30
0.0
 11
-158.1221068492001
 21
321.5246690882942
 31
0.0
  0
LINE
  5
13D
330
8B
100
AcDbEntity
  8
0
  6
Continuous
 62
     7
100
AcDbLine
 10
-168.4630261967983
 20
321.7246690882943
 30
0.0
 11
-168.4630261967983
 21
321.5246690882942
 31
0.0
  0
LINE
  5
13E
330
8B
100
AcDbEntity
  8
0
  6
Continuous
 62
     7
100
AcDbLine
 10
-157.5694563398521
 20
321.5246690882942
 30
0.0
 11
-157.5694563398521
 21
321.7246690882943
 31
0.0
  0
LINE
  5
13F
330
8B
100
AcDbEntity
  8
0
  6
Continuous
 62
     7
100
AcDbLine
 10
-268.3793379794686
 20
321.7246690882943
 30
0.0
 11
-267.8266874701205
 21
321.7246690882943
 31
0.0
  0
LINE
  5
140
330
8B
100
AcDbEntity
  8
0
  6
Continuous
 62
     7
100
AcDbLine
 10
-272.8795413437629
 20
321.7246690882943
 30
0.0
 11
-268.3793379794686
 21
321.7246690882943
 31
0.0
  0
LINE
  5
141
330
8B
100
AcDbEntity
  8
0
  6
Continuous
 62
     7
100
AcDbLine
 10
-273.5849282276486
 20
321.7246690882943
 30
0.0
 11
-272.8795413437629
 21
321.7246690882943
 31
0.0
  0
LINE
  5
142
330
8B
100
AcDbEntity
  8
0
  6
Continuous
 62
     7
100
AcDbLine
 10
-232.0080744281452
 20
321.7246690882943
 30
0.0
 11
-232.0080744281452
 21
321.5246690882942
 31
0.0
  0
LINE
  5
143
330
8B
100
AcDbEntity
  8
0
  6
Continuous
 62
     7
100
AcDbLine
 10
-124.667979968925
 20
321.5246690882942
 30
0.0
 11
-124.667979968925
 21
321.7246690882943
 31
0.0
  0
LINE
  5
144
330
8B
100
AcDbEntity
  8
0
  6
Continuous
 62
     7
100
AcDbLine
 10
-131.6206689049411
 20
321.7246690882943
 30
0.0
 11
-127.1204655406466
 21
321.7246690882943
 31
0.0
  0
LINE
  5
145
330
8B
100
AcDbEntity
  8
0
  6
Continuous
 62
     7
100
AcDbLine
 10
-216.8970104055866
 20
321.7246690882943
 30
0.0
 11
-216.8408156332882
 21
321.7246690882943
 31
0.0
  0
LINE
  5
146
330
8B
100
AcDbEntity
  8
0
  6
Continuous
 62
     7
100
AcDbLine
 10
-232.0080744281452
 20
321.7246690882943
 30
0.0
 11
-231.5369806876117
 21
321.7246690882943
 31
0.0
  0
LINE
  5
147
330
8B
100
AcDbEntity
  8
0
  6
Continuous
 62
     7
100
AcDbLine
 10
-183.1029964788224
 20
321.7246690882943
 30
0.0
 11
-168.4630261967983
 21
321.7246690882943
 31
0.0
  0
LINE
  5
148
330
8B
100
AcDbEntity
  8
0
  6
Continuous
 62
     7
100
AcDbLine
 10
-232.2098702925829
 20
321.2246690882939
 30
0.0
 11
-232.3443676251924
 21
321.2246690882942
 31
0.0
  0
LINE
  5
149
330
8B
100
AcDbEntity
  8
0
  6
Continuous
 62
     7
100
AcDbLine
 10
-232.3443676251924
 20
320.5246690882942
 30
0.0
 11
-232.2098702925828
 21
320.5246690882946
 31
0.0
  0
LINE
  5
14A
330
8B
100
AcDbEntity
  8
0
  6
Continuous
 62
     7
100
AcDbLine
 10
-124.0000034422047
 20
321.224669088293
 30
0.0
 11
-124.1642192658517
 21
321.224669088293
 31
0.0
  0
LINE
  5
14B
330
8B
100
AcDbEntity
  8
0
  6
Continuous
 62
     7
100
AcDbLine
 10
-183.0628642922894
 20
321.2246690882947
 30
0.0
 11
-183.0789164825976
 21
321.2246690882943
 31
0.0
  0
LINE
  5
14C
330
8B
100
AcDbEntity
  8
0
  6
Continuous
 62
     7
100
AcDbLine
 10
-157.1749433360751
 20
321.2246690882946
 30
0.0
 11
-157.3327251382457
 21
321.2246690882943
 31
0.0
  0
LINE
  5
14D
330
8B
100
AcDbEntity
  8
0
  6
Continuous
 62
     7
100
AcDbLine
 10
-183.0789164825976
 20
321.2246690882943
 30
0.0
 11
-204.9933828947976
 21
321.2246690882947
 31
0.0
  0
LINE
  5
14E
330
8B
100
AcDbEntity
  8
0
  6
Continuous
 62
     7
100
AcDbLine
 10
-124.2000034422048
 20
321.2246690882947
 30
0.0
 11
-124.3657149573179
 21
321.2246690882943
 31
0.0
  0
LINE
  5
14F
330
8B
100
AcDbEntity
  8
0
  6
Continuous
 62
     7
100
AcDbLine
 10
-216.9371425921195
 20
320.5246690882942
 30
0.0
 11
-216.9210904018114
 21
320.5246690882892
 31
0.0
  0
LINE
  5
150
330
8B
100
AcDbEntity
  8
0
  6
Continuous
 62
     7
100
AcDbLine
 10
-216.9210904018114
 20
321.2246690882948
 30
0.0
 11
-216.9371425921197
 21
321.2246690882943
 31
0.0
  0
LINE
  5
151
330
8B
100
AcDbEntity
  8
0
  6
Continuous
 62
     7
100
AcDbLine
 10
-273.149236974354
 20
318.9246690882942
 30
0.0
 11
-273.149236974354
 21
318.2246690882943
 31
0.0
  0
LINE
  5
152
330
8B
100
AcDbEntity
  8
0
  6
Continuous
 62
     7
100
AcDbLine
 10
-273.149236974354
 20
318.2246690882943
 30
0.0
 11
-274.0912279660093
 21
318.2247379019489
 31
0.0
  0
LINE
  5
153
330
8B
100
AcDbEntity
  8
0
  6
Continuous
 62
     3
100
AcDbLine
 10
-274.2539406822922
 20
318.2336650612373
 30
0.0
 11
-274.2539406822903
 21
318.9416665284639
 31
0.0
  0
LINE
  5
154
330
8B
100
AcDbEntity
  8
0
  6
Continuous
 62
     7
100
AcDbLine
 10
-274.0912279660092
 20
318.9247981734665
 30
0.0
 11
-273.149236974354
 21
318.9246690882942
 31
0.0
  0
LINE
  5
155
330
8B
100
AcDbEntity
  8
0
  6
Continuous
 62
     3
100
AcDbLine
 10
-216.9503074024721
 20
318.2336650612373
 30
0.0
 11
-216.9504481760087
 21
318.9416125993
 31
0.0
  0
LINE
  5
156
330
8B
100
AcDbEntity
  8
0
  6
Continuous
 62
     3
100
AcDbLine
 10
-156.9338326947786
 20
318.9853809719035
 30
0.0
 11
-156.9338326947786
 21
318.256150474508
 31
0.0
  0
LINE
  5
157
330
8B
100
AcDbEntity
  8
0
  6
Continuous
 62
     3
100
AcDbLine
 10
-232.5498966385018
 20
318.2561504745082
 30
0.0
 11
-232.549896638501
 21
318.9853809719035
 31
0.0
  0
LINE
  5
158
330
8B
100
AcDbEntity
  8
0
  6
Continuous
 62
     3
100
AcDbLine
 10
-123.9989675142833
 20
318.9416665284639
 30
0.0
 11
-123.9989675142833
 21
318.2336650612371
 31
0.0
  0
LINE
  5
159
330
8B
100
AcDbEntity
  8
0
  6
Continuous
 62
     3
100
AcDbLine
 10
-267.1590796663481
 20
318.9246690882942
 30
0.0
 11
-267.1590796663481
 21
318.2246690882943
 31
0.0
  0
LINE
  5
15A
330
8B
100
AcDbEntity
  8
0
  6
Continuous
 62
     7
100
AcDbLine
 10
-204.9840113607517
 20
318.9276555908377
 30
0.0
 11
-204.9840079788542
 21
318.2262640110214
 31
0.0
  0
LINE
  5
15B
330
8B
100
AcDbEntity
  8
0
  6
Continuous
 62
     7
100
AcDbLine
 10
-204.9840079788542
 20
318.2262640110214
 30
0.0
 11
-204.9820106166765
 21
318.2246690882947
 31
0.0
  0
LINE
  5
15C
330
8B
100
AcDbEntity
  8
0
  6
Continuous
 62
     7
100
AcDbLine
 10
-167.7368773141814
 20
318.9246690882942
 30
0.0
 11
-167.7368773141814
 21
318.2246690882943
 31
0.0
  0
LINE
  5
15D
330
8B
100
AcDbEntity
  8
0
  6
Continuous
 62
     7
100
AcDbLine
 10
-167.0652424635712
 20
318.2246690882943
 30
0.0
 11
-167.7368773141814
 21
318.2246690882943
 31
0.0
  0
LINE
  5
15E
330
8B
100
AcDbEntity
  8
0
  6
Continuous
 62
     7
100
AcDbLine
 10
-125.2942638063471
 20
318.9246690882942
 30
0.0
 11
-124.1634713187386
 21
318.9247060432725
 31
0.0
  0
LINE
  5
15F
330
8B
100
AcDbEntity
  8
0
  6
Continuous
 62
     7
100
AcDbLine
 10
-126.8507699100554
 20
318.9246690882942
 30
0.0
 11
-126.8507699100554
 21
318.2246690882943
 31
0.0
  0
LINE
  5
160
330
8B
100
AcDbEntity
  8
0
  6
Continuous
 62
     7
100
AcDbLine
 10
-125.9087789184002
 20
318.9247981734665
 30
0.0
 11
-125.2942638063471
 21
318.9246690882942
 31
0.0
  0
LINE
  5
161
330
8B
100
AcDbEntity
  8
0
  6
Continuous
 62
     7
100
AcDbLine
 10
-126.8507699100554
 20
318.9246690882942
 30
0.0
 11
-126.8247051763525
 21
318.9246690882942
 31
0.0
  0
LINE
  5
162
330
8B
100
AcDbEntity
  8
0
  6
Continuous
 62
     3
100
AcDbLine
 10
-126.8247051763525
 20
318.9246690882942
 30
0.0
 11
-126.8247051763525
 21
318.2246690882943
 31
0.0
  0
LINE
  5
163
330
8B
100
AcDbEntity
  8
0
  6
Continuous
 62
     7
100
AcDbLine
 10
-126.8247051763525
 20
318.2246690882943
 30
0.0
 11
-126.8507699100554
 21
318.2246690882943
 31
0.0
  0
LINE
  5
164
330
8B
100
AcDbEntity
  8
0
  6
Continuous
 62
     7
100
AcDbLine
 10
-125.2942638063471
 20
318.9246690882942
 30
0.0
 11
-125.2942638063471
 21
318.2246690882943
 31
0.0
  0
LINE
  5
165
330
8B
100
AcDbEntity
  8
0
  6
Continuous
 62
     7
100
AcDbLine
 10
-126.8247051763525
 20
318.9246690882942
 30
0.0
 11
-125.9087789184002
 21
318.9247981734665
 31
0.0
  0
LINE
  5
166
330
8B
100
AcDbEntity
  8
0
  6
Continuous
 62
     7
100
AcDbLine
 10
-167.7368773141814
 20
318.9246690882942
 30
0.0
 11
-167.6184333765599
 21
318.9246690882942
 31
0.0
  0
LINE
  5
167
330
8B
100
AcDbEntity
  8
0
  6
Continuous
 62
     7
100
AcDbLine
 10
-167.6184333765599
 20
318.9246690882942
 30
0.0
 11
-167.0652424635712
 21
318.9246690882942
 31
0.0
  0
LINE
  5
168
330
8B
100
AcDbEntity
  8
0
  6
Continuous
 62
     7
100
AcDbLine
 10
-124.0000034422047
 20
318.224669088293
 30
0.0
 11
-124.1634713187386
 21
318.2246891470684
 31
0.0
  0
LINE
  5
169
330
8B
100
AcDbEntity
  8
0
  6
Continuous
 62
     7
100
AcDbLine
 10
-124.1634713187386
 20
318.2246891470684
 30
0.0
 11
-125.2942638063471
 21
318.2246690882943
 31
0.0
  0
LINE
  5
16A
330
8B
100
AcDbEntity
  8
0
  6
Continuous
 62
     7
100
AcDbLine
 10
-126.8247051763525
 20
318.2246690882943
 30
0.0
 11
-125.2942638063471
 21
318.2246690882943
 31
0.0
  0
LINE
  5
16B
330
8B
100
AcDbEntity
  8
0
  6
Continuous
 62
     7
100
AcDbLine
 10
-215.5053484465435
 20
318.9246690882942
 30
0.0
 11
-204.9840079788542
 21
318.9246690882942
 31
0.0
  0
LINE
  5
16C
330
8B
100
AcDbEntity
  8
0
  6
Continuous
 62
     7
100
AcDbLine
 10
-114.6099536027596
 20
348.2951008103615
 30
0.0
 11
-94.43899260329749
 21
348.6471862442717
 31
0.0
  0
ARC
  5
16D
330
8B
100
AcDbEntity
  8
0
  6
Continuous
 62
     7
100
AcDbCircle
 10
-305.0000034422048
 20
355.624669088294
 30
0.0
 40
6.999999999999863
100
AcDbArc
 50
224.4270040008046
 51
265.4031337828869
  0
ARC
  5
16E
330
8B
100
AcDbEntity
  8
0
  6
Continuous
 62
     7
100
AcDbCircle
 10
-276.0000034422047
 20
325.5246690882942
 30
0.0
 40
0.5
100
AcDbArc
 50
0.0
 51
90.0
  0
ARC
  5
16F
330
8B
100
AcDbEntity
  8
0
  6
Continuous
 62
     7
100
AcDbCircle
 10
-124.0000034422048
 20
329.2246690882943
 30
0.0
 40
3.200000000000102
100
AcDbArc
 50
270.0
 51
0.0
  0
ARC
  5
170
330
8B
100
AcDbEntity
  8
0
  6
Continuous
 62
     7
100
AcDbCircle
 10
-124.2000034422048
 20
321.5246690882948
 30
0.0
 40
0.2999999999998977
100
AcDbArc
 50
180.0000000003583
 51
270.0
  0
ARC
  5
171
330
8B
100
AcDbEntity
  8
0
  6
Continuous
 62
     7
100
AcDbCircle
 10
-216.9260321720395
 20
318.9509661661198
 30
0.0
 40
0.0261463278889606
100
AcDbArc
 50
200.9614182453859
 51
270.0000000001868
  0
ARC
  5
172
330
8B
100
AcDbEntity
  8
0
  6
Continuous
 62
     7
100
AcDbCircle
 10
-125.909406273855
 20
319.7240499933419
 30
0.0
 40
0.799252066089914
100
AcDbArc
 50
270.0449730754919
 51
281.792396897026
  0
ARC
  5
173
330
8B
100
AcDbEntity
  8
0
  6
Continuous
 62
     7
100
AcDbCircle
 10
-276.0000034422047
 20
319.7246690882947
 30
0.0
 40
1.500000000000057
100
AcDbArc
 50
90.0
 51
270.0
  0
ARC
  5
174
330
8B
100
AcDbEntity
  8
0
  6
Continuous
 62
     7
100
AcDbCircle
 10
-285.5000034422047
 20
341.9960603308764
 30
0.0
 40
6.299999999999898
100
AcDbArc
 50
359.999999999999
 51
89.00000000000202
  0
ARC
  5
175
330
8B
100
AcDbEntity
  8
0
  6
Continuous
 62
     7
100
AcDbCircle
 10
-276.0000034422047
 20
329.2246690882943
 30
0.0
 40
3.200000000000102
100
AcDbArc
 50
180.0
 51
270.0
  0
ARC
  5
176
330
8B
100
AcDbEntity
  8
0
  6
Continuous
 62
     7
100
AcDbCircle
 10
-275.8000034422048
 20
321.5246690882937
 30
0.0
 40
0.3000000000001251
100
AcDbArc
 50
270.0
 51
359.999999999848
  0
ARC
  5
177
330
8B
100
AcDbEntity
  8
0
  6
Continuous
 62
     7
100
AcDbCircle
 10
-124.0000034422048
 20
325.5246690882942
 30
0.0
 40
0.5
100
AcDbArc
 50
90.0
 51
180.0
  0
ARC
  5
178
330
8B
100
AcDbEntity
  8
0
  6
Continuous
 62
     7
100
AcDbCircle
 10
-274.0905959785239
 20
319.723579030992
 30
0.0
 40
1.498841262282141
100
AcDbArc
 50
263.7434418088701
 51
269.9758411930583
  0
ARC
  5
179
330
8B
100
AcDbEntity
  8
0
  6
Continuous
 62
     7
100
AcDbCircle
 10
-274.0906520223844
 20
319.7235540731126
 30
0.0
 40
0.7987561072885001
100
AcDbArc
 50
258.2039431911775
 51
269.9586868363219
  0
ARC
  5
17A
330
8B
100
AcDbEntity
  8
0
  6
Continuous
 62
     7
100
AcDbCircle
 10
-124.1636509256168
 20
319.73270921825
 30
0.0
 40
0.8080031949394455
100
AcDbArc
 50
270.0127359845133
 51
281.7601564653816
  0
ARC
  5
17B
330
8B
100
AcDbEntity
  8
0
  6
Continuous
 62
     7
100
AcDbCircle
 10
-124.1636555408768
 20
319.7400043945945
 30
0.0
 40
1.515315258724395
100
AcDbArc
 50
270.0069656469023
 51
276.2393645226791
  0
ARC
  5
17C
330
8B
100
AcDbEntity
  8
0
  6
Continuous
 62
     7
100
AcDbCircle
 10
-124.0000034422047
 20
319.724669088293
 30
0.0
 40
1.5
100
AcDbArc
 50
270.0
 51
90.0
  0
ARC
  5
17D
330
8B
100
AcDbEntity
  8
0
  6
Continuous
 62
     7
100
AcDbCircle
 10
-114.5000034422047
 20
341.9960603308764
 30
0.0
 40
6.299999999999821
100
AcDbArc
 50
91.00000000000017
 51
180.000000000001
  0
ARC
  5
17E
330
8B
100
AcDbEntity
  8
0
  6
Continuous
 62
     7
100
AcDbCircle
 10
-95.00000344220484
 20
355.624669088294
 30
0.0
 40
6.99999999999978
100
AcDbArc
 50
274.5968662171127
 51
315.5729959991958
  0
SPLINE
  5
17F
330
8B
100
AcDbEntity
  8
0
  6
Continuous
 62
     7
100
AcDbSpline
210
0.0
220
0.0
230
1.0
 70
  1064
 71
     3
 72
    15
 73
    11
 74
     9
 42
0.000000001
 43
0.0000000001
 44
0.00000001
 40
0.0
 40
0.0
 40
0.0
 40
0.0
 40
0.1300833406460972
 40
0.2664726754117677
 40
0.4130535356131999
 40
0.5724451487960592
 40
0.7451748786202395
 40
0.9301099134478837
 40
1.125195754422395
 40
1.324254953395587
 40
1.324254953395587
 40
1.324254953395587
 40
1.324254953395587
 10
-167.7901365918273
 20
320.5246690882942
 30
0.0
 10
-167.8336209224628
 20
320.5284260824509
 30
0.0
 10
-167.9226975527156
 20
320.5361222105925
 30
0.0
 10
-168.0496813379849
 20
320.5956780786439
 30
0.0
 10
-168.166066544644
 20
320.6876234268635
 30
0.0
 10
-168.2680609464371
 20
320.8118333941675
 30
0.0
 10
-168.3521312757734
 20
320.9632168227574
 30
0.0
 10
-168.4149007486837
 20
321.1370801217198
 30
0.0
 10
-168.4551925070194
 20
321.3268005070254
 30
0.0
 10
-168.4603974807837
 20
321.4582711111933
 30
0.0
 10
-168.4630261967983
 20
321.5246690882942
 30
0.0
 11
-167.7901365918273
 21
320.5246690882942
 31
0.0
 11
-167.918884317709
 21
320.543262095629
 31
0.0
 11
-168.0436341817779
 21
320.5983939694788
 31
0.0
 11
-168.1591824889933
 21
320.6885856436394
 31
0.0
 11
-168.2613583433224
 21
320.8109203548278
 31
0.0
 11
-168.3460563272164
 21
320.9614587596201
 31
0.0
 11
-168.4097899988694
 21
321.1350645954752
 31
0.0
 11
-168.4494726831034
 21
321.3260718453955
 31
0.0
 11
-168.4630261967983
 21
321.5246690882942
 31
0.0
  0
SPLINE
  5
180
330
8B
100
AcDbEntity
  8
0
  6
Continuous
 62
     7
100
AcDbSpline
210
0.0
220
0.0
230
1.0
 70
  1064
 71
     3
 72
    15
 73
    11
 74
     9
 42
0.000000001
 43
0.0000000001
 44
0.00000001
 40
0.0
 40
0.0
 40
0.0
 40
0.0
 40
0.1965192393596654
 40
0.3845146374863128
 40
0.5578462235048474
 40
0.7093013183677999
 40
0.8335681296683395
 40
0.9264446353706361
 40
0.9848368095825087
 40
1.009696215755741
 40
1.009696215755741
 40
1.009696215755741
 40
1.009696215755741
 10
-205.0897098536291
 20
321.5246690882942
 30
0.0
 10
-205.0894193608553
 20
321.4591596699676
 30
0.0
 10
-205.0888509882516
 20
321.3309822439491
 30
0.0
 10
-205.0841816312202
 20
321.1451096004889
 30
0.0
 10
-205.0771666528565
 20
320.9742178926114
 30
0.0
 10
-205.0671097192703
 20
320.8251456300109
 30
0.0
 10
-205.056917274213
 20
320.7019058441628
 30
0.0
 10
-205.0409650004945
 20
320.6130423503541
 30
0.0
 10
-205.0341961928359
 20
320.5515719000398
 30
0.0
 10
-205.0151287342685
 20
320.5308552149333
 30
0.0
 10
-205.0094350851059
 20
320.5246690882942
 30
0.0
 11
-205.0897098536291
 21
321.5246690882942
 31
0.0
 11
-205.0881461447422
 21
321.3281560745425
 31
0.0
 11
-205.0835395067396
 21
321.1402171253625
 31
0.0
 11
-205.0760611452693
 21
320.967046940833
 31
0.0
 11
-205.0660635294003
 21
320.8159221797482
 31
0.0
 11
-205.0538984747033
 21
320.6922522488852
 31
0.0
 11
-205.040078451905
 21
320.6004097084723
 31
0.0
 11
-205.0251011564821
 21
320.54397101106
 31
0.0
 11
-205.0094350851059
 21
320.5246690882942
 31
0.0
  0
SPLINE
  5
181
330
8B
100
AcDbEntity
  8
0
  6
Continuous
 62
     7
100
AcDbSpline
210
0.0
220
0.0
230
1.0
 70
  1064
 71
     3
 72
    11
 73
     7
 74
     5
 42
0.000000001
 43
0.0000000001
 44
0.00000001
 40
0.0
 40
0.0
 40
0.0
 40
0.0
 40
0.1182361426044016
 40
0.2284719527377412
 40
0.327883814427337
 40
0.4201450330813964
 40
0.4201450330813964
 40
0.4201450330813964
 40
0.4201450330813964
 10
-268.3793379794686
 20
321.5246690882942
 30
0.0
 10
-268.3829952044981
 20
321.4850471554298
 30
0.0
 10
-268.3900622060025
 20
321.4084842715568
 30
0.0
 10
-268.4427406802525
 20
321.310137069286
 30
0.0
 10
-268.5207543928876
 20
321.2394208237242
 30
0.0
 10
-268.5850977243213
 20
321.2294624923318
 30
0.0
 10
-268.6160691810751
 20
321.2246690882943
 30
0.0
 11
-268.3793379794686
 21
321.5246690882942
 31
0.0
 11
-268.398247628905
 21
321.4079548624181
 31
0.0
 11
-268.4501450016424
 21
321.3106995424322
 31
0.0
 11
-268.5265873007366
 21
321.2471441011942
 31
0.0
 11
-268.6160691810751
 21
321.2246690882943
 31
0.0
  0
SPLINE
  5
182
330
8B
100
AcDbEntity
  8
0
  6
Continuous
 62
     7
100
AcDbSpline
210
0.0
220
0.0
230
1.0
 70
  1064
 71
     3
 72
    11
 73
     7
 74
     5
 42
0.000000001
 43
0.0000000001
 44
0.00000001
 40
0.0
 40
0.0
 40
0.0
 40
0.0
 40
0.1178753643844375
 40
0.2350011153782492
 40
0.3520811007698895
 40
0.4697950341947912
 40
0.4697950341947912
 40
0.4697950341947912
 40
0.4697950341947912
 10
-273.5849282276486
 20
321.5246690882942
 30
0.0
 10
-273.5896726589827
 20
321.4851194003195
 30
0.0
 10
-273.5991313640379
 20
321.406271538773
 30
0.0
 10
-273.6689070476888
 20
321.3069249474156
 30
0.0
 10
-273.7689372845208
 20
321.2384759692755
 30
0.0
 10
-273.8477036963633
 20
321.2292796540056
 30
0.0
 10
-273.8871932392557
 20
321.2246690882943
 30
0.0
 11
-273.5849282276486
 21
321.5246690882942
 31
0.0
 11
-273.6084993105067
 21
321.4091744732766
 31
0.0
 11
-273.6739570728509
 21
321.3120471148195
 31
0.0
 11
-273.7717479185363
 21
321.2476679696283
 31
0.0
 11
-273.8871932392557
 21
321.2246690882943
 31
0.0
  0
SPLINE
  5
183
330
8B
100
AcDbEntity
  8
0
  6
Continuous
 62
     7
100
AcDbSpline
210
0.0
220
0.0
230
1.0
 70
  1064
 71
     3
 72
    15
 73
    11
 74
     9
 42
0.000000001
 43
0.0000000001
 44
0.00000001
 40
0.0
 40
0.0
 40
0.0
 40
0.0
 40
0.1521769266831025
 40
0.3085640015390401
 40
0.4713797193400627
 40
0.642649510995398
 40
0.823022556572599
 40
1.012044109721409
 40
1.208642475640876
 40
1.407875187086583
 40
1.407875187086583
 40
1.407875187086583
 40
1.407875187086583
 10
-268.6160691810751
 20
320.5246690882942
 30
0.0
 10
-268.5652328725901
 20
320.5283655258112
 30
0.0
 10
-268.4621538129865
 20
320.5358606809036
 30
0.0
 10
-268.3139305979918
 20
320.5944402628765
 30
0.0
 10
-268.1772020833058
 20
320.6858162967144
 30
0.0
 10
-268.0569622970606
 20
320.8098280107028
 30
0.0
 10
-267.9576807190026
 20
320.9614591632489
 30
0.0
 10
-267.8835568853399
 20
321.1357781178888
 30
0.0
 10
-267.8359418660231
 20
321.3261317134646
 30
0.0
 10
-267.8297859203678
 20
321.4581969881875
 30
0.0
 10
-267.8266874701205
 20
321.5246690882942
 30
0.0
 11
-268.6160691810751
 21
320.5246690882942
 31
0.0
 11
-268.4650323700035
 21
320.543262095629
 31
0.0
 11
-268.3186855392416
 21
320.5983939694788
 31
0.0
 11
-268.1831332587878
 21
320.6885856436394
 31
0.0
 11
-268.0632684992304
 21
320.8109203548278
 31
0.0
 11
-267.9639074168971
 21
320.9614587596201
 31
0.0
 11
-267.8891400339518
 21
321.1350645954752
 31
0.0
 11
-267.8425873974651
 21
321.3260718453955
 31
0.0
 11
-267.8266874701205
 21
321.5246690882942
 31
0.0
  0
SPLINE
  5
184
330
8B
100
AcDbEntity
  8
0
  6
Continuous
 62
     7
100
AcDbSpline
210
0.0
220
0.0
230
1.0
 70
  1064
 71
     3
 72
    15
 73
    11
 74
     9
 42
0.000000001
 43
0.0000000001
 44
0.00000001
 40
0.0
 40
0.0
 40
0.0
 40
0.0
 40
0.1960948458270185
 40
0.3929817433693865
 40
0.5895255731260642
 40
0.7859698323889679
 40
0.9822611817762983
 40
1.178873316126293
 40
1.376906927384968
 40
1.574191340818872
 40
1.574191340818872
 40
1.574191340818872
 40
1.574191340818872
 10
-126.1128136451538
 20
320.5246690882942
 30
0.0
 10
-126.1782705537912
 20
320.5284038841317
 30
0.0
 10
-126.3094487583249
 20
320.5358885755421
 30
0.0
 10
-126.4989736383611
 20
320.5944859876021
 30
0.0
 10
-126.6739495325562
 20
320.6863422953097
 30
0.0
 10
-126.8276117242596
 20
320.8108045094554
 30
0.0
 10
-126.9542002896844
 20
320.9627660928132
 30
0.0
 10
-127.0483457333857
 20
321.136950406261
 30
0.0
 10
-127.1087994496012
 20
321.3268463699961
 30
0.0
 10
-127.1165817647106
 20
321.4588115475207
 30
0.0
 10
-127.1204655406466
 20
321.5246690882942
 30
0.0
 11
-126.1128136451538
 21
320.5246690882942
 31
0.0
 11
-126.3079793357893
 21
320.5437358764518
 31
0.0
 11
-126.4966349933262
 21
320.6000696501914
 31
0.0
 11
-126.6704532358021
 21
320.6918122042707
 31
0.0
 11
-126.8231347215317
 21
320.8154192893975
 31
0.0
 11
-126.9486908320351
 21
320.9663032101645
 31
0.0
 11
-127.042517826894
 21
321.1390829169065
 31
0.0
 11
-127.1006972019242
 21
321.3283775875052
 31
0.0
 11
-127.1204655406466
 21
321.5246690882942
 31
0.0
  0
SPLINE
  5
185
330
8B
100
AcDbEntity
  8
0
  6
Continuous
 62
     7
100
AcDbSpline
210
0.0
220
0.0
230
1.0
 70
  1064
 71
     3
 72
    11
 73
     7
 74
     5
 42
0.000000001
 43
0.0000000001
 44
0.00000001
 40
0.0
 40
0.0
 40
0.0
 40
0.0
 40
0.1182361426043364
 40
0.228471952737676
 40
0.3278838144272863
 40
0.4201450330813182
 40
0.4201450330813182
 40
0.4201450330813182
 40
0.4201450330813182
 10
-131.6206689049411
 20
321.5246690882942
 30
0.0
 10
-131.6170116799116
 20
321.4850471554297
 30
0.0
 10
-131.6099446784073
 20
321.408484271557
 30
0.0
 10
-131.5572662041571
 20
321.3101370692859
 30
0.0
 10
-131.4792524915222
 20
321.2394208237241
 30
0.0
 10
-131.4149091600885
 20
321.2294624923319
 30
0.0
 10
-131.3839377033347
 20
321.2246690882943
 30
0.0
 11
-131.6206689049411
 21
321.5246690882942
 31
0.0
 11
-131.6017592555047
 21
321.4079548624182
 31
0.0
 11
-131.5498618827673
 21
321.3106995424323
 31
0.0
 11
-131.4734195836731
 21
321.2471441011942
 31
0.0
 11
-131.3839377033347
 21
321.2246690882943
 31
0.0
  0
SPLINE
  5
186
330
8B
100
AcDbEntity
  8
0
  6
Continuous
 62
     7
100
AcDbSpline
210
0.0
220
0.0
230
1.0
 70
  1064
 71
     3
 72
    15
 73
    11
 74
     9
 42
0.000000001
 43
0.0000000001
 44
0.00000001
 40
0.0
 40
0.0
 40
0.0
 40
0.0
 40
0.1960948458270979
 40
0.3929817433694576
 40
0.5895255731260599
 40
0.7859698323890077
 40
0.9822611817762417
 40
1.17887331612628
 40
1.376906927384842
 40
1.574191340818858
 40
1.574191340818858
 40
1.574191340818858
 40
1.574191340818858
 10
-273.8871932392557
 20
320.5246690882942
 30
0.0
 10
-273.8217363306183
 20
320.5284038841317
 30
0.0
 10
-273.6905581260845
 20
320.5358885755419
 30
0.0
 10
-273.5010332460483
 20
320.5944859876022
 30
0.0
 10
-273.3260573518534
 20
320.6863422953098
 30
0.0
 10
-273.1723951601498
 20
320.8108045094554
 30
0.0
 10
-273.045806594725
 20
320.9627660928131
 30
0.0
 10
-272.9516611510239
 20
321.1369504062609
 30
0.0
 10
-272.8912074348082
 20
321.3268463699961
 30
0.0
 10
-272.8834251196989
 20
321.4588115475207
 30
0.0
 10
-272.8795413437629
 20
321.5246690882942
 30
0.0
 11
-273.8871932392557
 21
320.5246690882942
 31
0.0
 11
-273.6920275486202
 21
320.5437358764518
 31
0.0
 11
-273.5033718910832
 21
320.6000696501915
 31
0.0
 11
-273.3295536486074
 21
320.6918122042707
 31
0.0
 11
-273.1768721628778
 21
320.8154192893975
 31
0.0
 11
-273.0513160523744
 21
320.9663032101644
 31
0.0
 11
-272.9574890575155
 21
321.1390829169065
 31
0.0
 11
-272.8993096824854
 21
321.3283775875051
 31
0.0
 11
-272.8795413437629
 21
321.5246690882942
 31
0.0
  0
SPLINE
  5
187
330
8B
100
AcDbEntity
  8
0
  6
Continuous
 62
     7
100
AcDbSpline
210
0.0
220
0.0
230
1.0
 70
  1064
 71
     3
 72
    15
 73
    11
 74
     9
 42
0.000000001
 43
0.0000000001
 44
0.00000001
 40
0.0
 40
0.0
 40
0.0
 40
0.0
 40
0.2431908874781937
 40
0.589538078971018
 40
0.8714909485090281
 40
1.126366929475664
 40
1.31135516678544
 40
1.584944946993522
 40
1.829452379385645
 40
1.985241304150686
 40
1.985241304150686
 40
1.985241304150686
 40
1.985241304150686
 10
-263.7933710962291
 20
319.7246690882943
 30
0.0
 10
-263.790766699147
 20
319.8057585365256
 30
0.0
 10
-263.7844531617907
 20
320.0023338187066
 30
0.0
 10
-263.7275987941796
 20
320.2890965284803
 30
0.0
 10
-263.6275305146602
 20
320.5669272503343
 30
0.0
 10
-263.5100981164926
 20
320.7783711928907
 30
0.0
 10
-263.3623981870423
 20
320.96578246335
 30
0.0
 10
-263.1817728511594
 20
321.1187827124091
 30
0.0
 10
-262.9711497336194
 20
321.2117186896973
 30
0.0
 10
-262.837485375554
 20
321.2210410005499
 30
0.0
 10
-262.7854653494519
 20
321.2246690882942
 30
0.0
 11
-263.7933710962291
 21
319.7246690882943
 31
0.0
 11
-263.7800876377436
 21
319.9674969179377
 31
0.0
 11
-263.7142207936246
 21
320.3075232918071
 31
0.0
 11
-263.6171493020132
 21
320.5722392645204
 31
0.0
 11
-263.4921810256753
 21
320.7943759247509
 31
0.0
 11
-263.3770181439843
 21
320.9391452545107
 31
0.0
 11
-263.1662620896656
 21
321.1135965502641
 31
0.0
 11
-262.94023015187
 21
321.2068352265724
 31
0.0
 11
-262.7854653494519
 21
321.2246690882942
 31
0.0
  0
SPLINE
  5
188
330
8B
100
AcDbEntity
  8
0
  6
Continuous
 62
     7
100
AcDbSpline
210
0.0
220
0.0
230
1.0
 70
  1064
 71
     3
 72
    15
 73
    11
 74
     9
 42
0.000000001
 43
0.0000000001
 44
0.00000001
 40
0.0
 40
0.0
 40
0.0
 40
0.0
 40
0.158809568875813
 40
0.3144739005470041
 40
0.4625093683898129
 40
0.6007941023092077
 40
0.7280580815520022
 40
0.84509950075436
 40
0.9546355067154481
 40
1.059068147328671
 40
1.059068147328671
 40
1.059068147328671
 40
1.059068147328671
 10
-167.1179110453843
 20
319.7246690882943
 30
0.0
 10
-167.1199933134246
 20
319.7776411811091
 30
0.0
 10
-167.1241166227098
 20
319.8825362489619
 30
0.0
 10
-167.156125104234
 20
320.0340953053253
 30
0.0
 10
-167.2061426522323
 20
320.1731817117933
 30
0.0
 10
-167.2732287811279
 20
320.2943586722557
 30
0.0
 10
-167.3545831726644
 20
320.3937578419423
 30
0.0
 10
-167.4475154393037
 20
320.4674983712407
 30
0.0
 10
-167.5492016852734
 20
320.5154307689762
 30
0.0
 10
-167.6207287309457
 20
320.5216390105411
 30
0.0
 10
-167.6556392592178
 20
320.5246690882943
 30
0.0
 11
-167.1179110453843
 21
319.7246690882943
 31
0.0
 11
-167.1286565624018
 21
319.8831146984362
 31
0.0
 11
-167.1601604861642
 21
320.0355577587077
 31
0.0
 11
-167.2109996057387
 21
320.1745897107577
 31
0.0
 11
-167.2786482898617
 21
320.2951978504278
 31
0.0
 11
-167.360071434091
 21
320.3930057863518
 31
0.0
 11
-167.452180801341
 21
320.4652176892525
 31
0.0
 11
-167.5522883523038
 21
320.5096768392443
 31
0.0
 11
-167.6556392592178
 21
320.5246690882943
 31
0.0
  0
SPLINE
  5
189
330
8B
100
AcDbEntity
  8
0
  6
Continuous
 62
     7
100
AcDbSpline
210
0.0
220
0.0
230
1.0
 70
  1064
 71
     3
 72
    15
 73
    11
 74
     9
 42
0.000000001
 43
0.0000000001
 44
0.00000001
 40
0.0
 40
0.0
 40
0.0
 40
0.0
 40
0.0196801676540873
 40
0.0663247430513403
 40
0.1405582044855492
 40
0.2399326767582546
 40
0.3609129201785841
 40
0.499264600286372
 40
0.6507351552464313
 40
0.807755710588132
 40
0.807755710588132
 40
0.807755710588132
 40
0.807755710588132
 10
-204.9933828947977
 20
320.5246690882935
 30
0.0
 10
-204.9888658859592
 20
320.5197810184609
 30
0.0
 10
-204.9736429580625
 20
320.5033075961583
 30
0.0
 10
-204.9682057528771
 20
320.4542355789384
 30
0.0
 10
-204.9554241532916
 20
320.3832174272354
 30
0.0
 10
-204.9472954997321
 20
320.2847154784001
 30
0.0
 10
-204.9392379903373
 20
320.1656394524859
 30
0.0
 10
-204.9336141126536
 20
320.0287332441563
 30
0.0
 10
-204.9298881018745
 20
319.8798466167594
 30
0.0
 10
-204.9294209067592
 20
319.7770116254952
 30
0.0
 10
-204.9291830999192
 20
319.7246690882943
 30
0.0
 11
-204.9933828947977
 21
320.5246690882935
 31
0.0
 11
-204.9809462827099
 21
320.5094165596265
 31
0.0
 11
-204.9689247197815
 21
320.4643477412895
 31
0.0
 11
-204.9578492970928
 21
320.3909451407431
 31
0.0
 11
-204.9481216122947
 21
320.2920479321915
 31
0.0
 11
-204.9401233240045
 21
320.1713323712088
 31
0.0
 11
-204.9341471532458
 21
320.033109823256
 31
0.0
 11
-204.9304419148437
 21
319.8816845933881
 31
0.0
 11
-204.9291830999192
 21
319.7246690882943
 31
0.0
  0
SPLINE
  5
18A
330
8B
100
AcDbEntity
  8
0
  6
Continuous
 62
     7
100
AcDbSpline
210
0.0
220
0.0
230
1.0
 70
  1064
 71
     3
 72
    15
 73
    11
 74
     9
 42
0.000000001
 43
0.0000000001
 44
0.00000001
 40
0.0
 40
0.0
 40
0.0
 40
0.0
 40
0.1573180341651448
 40
0.3152296085913199
 40
0.4727049470097582
 40
0.6299261513433788
 40
0.7867811469558113
 40
0.9437158103920595
 40
1.101768574191107
 40
1.259184426949304
 40
1.259184426949304
 40
1.259184426949304
 40
1.259184426949304
 10
-125.1054477383069
 20
319.7246690882943
 30
0.0
 10
-125.1085300743118
 20
319.7771846318041
 30
0.0
 10
-125.1147063899656
 20
319.8824138516112
 30
0.0
 10
-125.1627959701812
 20
320.0341086260914
 30
0.0
 10
-125.2379098110886
 20
320.1735166017297
 30
0.0
 10
-125.339066080533
 20
320.2952162347355
 30
0.0
 10
-125.4617753252833
 20
320.3948335411005
 30
0.0
 10
-125.6016360034943
 20
320.4684970221106
 30
0.0
 10
-125.7534667700905
 20
320.5156270912279
 30
0.0
 10
-125.8587717600372
 20
320.5216591535202
 30
0.0
 10
-125.9113179536874
 20
320.524669088293
 30
0.0
 11
-125.1054477383069
 21
319.7246690882943
 31
0.0
 11
-125.121143613258
 21
319.8812021645228
 31
0.0
 11
-125.1673630137791
 21
320.0321983002237
 31
0.0
 11
-125.2423302217748
 21
320.1706844022683
 31
0.0
 11
-125.3427653470103
 21
320.2916442847985
 31
0.0
 11
-125.4645686736418
 21
320.3904746431543
 31
0.0
 11
-125.603258265771
 21
320.4639163623941
 31
0.0
 11
-125.7546537106508
 21
320.5093046430998
 31
0.0
 11
-125.9113179536874
 21
320.524669088293
 31
0.0
  0
SPLINE
  5
18B
330
8B
100
AcDbEntity
  8
0
  6
Continuous
 62
     7
100
AcDbSpline
210
0.0
220
0.0
230
1.0
 70
  1064
 71
     3
 72
    15
 73
    11
 74
     9
 42
0.000000001
 43
0.0000000001
 44
0.00000001
 40
0.0
 40
0.0
 40
0.0
 40
0.0
 40
0.1573180341652013
 40
0.3152296085914183
 40
0.4727049470098363
 40
0.6299261513434857
 40
0.7867811469558659
 40
0.9437158103921534
 40
1.101768574191057
 40
1.259184426949576
 40
1.259184426949576
 40
1.259184426949576
 40
1.259184426949576
 10
-274.8945591461026
 20
319.7246690882943
 30
0.0
 10
-274.8914768100977
 20
319.7771846318041
 30
0.0
 10
-274.8853004944439
 20
319.8824138516113
 30
0.0
 10
-274.8372109142284
 20
320.0341086260916
 30
0.0
 10
-274.7620970733211
 20
320.1735166017299
 30
0.0
 10
-274.6609408038764
 20
320.2952162347355
 30
0.0
 10
-274.5382315591261
 20
320.3948335411003
 30
0.0
 10
-274.3983708809151
 20
320.4684970221106
 30
0.0
 10
-274.2465401143189
 20
320.515627091228
 30
0.0
 10
-274.1412351243723
 20
320.5216591535205
 30
0.0
 10
-274.0886889307219
 20
320.5246690882935
 30
0.0
 11
-274.8945591461026
 21
319.7246690882943
 31
0.0
 11
-274.8788632711515
 21
319.8812021645228
 31
0.0
 11
-274.8326438706304
 21
320.0321983002239
 31
0.0
 11
-274.7576766626348
 21
320.1706844022684
 31
0.0
 11
-274.6572415373992
 21
320.2916442847985
 31
0.0
 11
-274.5354382107676
 21
320.3904746431542
 31
0.0
 11
-274.3967486186384
 21
320.4639163623941
 31
0.0
 11
-274.2453531737588
 21
320.5093046430998
 31
0.0
 11
-274.0886889307219
 21
320.5246690882935
 31
0.0
  0
SPLINE
  5
18C
330
8B
100
AcDbEntity
  8
0
  6
Continuous
 62
     7
100
AcDbSpline
210
0.0
220
0.0
230
1.0
 70
  1064
 71
     3
 72
    15
 73
    11
 74
     9
 42
0.000000001
 43
0.0000000001
 44
0.00000001
 40
0.0
 40
0.0
 40
0.0
 40
0.0
 40
0.2599510248538601
 40
0.4625476879596349
 40
0.7444492155116872
 40
0.9633724026186381
 40
1.180371492177418
 40
1.517360633259671
 40
1.748187687033581
 40
2.110588936079703
 40
2.110588936079703
 40
2.110588936079703
 40
2.110588936079703
 10
-131.2261559011643
 20
321.2246690882946
 30
0.0
 10
-131.1392056700658
 20
321.2177049019583
 30
0.0
 10
-130.9844894965015
 20
321.2053130616389
 30
0.0
 10
-130.752726122171
 20
321.1091259804724
 30
0.0
 10
-130.5583422481184
 20
320.9743307721658
 30
0.0
 10
-130.3936364266171
 20
320.7991518360421
 30
0.0
 10
-130.2479409421192
 20
320.5855574616891
 30
0.0
 10
-130.1416522526692
 20
320.3445255058619
 30
0.0
 10
-130.0609151954324
 20
320.0438319256462
 30
0.0
 10
-130.0502653044718
 20
319.8457044948695
 30
0.0
 10
-130.0437593282436
 20
319.7246690882943
 30
0.0
 11
-131.2261559011643
 21
321.2246690882946
 31
0.0
 11
-130.9686894308191
 21
321.1888144644594
 31
0.0
 11
-130.7803789868806
 21
321.1140843774076
 31
0.0
 11
-130.5483788867818
 21
320.9539456046028
 31
0.0
 11
-130.3976971033927
 21
320.7951301057226
 31
0.0
 11
-130.2750702900385
 21
320.616101420957
 31
0.0
 11
-130.1370019665922
 21
320.3086948174048
 31
0.0
 11
-130.0785180236552
 21
320.0853995930679
 31
0.0
 11
-130.0437593282436
 21
319.7246690882943
 31
0.0
  0
SPLINE
  5
18D
330
8B
100
AcDbEntity
  8
0
  6
Continuous
 62
     7
100
AcDbSpline
210
0.0
220
0.0
230
1.0
 70
  1064
 71
     3
 72
    15
 73
    11
 74
     9
 42
0.000000001
 43
0.0000000001
 44
0.00000001
 40
0.0
 40
0.0
 40
0.0
 40
0.0
 40
0.3467916605708538
 40
0.5893162841623172
 40
0.8319923826246797
 40
1.178608222790225
 40
1.473566562463609
 40
1.76836464686653
 40
2.063472276660715
 40
2.360737889159305
 40
2.360737889159305
 40
2.360737889159305
 40
2.360737889159305
 10
-274.0886889307219
 20
321.2246690882948
 30
0.0
 10
-274.2045716861604
 20
321.217180803243
 30
0.0
 10
-274.4014956669841
 20
321.2044556621346
 30
0.0
 10
-274.6668145532824
 20
321.1170092246535
 30
0.0
 10
-274.9152363250667
 20
320.9921349900245
 30
0.0
 10
-275.1497178349362
 20
320.808691399121
 30
0.0
 10
-275.3504162609846
 20
320.5670327437725
 30
0.0
 10
-275.4914383756123
 20
320.3062348346425
 30
0.0
 10
-275.5821559953949
 20
320.0216729446553
 30
0.0
 10
-275.5937387181232
 20
319.8239105200644
 30
0.0
 10
-275.5995511699081
 20
319.7246690882943
 30
0.0
 11
-274.0886889307219
 21
321.2246690882948
 31
0.0
 11
-274.4332228404444
 21
321.1851615955245
 31
0.0
 11
-274.6643119294969
 21
321.1115679363363
 31
0.0
 11
-274.8808494668381
 21
321.0020088914234
 31
0.0
 11
-275.1538958606727
 21
320.7884949369978
 31
0.0
 11
-275.3423422741033
 21
320.5615844429287
 31
0.0
 11
-275.482974537452
 21
320.3024928025885
 31
0.0
 11
-275.5697768259256
 21
320.0204398339268
 31
0.0
 11
-275.5995511699081
 21
319.7246690882943
 31
0.0
  0
SPLINE
  5
18E
330
8B
100
AcDbEntity
  8
0
  6
Continuous
 62
     7
100
AcDbSpline
210
0.0
220
0.0
230
1.0
 70
  1064
 71
     3
 72
    15
 73
    11
 74
     9
 42
0.000000001
 43
0.0000000001
 44
0.00000001
 40
0.0
 40
0.0
 40
0.0
 40
0.0
 40
0.2288734080165107
 40
0.462618878017122
 40
0.7172917833307975
 40
0.9635134543436932
 40
1.244570369700478
 40
1.517563080603721
 40
1.748390134480934
 40
2.110791383741532
 40
2.110791383741532
 40
2.110791383741532
 40
2.110791383741532
 10
-268.7738509832456
 20
321.2246690882939
 30
0.0
 10
-268.8503339106242
 20
321.2192212047319
 30
0.0
 10
-269.0049278669447
 20
321.2082094538802
 30
0.0
 10
-269.2302359068598
 20
321.118477672684
 30
0.0
 10
-269.434497734733
 20
320.9805311754691
 30
0.0
 10
-269.6161181036226
 20
320.7912132889313
 30
0.0
 10
-269.7621996504841
 20
320.5660196659554
 30
0.0
 10
-269.8638479114842
 20
320.3239023365672
 30
0.0
 10
-269.9391157409548
 20
320.0438068834037
 30
0.0
 10
-269.94975070111
 20
319.8456949981608
 30
0.0
 10
-269.9562475561662
 20
319.7246690882943
 30
0.0
 11
-268.7738509832456
 21
321.2246690882939
 31
0.0
 11
-269.0010281201602
 21
321.1968556521637
 31
0.0
 11
-269.2196278975292
 21
321.1140843774076
 31
0.0
 11
-269.4309200075563
 21
320.9719086610727
 31
0.0
 11
-269.6023097810171
 21
320.7951301057226
 31
0.0
 11
-269.7561108018212
 21
320.5598893007603
 31
0.0
 11
-269.8630049178177
 21
320.3086948174048
 31
0.0
 11
-269.9214888607545
 21
320.0853995930687
 31
0.0
 11
-269.9562475561662
 21
319.7246690882943
 31
0.0
  0
SPLINE
  5
18F
330
8B
100
AcDbEntity
  8
0
  6
Continuous
 62
     7
100
AcDbSpline
210
0.0
220
0.0
230
1.0
 70
  1064
 71
     3
 72
     9
 73
     5
 74
     3
 42
0.000000001
 43
0.0000000001
 44
0.00000001
 40
0.0
 40
0.0
 40
0.0
 40
0.0
 40
0.1356649257321725
 40
0.2610741296940099
 40
0.2610741296940099
 40
0.2610741296940099
 40
0.2610741296940099
 10
-268.7563407507303
 20
318.2246690882943
 30
0.0
 10
-268.8016708077517
 20
318.2258315484398
 30
0.0
 10
-268.888904150254
 20
318.2280686112947
 30
0.0
 10
-268.9740574878513
 20
318.2470382404829
 30
0.0
 10
-269.0149616245429
 20
318.2561504745082
 30
0.0
 11
-268.7563407507303
 21
318.2246690882943
 31
0.0
 11
-268.891769263219
 21
318.2326747271978
 31
0.0
 11
-269.0149616245429
 21
318.2561504745082
 31
0.0
  0
SPLINE
  5
190
330
8B
100
AcDbEntity
  8
0
  6
Continuous
 62
     7
100
AcDbSpline
210
0.0
220
0.0
230
1.0
 70
  1064
 71
     3
 72
     9
 73
     5
 74
     3
 42
0.000000001
 43
0.0000000001
 44
0.00000001
 40
0.0
 40
0.0
 40
0.0
 40
0.0
 40
0.0151206160881787
 40
0.026623290734012
 40
0.026623290734012
 40
0.026623290734012
 40
0.026623290734012
 10
-216.9260321720391
 20
318.2246690882943
 30
0.0
 10
-216.931270662626
 20
318.2247985673638
 30
0.0
 10
-216.9404942134669
 20
318.2250265631832
 30
0.0
 10
-216.9473467481191
 20
318.2310588052595
 30
0.0
 10
-216.9503074024721
 20
318.2336650612373
 30
0.0
 11
-216.9260321720391
 21
318.2246690882943
 31
0.0
 11
-216.9409828372951
 21
318.2269297763549
 31
0.0
 11
-216.9503074024721
 21
318.2336650612373
 31
0.0
  0
SPLINE
  5
191
330
8B
100
AcDbEntity
  8
0
  6
Continuous
 62
     7
100
AcDbSpline
210
0.0
220
0.0
230
1.0
 70
  1064
 71
     3
 72
     9
 73
     5
 74
     3
 42
0.000000001
 43
0.0000000001
 44
0.00000001
 40
0.0
 40
0.0
 40
0.0
 40
0.0
 40
0.0766274426929528
 40
0.171686840195824
 40
0.171686840195824
 40
0.171686840195824
 40
0.171686840195824
 10
-232.3815735078504
 20
318.224669088294
 30
0.0
 10
-232.4071215689011
 20
318.2265254660006
 30
0.0
 10
-232.4643630155066
 20
318.2306847742287
 30
0.0
 10
-232.5194153303177
 20
318.2470753474509
 30
0.0
 10
-232.5498966385018
 20
318.2561504745082
 30
0.0
 11
-232.3815735078504
 21
318.224669088294
 31
0.0
 11
-232.4577816099808
 21
318.2326747271978
 31
0.0
 11
-232.5498966385018
 21
318.2561504745082
 31
0.0
  0
SPLINE
  5
192
330
8B
100
AcDbEntity
  8
0
  6
Continuous
 62
     7
100
AcDbSpline
210
0.0
220
0.0
230
1.0
 70
  1064
 71
     3
 72
     9
 73
     5
 74
     3
 42
0.000000001
 43
0.0000000001
 44
0.00000001
 40
0.0
 40
0.0
 40
0.0
 40
0.0
 40
0.1129247920963114
 40
0.2099443302398357
 40
0.2099443302398357
 40
0.2099443302398357
 40
0.2099443302398357
 10
-156.9338326947786
 20
318.256150474508
 30
0.0
 10
-156.9704652740301
 20
318.2470560378401
 30
0.0
 10
-157.0385708030479
 20
318.2301481193012
 30
0.0
 10
-157.1086117189165
 20
318.2264007941369
 30
0.0
 10
-157.1409790494075
 20
318.2246690882945
 30
0.0
 11
-156.9338326947786
 21
318.256150474508
 31
0.0
 11
-157.0442903703893
 21
318.2326747271979
 31
0.0
 11
-157.1409790494075
 21
318.2246690882945
 31
0.0
  0
SPLINE
  5
193
330
8B
100
AcDbEntity
  8
0
  6
Continuous
 62
     7
100
AcDbSpline
210
0.0
220
0.0
230
1.0
 70
  1064
 71
     3
 72
     9
 73
     5
 74
     3
 42
0.000000001
 43
0.0000000001
 44
0.00000001
 40
0.0
 40
0.0
 40
0.0
 40
0.0
 40
0.1356649257322191
 40
0.2610741296940565
 40
0.2610741296940565
 40
0.2610741296940565
 40
0.2610741296940565
 10
-131.2436661336795
 20
318.2246690882945
 30
0.0
 10
-131.1983360766581
 20
318.2258315484398
 30
0.0
 10
-131.1111027341558
 20
318.2280686112949
 30
0.0
 10
-131.0259493965584
 20
318.2470382404828
 30
0.0
 10
-130.9850452598669
 20
318.2561504745082
 30
0.0
 11
-131.2436661336795
 21
318.2246690882945
 31
0.0
 11
-131.1082376211908
 21
318.2326747271978
 31
0.0
 11
-130.9850452598669
 21
318.2561504745082
 31
0.0
  0
SPLINE
  5
194
330
8B
100
AcDbEntity
  8
0
  6
Continuous
 62
     7
100
AcDbSpline
210
0.0
220
0.0
230
1.0
 70
  1064
 71
     3
 72
     9
 73
     5
 74
     3
 42
0.000000001
 43
0.0000000001
 44
0.00000001
 40
0.0
 40
0.0
 40
0.0
 40
0.0
 40
0.1095981241341374
 40
0.2315159089166426
 40
0.2315159089166426
 40
0.2315159089166426
 40
0.2315159089166426
 10
-262.9909943627606
 20
318.256150474508
 30
0.0
 10
-262.9554916097056
 20
318.2470408245393
 30
0.0
 10
-262.8804953211827
 20
318.2277975504647
 30
0.0
 10
-262.8030621472607
 20
318.2257482518422
 30
0.0
 10
-262.7622853326651
 20
318.224669088294
 30
0.0
 11
-262.9909943627606
 21
318.256150474508
 31
0.0
 11
-262.8839399921522
 21
318.2326747271978
 31
0.0
 11
-262.7622853326651
 21
318.224669088294
 31
0.0
  0
SPLINE
  5
195
330
8B
100
AcDbEntity
  8
0
  6
Continuous
 62
     7
100
AcDbSpline
210
0.0
220
0.0
230
1.0
 70
  1064
 71
     3
 72
     9
 73
     5
 74
     3
 42
0.000000001
 43
0.0000000001
 44
0.00000001
 40
0.0
 40
0.0
 40
0.0
 40
0.0
 40
0.0993681442732416
 40
0.2173557224156547
 40
0.2173557224156547
 40
0.2173557224156547
 40
0.2173557224156547
 10
-157.1409790494072
 20
318.9246690882941
 30
0.0
 10
-157.107781197694
 20
318.9281397060846
 30
0.0
 10
-157.0351649413552
 20
318.9357312796246
 30
0.0
 10
-156.9694855484227
 20
318.9679121596075
 30
0.0
 10
-156.9338326947786
 20
318.9853809719035
 30
0.0
 11
-157.1409790494072
 21
318.9246690882941
 31
0.0
 11
-157.0428353194816
 21
318.9402201849182
 31
0.0
 11
-156.9338326947786
 21
318.9853809719035
 31
0.0
  0
SPLINE
  5
196
330
8B
100
AcDbEntity
  8
0
  6
Continuous
 62
     7
100
AcDbSpline
210
0.0
220
0.0
230
1.0
 70
  1064
 71
     3
 72
     9
 73
     5
 74
     3
 42
0.000000001
 43
0.0000000001
 44
0.00000001
 40
0.0
 40
0.0
 40
0.0
 40
0.0
 40
0.1014953848841914
 40
0.1804668576196897
 40
0.1804668576196897
 40
0.1804668576196897
 40
0.1804668576196897
 10
-232.549896638501
 20
318.9853809719035
 30
0.0
 10
-232.5204031052538
 20
318.9679740247087
 30
0.0
 10
-232.4679612526503
 20
318.9370231082711
 30
0.0
 10
-232.4078694210756
 20
318.9284295720131
 30
0.0
 10
-232.3815735078501
 20
318.924669088294
 30
0.0
 11
-232.549896638501
 21
318.9853809719035
 31
0.0
 11
-232.4589963537893
 21
318.9402317564295
 31
0.0
 11
-232.3815735078501
 21
318.924669088294
 31
0.0
  0
SPLINE
  5
197
330
8B
100
AcDbEntity
  8
0
  6
Continuous
 62
     7
100
AcDbSpline
210
0.0
220
0.0
230
1.0
 70
  1064
 71
     3
 72
    15
 73
    11
 74
     9
 42
0.000000001
 43
0.0000000001
 44
0.00000001
 40
0.0
 40
0.0
 40
0.0
 40
0.0
 40
0.1769509080397502
 40
0.3652383962953835
 40
0.567962065498414
 40
0.7858070705189998
 40
1.018384980875
 40
1.263300329263343
 40
1.517394069358871
 40
1.778172902839038
 40
1.778172902839038
 40
1.778172902839038
 40
1.778172902839038
 10
-262.9909943627606
 20
318.256150474508
 30
0.0
 10
-263.0461550372196
 20
318.2777041354216
 30
0.0
 10
-263.160010317462
 20
318.3221923325474
 30
0.0
 10
-263.312451733783
 20
318.4380995533711
 30
0.0
 10
-263.4504331757857
 20
318.5878423261008
 30
0.0
 10
-263.5699458773187
 20
318.7710194805935
 30
0.0
 10
-263.666874225279
 20
318.9823801258058
 30
0.0
 10
-263.7387041778039
 20
319.2159846256606
 30
0.0
 10
-263.784568219104
 20
319.4659808243547
 30
0.0
 10
-263.7904115185958
 20
319.6376964826763
 30
0.0
 10
-263.7933710962291
 20
319.7246690882943
 30
0.0
 11
-262.9909943627606
 21
318.256150474508
 31
0.0
 11
-263.1527619119248
 21
318.3278643870167
 31
0.0
 11
-263.304789258367
 21
318.4389493369362
 31
0.0
 11
-263.4427415353256
 21
318.5874958166715
 31
0.0
 11
-263.5626582183752
 21
318.7693650992174
 31
0.0
 11
-263.6604855666566
 21
318.9803681669104
 31
0.0
 11
-263.7332569159266
 21
319.2142225200751
 31
0.0
 11
-263.7780183080563
 21
319.4643425827366
 31
0.0
 11
-263.7933710962291
 21
319.7246690882943
 31
0.0
  0
SPLINE
  5
198
330
8B
100
AcDbEntity
  8
0
  6
Continuous
 62
     7
100
AcDbSpline
210
0.0
220
0.0
230
1.0
 70
  1064
 71
     3
 72
     9
 73
     5
 74
     3
 42
0.000000001
 43
0.0000000001
 44
0.00000001
 40
0.0
 40
0.0
 40
0.0
 40
0.0
 40
0.1014953848840643
 40
0.1804668576194565
 40
0.1804668576194565
 40
0.1804668576194565
 40
0.1804668576194565
 10
-167.4501102459092
 20
318.9853809719035
 30
0.0
 10
-167.4796037791563
 20
318.9679740247086
 30
0.0
 10
-167.5320456317597
 20
318.9370231082711
 30
0.0
 10
-167.5921374633345
 20
318.9284295720132
 30
0.0
 10
-167.6184333765599
 20
318.9246690882942
 30
0.0
 11
-167.4501102459092
 21
318.9853809719035
 31
0.0
 11
-167.5410105306208
 21
318.9402317564296
 31
0.0
 11
-167.6184333765599
 21
318.9246690882942
 31
0.0
  0
SPLINE
  5
199
330
8B
100
AcDbEntity
  8
0
  6
Continuous
 62
     7
100
AcDbSpline
210
0.0
220
0.0
230
1.0
 70
  1064
 71
     3
 72
    11
 73
     7
 74
     5
 42
0.000000001
 43
0.0000000001
 44
0.00000001
 40
0.0
 40
0.0
 40
0.0
 40
0.0
 40
0.178618287194286
 40
0.3805235910834575
 40
0.6042728699926433
 40
0.841392948123928
 40
0.841392948123928
 40
0.841392948123928
 40
0.841392948123928
 10
-167.4501102459092
 20
318.9853809719035
 30
0.0
 10
-167.4028771370047
 20
319.0224350784824
 30
0.0
 10
-167.3022530033686
 20
319.1013741609194
 30
0.0
 10
-167.2008233694634
 20
319.2800047041167
 30
0.0
 10
-167.131241658891
 20
319.4913723220116
 30
0.0
 10
-167.1224396994593
 20
319.6454138086447
 30
0.0
 10
-167.1179110453843
 20
319.7246690882943
 30
0.0
 11
-167.4501102459092
 21
318.9853809719035
 31
0.0
 11
-167.3165087067014
 21
319.1039352718947
 31
0.0
 11
-167.2105110002881
 21
319.2757789202082
 31
0.0
 11
-167.1419751865852
 21
319.4887732466207
 31
0.0
 11
-167.1179110453843
 21
319.7246690882943
 31
0.0
  0
SPLINE
  5
19A
330
8B
100
AcDbEntity
  8
0
  6
Continuous
 62
     7
100
AcDbSpline
210
0.0
220
0.0
230
1.0
 70
  1064
 71
     3
 72
    11
 73
     7
 74
     5
 42
0.000000001
 43
0.0000000001
 44
0.00000001
 40
0.0
 40
0.0
 40
0.0
 40
0.0
 40
0.268787988386593
 40
0.5059238222120646
 40
0.6845875134120147
 40
0.7860514610491306
 40
0.7860514610491306
 40
0.7860514610491306
 40
0.7860514610491306
 10
-204.9291830999192
 20
319.7246690882943
 30
0.0
 10
-204.9297276931333
 20
319.635043896015
 30
0.0
 10
-204.9307527404129
 20
319.4663476681836
 30
0.0
 10
-204.9422382504592
 20
319.2386221251131
 30
0.0
 10
-204.9524970486148
 20
319.0659506601303
 30
0.0
 10
-204.9728471463819
 20
318.9747132691899
 30
0.0
 10
-204.9802180844455
 20
318.9416665284639
 30
0.0
 11
-204.9291830999192
 21
319.7246690882943
 31
0.0
 11
-204.9329233797251
 21
319.4559071272113
 31
0.0
 11
-204.9436325018371
 21
319.2190132302118
 31
0.0
 11
-204.9600461986338
 21
319.0411050918369
 31
0.0
 11
-204.9802180844455
 21
318.9416665284639
 31
0.0
  0
SPLINE
  5
19B
330
8B
100
AcDbEntity
  8
0
  6
Continuous
 62
     7
100
AcDbSpline
210
0.0
220
0.0
230
1.0
 70
  1064
 71
     3
 72
    15
 73
    11
 74
     9
 42
0.000000001
 43
0.0000000001
 44
0.00000001
 40
0.0
 40
0.0
 40
0.0
 40
0.0
 40
0.1361506011758674
 40
0.2727620698458193
 40
0.4092706892926588
 40
0.5456863133315621
 40
0.6819838301144463
 40
0.8185380174309786
 40
0.9561660456590649
 40
1.093336655809775
 40
1.093336655809775
 40
1.093336655809775
 40
1.093336655809775
 10
-125.7460662021192
 20
318.9416665284639
 30
0.0
 10
-125.7020413901835
 20
318.9531133171068
 30
0.0
 10
-125.6138427472236
 20
318.9760456555197
 30
0.0
 10
-125.4910998965849
 20
319.0377978764243
 30
0.0
 10
-125.3799425670795
 20
319.1179333719342
 30
0.0
 10
-125.2841680872192
 20
319.2160567536348
 30
0.0
 10
-125.2066148374762
 20
319.3291572414755
 30
0.0
 10
-125.14957581281
 20
319.4540800607803
 30
0.0
 10
-125.1126214413981
 20
319.5871895737955
 30
0.0
 10
-125.1078363128116
 20
319.6788934651589
 30
0.0
 10
-125.1054477383069
 20
319.7246690882943
 30
0.0
 11
-125.7460662021192
 21
318.9416665284639
 31
0.0
 11
-125.6155852640237
 21
318.980547260953
 31
0.0
 11
-125.4930153636775
 21
319.0408739827679
 31
0.0
 11
-125.3824696892937
 21
319.120963042288
 31
0.0
 11
-125.2871802508417
 21
319.2185803858827
 31
0.0
 11
-125.2101041860848
 21
319.3309916561987
 31
0.0
 11
-125.153065710763
 21
319.4550628406627
 31
0.0
 11
-125.1175723501984
 21
319.588035379192
 31
0.0
 11
-125.1054477383069
 21
319.7246690882943
 31
0.0
  0
SPLINE
  5
19C
330
8B
100
AcDbEntity
  8
0
  6
Continuous
 62
     7
100
AcDbSpline
210
0.0
220
0.0
230
1.0
 70
  1064
 71
     3
 72
    15
 73
    11
 74
     9
 42
0.000000001
 43
0.0000000001
 44
0.00000001
 40
0.0
 40
0.0
 40
0.0
 40
0.0
 40
0.1361506011757935
 40
0.2727620698457459
 40
0.4092706892925519
 40
0.5456863133313938
 40
0.681983830114357
 40
0.8185380174309071
 40
0.9561660456589385
 40
1.093336655809704
 40
1.093336655809704
 40
1.093336655809704
 40
1.093336655809704
 10
-274.2539406822903
 20
318.9416665284639
 30
0.0
 10
-274.2979654942259
 20
318.9531133171068
 30
0.0
 10
-274.3861641371858
 20
318.9760456555199
 30
0.0
 10
-274.5089069878244
 20
319.0377978764244
 30
0.0
 10
-274.6200643173299
 20
319.1179333719342
 30
0.0
 10
-274.7158387971903
 20
319.2160567536347
 30
0.0
 10
-274.7933920469333
 20
319.3291572414755
 30
0.0
 10
-274.8504310715995
 20
319.45408006078
 30
0.0
 10
-274.8873854430115
 20
319.5871895737956
 30
0.0
 10
-274.8921705715979
 20
319.6788934651589
 30
0.0
 10
-274.8945591461026
 20
319.7246690882943
 30
0.0
 11
-274.2539406822903
 21
318.9416665284639
 31
0.0
 11
-274.3844216203856
 21
318.9805472609532
 31
0.0
 11
-274.506991520732
 21
319.040873982768
 31
0.0
 11
-274.6175371951157
 21
319.1209630422881
 31
0.0
 11
-274.7128266335677
 21
319.2185803858826
 31
0.0
 11
-274.7899026983247
 21
319.3309916561987
 31
0.0
 11
-274.8469411736465
 21
319.4550628406627
 31
0.0
 11
-274.8824345342111
 21
319.588035379192
 31
0.0
 11
-274.8945591461026
 21
319.7246690882943
 31
0.0
  0
SPLINE
  5
19D
330
8B
100
AcDbEntity
  8
0
  6
Continuous
 62
     7
100
AcDbSpline
210
0.0
220
0.0
230
1.0
 70
  1064
 71
     3
 72
    17
 73
    13
 74
    11
 42
0.000000001
 43
0.0000000001
 44
0.00000001
 40
0.0
 40
0.0
 40
0.0
 40
0.0
 40
0.2752990331212479
 40
0.5498667744851427
 40
0.824821434294793
 40
1.099128334658882
 40
1.236103307575736
 40
1.372890777525922
 40
1.510587052652282
 40
1.648213118589532
 40
1.922174519209968
 40
2.196698851268775
 40
2.196698851268775
 40
2.196698851268775
 40
2.196698851268775
 10
-275.5995511699081
 20
319.7246690882943
 30
0.0
 10
-275.5946739780697
 20
319.6327666067438
 30
0.0
 10
-275.5849325355306
 20
319.4492057705297
 30
0.0
 10
-275.5061777275777
 20
319.1833007858953
 30
0.0
 10
-275.3840271100464
 20
318.9360515509166
 30
0.0
 10
-275.24543721896
 20
318.7521791795692
 30
0.0
 10
-275.1165790028548
 20
318.6224041864631
 30
0.0
 10
-275.0113291870474
 20
318.5341658387175
 30
0.0
 10
-274.8982975279491
 20
318.4557038977881
 30
0.0
 10
-274.7388651382148
 20
318.3655179658784
 30
0.0
 10
-274.5254167179282
 20
318.2778279444958
 30
0.0
 10
-274.3444945908556
 20
318.2483960865495
 30
0.0
 10
-274.2539406822922
 20
318.2336650612373
 30
0.0
 11
-275.5995511699081
 21
319.7246690882943
 31
0.0
 11
-275.5742010340969
 21
319.4505396861064
 31
0.0
 11
-275.4989724688352
 21
319.1864788813087
 31
0.0
 11
-275.3765419421326
 21
318.9402862088597
 31
0.0
 11
-275.2116361497601
 21
318.7210822945925
 31
0.0
 11
-275.1151173733912
 21
318.623890375174
 31
0.0
 11
-275.0103020129359
 21
318.5360009427233
 31
0.0
 11
-274.8971778387176
 21
318.4574949837885
 31
0.0
 11
-274.7774779619898
 21
318.3895768437715
 31
0.0
 11
-274.5230248799811
 21
318.2880461633093
 31
0.0
 11
-274.2539406822922
 21
318.2336650612373
 31
0.0
  0
SPLINE
  5
19E
330
8B
100
AcDbEntity
  8
0
  6
Continuous
 62
     7
100
AcDbSpline
210
0.0
220
0.0
230
1.0
 70
  1064
 71
     3
 72
    13
 73
     9
 74
     7
 42
0.000000001
 43
0.0000000001
 44
0.00000001
 40
0.0
 40
0.0
 40
0.0
 40
0.0
 40
0.259406211169087
 40
0.5149966955534536
 40
0.7644668692645917
 40
1.004819718591967
 40
1.452995743471237
 40
1.864562514145646
 40
1.864562514145646
 40
1.864562514145646
 40
1.864562514145646
 10
-130.0437593282436
 20
319.7246690882943
 30
0.0
 10
-130.0471102640244
 20
319.6381201052617
 30
0.0
 10
-130.0537628596194
 20
319.466295229497
 30
0.0
 10
-130.108008475523
 20
319.2161567155798
 30
0.0
 10
-130.1920989353402
 20
318.981243882503
 30
0.0
 10
-130.341688899048
 20
318.7068536151123
 30
0.0
 10
-130.5876579542928
 20
318.4174202139274
 30
0.0
 10
-130.8563972758162
 20
318.3083590491711
 30
0.0
 10
-130.9850452598669
 20
318.2561504745082
 30
0.0
 11
-130.0437593282436
 21
319.7246690882943
 31
0.0
 11
-130.061396016735
 21
319.4658631191152
 31
0.0
 11
-130.1138560200122
 21
319.2157142747322
 31
0.0
 11
-130.1990568491379
 21
318.9812442617497
 31
0.0
 11
-130.3139248172468
 21
318.7701167106156
 31
0.0
 11
-130.6166346367441
 21
318.4396193310117
 31
0.0
 11
-130.9850452598669
 21
318.2561504745082
 31
0.0
  0
SPLINE
  5
19F
330
8B
100
AcDbEntity
  8
0
  6
Continuous
 62
     7
100
AcDbSpline
210
0.0
220
0.0
230
1.0
 70
  1064
 71
     3
 72
    13
 73
     9
 74
     7
 42
0.000000001
 43
0.0000000001
 44
0.00000001
 40
0.0
 40
0.0
 40
0.0
 40
0.0
 40
0.2594062111690812
 40
0.514996695553442
 40
0.7644668692646189
 40
1.004819718592058
 40
1.452995743471286
 40
1.864562514145695
 40
1.864562514145695
 40
1.864562514145695
 40
1.864562514145695
 10
-269.9562475561662
 20
319.7246690882943
 30
0.0
 10
-269.9528966203853
 20
319.6381201052617
 30
0.0
 10
-269.9462440247905
 20
319.466295229497
 30
0.0
 10
-269.891998408887
 20
319.2161567155797
 30
0.0
 10
-269.8079079490695
 20
318.981243882503
 30
0.0
 10
-269.6583179853619
 20
318.7068536151122
 30
0.0
 10
-269.4123489301169
 20
318.4174202139273
 30
0.0
 10
-269.1436096085935
 20
318.3083590491712
 30
0.0
 10
-269.0149616245429
 20
318.2561504745082
 30
0.0
 11
-269.9562475561662
 21
319.7246690882943
 31
0.0
 11
-269.9386108676749
 21
319.4658631191152
 31
0.0
 11
-269.8861508643977
 21
319.2157142747322
 31
0.0
 11
-269.8009500352719
 21
318.9812442617497
 31
0.0
 11
-269.6860820671629
 21
318.7701167106156
 31
0.0
 11
-269.3833722476656
 21
318.4396193310117
 31
0.0
 11
-269.0149616245429
 21
318.2561504745082
 31
0.0
  0
SPLINE
  5
1A0
330
8B
100
AcDbEntity
  8
0
  6
Continuous
 62
     7
100
AcDbSpline
210
0.0
220
0.0
230
1.0
 70
  1064
 71
     3
 72
    11
 73
     7
 74
     5
 42
0.000000001
 43
0.0000000001
 44
0.00000001
 40
0.0
 40
0.0
 40
0.0
 40
0.0
 40
0.1965189678252399
 40
0.4086338602328543
 40
0.6362978315290483
 40
0.8738768520240238
 40
0.8738768520240238
 40
0.8738768520240238
 40
0.8738768520240238
 10
-269.014961624542
 20
318.9853809719035
 30
0.0
 10
-269.0700082406016
 20
319.0218912478921
 30
0.0
 10
-269.1844700132325
 20
319.0978093004399
 30
0.0
 10
-269.306088085083
 20
319.2767757295303
 30
0.0
 10
-269.3887098187463
 20
319.4896463093522
 30
0.0
 10
-269.3992761298617
 20
319.645222968044
 30
0.0
 10
-269.4046718702506
 20
319.7246690882943
 30
0.0
 11
-269.014961624542
 21
318.9853809719035
 31
0.0
 11
-269.1716925516167
 21
319.1039352718947
 31
0.0
 11
-269.2960408105696
 21
319.2757789202082
 31
0.0
 11
-269.3764416927987
 21
319.4887732466208
 31
0.0
 11
-269.4046718702506
 21
319.7246690882943
 31
0.0
  0
SPLINE
  5
1A1
330
8B
100
AcDbEntity
  8
0
  6
Continuous
 62
     7
100
AcDbSpline
210
0.0
220
0.0
230
1.0
 70
  1064
 71
     3
 72
    11
 73
     7
 74
     5
 42
0.000000001
 43
0.0000000001
 44
0.00000001
 40
0.0
 40
0.0
 40
0.0
 40
0.0
 40
0.0793960604068014
 40
0.1703939935992506
 40
0.2773730936607052
 40
0.3952422222207829
 40
0.3952422222207829
 40
0.3952422222207829
 40
0.3952422222207829
 10
-262.6509680168424
 20
321.2246690882939
 30
0.0
 10
-262.6243473489598
 20
321.229683441451
 30
0.0
 10
-262.5672160311038
 20
321.2404448916522
 30
0.0
 10
-262.50178763822
 20
321.3127679649887
 30
0.0
 10
-262.4580525636653
 20
321.4098451411945
 30
0.0
 10
-262.45222634492
 20
321.4851782408891
 30
0.0
 10
-262.4491721524048
 20
321.5246690882942
 30
0.0
 11
-262.6509680168424
 21
321.2246690882939
 31
0.0
 11
-262.5747834534174
 21
321.247021881205
 31
0.0
 11
-262.5096319128425
 21
321.3105506287303
 31
0.0
 11
-262.4652895575126
 21
321.4079071079906
 31
0.0
 11
-262.4491721524048
 21
321.5246690882942
 31
0.0
  0
SPLINE
  5
1A2
330
8B
100
AcDbEntity
  8
0
  6
Continuous
 62
     7
100
AcDbSpline
210
0.0
220
0.0
230
1.0
 70
  1064
 71
     3
 72
    15
 73
    11
 74
     9
 42
0.000000001
 43
0.0000000001
 44
0.00000001
 40
0.0
 40
0.0
 40
0.0
 40
0.0
 40
0.1589462747566754
 40
0.3158053732657101
 40
0.4670894521019844
 40
0.6114652108996453
 40
0.7481777839207047
 40
0.8781414636638649
 40
1.003713712973386
 40
1.125880360458984
 40
1.125880360458984
 40
1.125880360458984
 40
1.125880360458984
 10
-269.4046718702506
 20
319.7246690882943
 30
0.0
 10
-269.4022176496852
 20
319.7776996598263
 30
0.0
 10
-269.3973414214607
 20
319.883064439726
 30
0.0
 10
-269.3595159734269
 20
320.0351309675807
 30
0.0
 10
-269.300448700136
 20
320.174586535667
 30
0.0
 10
-269.221225843417
 20
320.2959596941403
 30
0.0
 10
-269.125320857172
 20
320.395200859101
 30
0.0
 10
-269.0161282715285
 20
320.4684979729455
 30
0.0
 10
-268.8974239028405
 20
320.5156435396474
 30
0.0
 10
-268.8146627249484
 20
320.5216882751137
 30
0.0
 10
-268.7738509832456
 20
320.524669088294
 30
0.0
 11
-269.4046718702506
 21
319.7246690882943
 31
0.0
 11
-269.3920660660507
 21
319.8831146984361
 31
0.0
 11
-269.3551081147648
 21
320.0355577587078
 31
0.0
 11
-269.295467616685
 21
320.1745897107577
 31
0.0
 11
-269.2161074458303
 21
320.2951978504278
 31
0.0
 11
-269.1205881504984
 21
320.3930057863518
 31
0.0
 11
-269.0125326100688
 21
320.4652176892524
 31
0.0
 11
-268.8950942230366
 21
320.5096768392443
 31
0.0
 11
-268.7738509832456
 21
320.524669088294
 31
0.0
  0
SPLINE
  5
1A3
330
8B
100
AcDbEntity
  8
0
  6
Continuous
 62
     7
100
AcDbSpline
210
0.0
220
0.0
230
1.0
 70
  1064
 71
     3
 72
    15
 73
    11
 74
     9
 42
0.000000001
 43
0.0000000001
 44
0.00000001
 40
0.0
 40
0.0
 40
0.0
 40
0.0
 40
0.0402602575277181
 40
0.1013759741951843
 40
0.1819477708171588
 40
0.2798598378366942
 40
0.3924386845365299
 40
0.5165930504242998
 40
0.649595648851178
 40
0.7862327744851594
 40
0.7862327744851594
 40
0.7862327744851594
 40
0.7862327744851594
 10
-216.9504481760087
 20
318.9416125993
 30
0.0
 10
-216.9541170957223
 20
318.9545345236646
 30
0.0
 10
-216.9633555031322
 20
318.9870721340449
 30
0.0
 10
-216.9715706643649
 20
319.0473151473059
 30
0.0
 10
-216.9803398117273
 20
319.1266535459977
 30
0.0
 10
-216.9875372080421
 20
319.2234439073951
 30
0.0
 10
-216.9935354063267
 20
319.33482856263
 30
0.0
 10
-216.997931848835
 20
319.4580029232023
 30
0.0
 10
-217.0007897414806
 20
319.5892422165045
 30
0.0
 10
-217.0011565191115
 20
319.6791229576319
 30
0.0
 10
-217.0013423869979
 20
319.7246690882943
 30
0.0
 11
-216.9504481760087
 21
318.9416125993
 31
0.0
 11
-216.9607197864402
 21
318.9805405198076
 31
0.0
 11
-216.9704667427869
 21
319.0408739827679
 31
0.0
 11
-216.9792733837133
 21
319.120963042288
 31
0.0
 11
-216.9868646338748
 21
319.2185803858827
 31
0.0
 11
-216.9930049123626
 21
319.3309916561986
 31
0.0
 11
-216.9975488927033
 21
319.4550628406627
 31
0.0
 11
-217.0003764776225
 21
319.588035379192
 31
0.0
 11
-217.0013423869979
 21
319.7246690882943
 31
0.0
  0
SPLINE
  5
1A4
330
8B
100
AcDbEntity
  8
0
  6
Continuous
 62
     7
100
AcDbSpline
210
0.0
220
0.0
230
1.0
 70
  1064
 71
     3
 72
    17
 73
    13
 74
    11
 42
0.000000001
 43
0.0000000001
 44
0.00000001
 40
0.0
 40
0.0
 40
0.0
 40
0.0
 40
0.2741368439114635
 40
0.5382656492132327
 40
0.7846514478229036
 40
1.004248677719867
 40
1.101744281643287
 40
1.190029484779719
 40
1.26905101845044
 40
1.337635327006898
 40
1.441169837184567
 40
1.499623526080838
 40
1.499623526080838
 40
1.499623526080838
 40
1.499623526080838
 10
-217.0575057026975
 20
319.7246690882943
 30
0.0
 10
-217.057127137557
 20
319.6332892269634
 30
0.0
 10
-217.056383841591
 20
319.4538655504134
 30
0.0
 10
-217.0503331455351
 20
319.1923696595019
 30
0.0
 10
-217.0409458214319
 20
318.9491690962553
 30
0.0
 10
-217.0299736432798
 20
318.7616488371033
 30
0.0
 10
-217.0194313435787
 20
318.6269233905966
 30
0.0
 10
-217.0111029226321
 20
318.5390625899328
 30
0.0
 10
-217.0024255602245
 20
318.4608553212247
 30
0.0
 10
-216.9902747660359
 20
318.3781860372393
 30
0.0
 10
-216.9795355386203
 20
318.3013257826644
 30
0.0
 10
-216.9580577052625
 20
318.2516063844196
 30
0.0
 10
-216.9503074024721
 20
318.2336650612373
 30
0.0
 11
-217.0575057026975
 21
319.7246690882943
 31
0.0
 11
-217.055486179593
 21
319.4505396861065
 31
0.0
 11
-217.049493082483
 21
319.1864788813087
 31
0.0
 11
-217.0397396326704
 21
318.9402862088597
 31
0.0
 11
-217.0266023832195
 21
318.7210822945926
 31
0.0
 11
-217.0189131976329
 21
318.6238903751741
 31
0.0
 11
-217.0105630631907
 21
318.5360009427233
 31
0.0
 11
-217.0015510056137
 21
318.4574949837885
 31
0.0
 11
-216.9920150935199
 21
318.3895768437715
 31
0.0
 11
-216.9717440432201
 21
318.2880461633093
 31
0.0
 11
-216.9503074024721
 21
318.2336650612373
 31
0.0
  0
SPLINE
  5
1A5
330
8B
100
AcDbEntity
  8
0
  6
Continuous
 62
     7
100
AcDbSpline
210
0.0
220
0.0
230
1.0
 70
  1064
 71
     3
 72
    11
 73
     7
 74
     5
 42
0.000000001
 43
0.0000000001
 44
0.00000001
 40
0.0
 40
0.0
 40
0.0
 40
0.0
 40
0.1786182871942647
 40
0.3805235910833616
 40
0.6042728699926277
 40
0.8413929481238644
 40
0.8413929481238644
 40
0.8413929481238644
 40
0.8413929481238644
 10
-232.549896638501
 20
318.9853809719035
 30
0.0
 10
-232.5971297474055
 20
319.0224350784823
 30
0.0
 10
-232.6977538810416
 20
319.1013741609195
 30
0.0
 10
-232.7991835149465
 20
319.2800047041168
 30
0.0
 10
-232.8687652255192
 20
319.4913723220116
 30
0.0
 10
-232.8775671849508
 20
319.6454138086447
 30
0.0
 10
-232.8820958390259
 20
319.7246690882943
 30
0.0
 11
-232.549896638501
 21
318.9853809719035
 31
0.0
 11
-232.6834981777088
 21
319.1039352718947
 31
0.0
 11
-232.7894958841219
 21
319.2757789202082
 31
0.0
 11
-232.8580316978249
 21
319.4887732466208
 31
0.0
 11
-232.8820958390259
 21
319.7246690882943
 31
0.0
  0
SPLINE
  5
1A6
330
8B
100
AcDbEntity
  8
0
  6
Continuous
 62
     7
100
AcDbSpline
210
0.0
220
0.0
230
1.0
 70
  1064
 71
     3
 72
    15
 73
    11
 74
     9
 42
0.000000001
 43
0.0000000001
 44
0.00000001
 40
0.0
 40
0.0
 40
0.0
 40
0.0
 40
0.058340430801995
 40
0.1616565347150146
 40
0.3086835211227054
 40
0.4945797257586733
 40
0.714163336107201
 40
0.959912307436974
 40
1.224117661924379
 40
1.499602078310063
 40
1.499602078310063
 40
1.499602078310063
 40
1.499602078310063
 10
-204.9802180844455
 20
318.2336650612371
 30
0.0
 10
-204.9724967863991
 20
318.2515769821828
 30
0.0
 10
-204.9511016877491
 20
318.3012094350261
 30
0.0
 10
-204.9362623224584
 20
318.4039316992163
 30
0.0
 10
-204.9173138090478
 20
318.5477296565905
 30
0.0
 10
-204.9024653273725
 20
318.7315126558127
 30
0.0
 10
-204.8896114362703
 20
318.9481568102073
 30
0.0
 10
-204.88022882246
 20
319.191188927368
 30
0.0
 10
-204.8741741030263
 20
319.4529403954132
 30
0.0
 10
-204.8734098857044
 20
319.6328396099894
 30
0.0
 10
-204.8730197842199
 20
319.7246690882943
 30
0.0
 11
-204.9802180844455
 21
318.2336650612371
 31
0.0
 11
-204.9588285813054
 21
318.2879430043673
 31
0.0
 11
-204.9385613632019
 21
318.3892517253493
 31
0.0
 11
-204.9200774810695
 21
318.5351122092757
 31
0.0
 11
-204.903978921882
 21
318.720310036611
 31
0.0
 11
-204.8908404644215
 21
318.9395002344834
 31
0.0
 11
-204.8810763767836
 21
319.1850551560333
 31
0.0
 11
-204.8750749663184
 21
319.449192340967
 31
0.0
 11
-204.8730197842199
 21
319.7246690882943
 31
0.0
  0
SPLINE
  5
1A7
330
8B
100
AcDbEntity
  8
0
  6
Continuous
 62
     7
100
AcDbSpline
210
0.0
220
0.0
230
1.0
 70
  1064
 71
     3
 72
    13
 73
     9
 74
     7
 42
0.000000001
 43
0.0000000001
 44
0.00000001
 40
0.0
 40
0.0
 40
0.0
 40
0.0
 40
0.2592422630940173
 40
0.5133567425393266
 40
0.758817386263303
 40
0.9915457145432095
 40
1.410845131132486
 40
1.774553432039317
 40
1.774553432039317
 40
1.774553432039317
 40
1.774553432039317
 10
-233.3522733719694
 20
319.7246690882943
 30
0.0
 10
-233.3494297827909
 20
319.6381924930164
 30
0.0
 10
-233.3437988360151
 20
319.4669498009167
 30
0.0
 10
-233.2977814643465
 20
319.2174434774476
 30
0.0
 10
-233.226543021962
 20
318.9829792771211
 30
0.0
 10
-233.1006946347642
 20
318.7123060523627
 30
0.0
 10
-232.8986066420691
 20
318.4248349771098
 30
0.0
 10
-232.6604983251043
 20
318.3096527785957
 30
0.0
 10
-232.5498966385018
 20
318.2561504745082
 30
0.0
 11
-233.3522733719694
 21
319.7246690882943
 31
0.0
 11
-233.3372393976738
 21
319.4658631191152
 31
0.0
 11
-233.2925211195681
 21
319.2157142747322
 31
0.0
 11
-233.2198937056591
 21
318.9812442617496
 31
0.0
 11
-233.1219772469777
 21
318.7701167106156
 31
0.0
 11
-232.8639394839591
 21
318.4396193310117
 31
0.0
 11
-232.5498966385018
 21
318.2561504745082
 31
0.0
  0
SPLINE
  5
1A8
330
8B
100
AcDbEntity
  8
0
  6
Continuous
 62
     7
100
AcDbSpline
210
0.0
220
0.0
230
1.0
 70
  1064
 71
     3
 72
    15
 73
    11
 74
     9
 42
0.000000001
 43
0.0000000001
 44
0.00000001
 40
0.0
 40
0.0
 40
0.0
 40
0.0
 40
0.199686736839929
 40
0.3949520515360824
 40
0.5841545703685501
 40
0.7646225417221065
 40
0.9358957484392476
 40
1.098620724714782
 40
1.254624134462873
 40
1.407894908795525
 40
1.407894908795525
 40
1.407894908795525
 40
1.407894908795525
 10
-158.1221068492001
 20
321.5246690882942
 30
0.0
 10
-158.1190761856131
 20
321.4580373510537
 30
0.0
 10
-158.1130819485213
 20
321.3262492237609
 30
0.0
 10
-158.0653607841093
 20
321.1361597510538
 30
0.0
 10
-157.9914160114192
 20
320.9621710221891
 30
0.0
 10
-157.8922922742871
 20
320.810310076543
 30
0.0
 10
-157.7719915174094
 20
320.6863585505815
 30
0.0
 10
-157.6355850924717
 20
320.5948221496589
 30
0.0
 10
-157.4872573752571
 20
320.5359073132589
 30
0.0
 10
-157.3839315679587
 20
320.5283930275282
 30
0.0
 10
-157.3327251382457
 20
320.5246690882946
 30
0.0
 11
-158.1221068492001
 21
321.5246690882942
 31
0.0
 11
-158.1062993685355
 21
321.3256090076891
 31
0.0
 11
-158.0599864435354
 21
321.1359154229397
 31
0.0
 11
-157.9852031995547
 21
320.9621193936626
 31
0.0
 11
-157.8859227902823
 21
320.811414087005
 31
0.0
 11
-157.7660804633455
 21
320.6890526199384
 31
0.0
 11
-157.6307335489281
 21
320.5987164060991
 31
0.0
 11
-157.4848376404456
 21
320.5434764844444
 31
0.0
 11
-157.3327251382457
 21
320.5246690882946
 31
0.0
  0
SPLINE
  5
1A9
330
8B
100
AcDbEntity
  8
0
  6
Continuous
 62
     7
100
AcDbSpline
210
0.0
220
0.0
230
1.0
 70
  1064
 71
     3
 72
    11
 73
     7
 74
     5
 42
0.000000001
 43
0.0000000001
 44
0.00000001
 40
0.0
 40
0.0
 40
0.0
 40
0.0
 40
0.0921266673896068
 40
0.1915125577850763
 40
0.3018948918785193
 40
0.4201778604955304
 40
0.4201778604955304
 40
0.4201778604955304
 40
0.4201778604955304
 10
-157.3327251382457
 20
321.2246690882943
 30
0.0
 10
-157.3636608939506
 20
321.2294197353294
 30
0.0
 10
-157.4279700188025
 20
321.2392953757088
 30
0.0
 10
-157.5059558709364
 20
321.3100469927805
 30
0.0
 10
-157.5587515280692
 20
321.4083914551293
 30
0.0
 10
-157.565806818103
 20
321.4850272595601
 30
0.0
 10
-157.5694563398521
 20
321.5246690882942
 30
0.0
 11
-157.3327251382457
 21
321.2246690882943
 31
0.0
 11
-157.422098938317
 21
321.2470218812051
 31
0.0
 11
-157.4985296547234
 21
321.3105506287303
 31
0.0
 11
-157.5505486546595
 21
321.4079071079906
 31
0.0
 11
-157.5694563398521
 21
321.5246690882942
 31
0.0
  0
SPLINE
  5
1AA
330
8B
100
AcDbEntity
  8
0
  6
Continuous
 62
     7
100
AcDbSpline
210
0.0
220
0.0
230
1.0
 70
  1064
 71
     3
 72
    13
 73
     9
 74
     7
 42
0.000000001
 43
0.0000000001
 44
0.00000001
 40
0.0
 40
0.0
 40
0.0
 40
0.0
 40
0.0782739542389473
 40
0.1507243441945907
 40
0.2127846735233376
 40
0.2602215964667355
 40
0.2905878189985117
 40
0.3027029462216913
 40
0.3027029462216913
 40
0.3027029462216913
 40
0.3027029462216913
 10
-183.1029964788224
 20
321.5246690882942
 30
0.0
 10
-183.1028530668317
 20
321.4985694945204
 30
0.0
 10
-183.1025769263275
 20
321.4483121104585
 30
0.0
 10
-183.0999893054109
 20
321.3775155155239
 30
0.0
 10
-183.0971111504309
 20
321.316659033529
 30
0.0
 10
-183.0910184746598
 20
321.2709887507243
 30
0.0
 10
-183.089131585841
 20
321.2399402042026
 30
0.0
 10
-183.0811832414641
 20
321.2280577986769
 30
0.0
 10
-183.0789164825976
 20
321.2246690882943
 30
0.0
 11
-183.1029964788224
 21
321.5246690882942
 31
0.0
 11
-183.1021463968356
 21
321.4463997538442
 31
0.0
 11
-183.0997202039866
 21
321.3739899989935
 31
0.0
 11
-183.0959039799422
 21
321.3120471148195
 31
0.0
 11
-183.0909278249557
 21
321.2648719145457
 31
0.0
 11
-183.0851428126169
 21
321.2350618318061
 31
0.0
 11
-183.0789164825976
 21
321.2246690882943
 31
0.0
  0
SPLINE
  5
1AB
330
8B
100
AcDbEntity
  8
0
  6
Continuous
 62
     7
100
AcDbSpline
210
0.0
220
0.0
230
1.0
 70
  1064
 71
     3
 72
    11
 73
     7
 74
     5
 42
0.000000001
 43
0.0000000001
 44
0.00000001
 40
0.0
 40
0.0
 40
0.0
 40
0.0
 40
0.1175963391887326
 40
0.2345957923776652
 40
0.3518433736059273
 40
0.4698039018943951
 40
0.4698039018943951
 40
0.4698039018943951
 40
0.4698039018943951
 10
-124.3657149573179
 20
321.2246690882943
 30
0.0
 10
-124.4051689748618
 20
321.2292539342901
 30
0.0
 10
-124.4838767493137
 20
321.2384003689274
 30
0.0
 10
-124.5838901584237
 20
321.3068252640604
 30
0.0
 10
-124.6537420312351
 20
321.4061737575702
 30
0.0
 10
-124.6632244135876
 20
321.4850909075255
 30
0.0
 10
-124.667979968925
 20
321.5246690882942
 30
0.0
 11
-124.3657149573179
 21
321.2246690882943
 31
0.0
 11
-124.4810560382703
 21
321.2475892657
 31
0.0
 11
-124.5787980996379
 21
321.3118960487207
 31
0.0
 11
-124.6443655179848
 21
321.4090964078915
 31
0.0
 11
-124.667979968925
 21
321.5246690882942
 31
0.0
  0
SPLINE
  5
1AC
330
8B
100
AcDbEntity
  8
0
  6
Continuous
 62
     7
100
AcDbSpline
210
0.0
220
0.0
230
1.0
 70
  1064
 71
     3
 72
    15
 73
    11
 74
     9
 42
0.000000001
 43
0.0000000001
 44
0.00000001
 40
0.0
 40
0.0
 40
0.0
 40
0.0
 40
0.1974908664282247
 40
0.3941244775693734
 40
0.5911014799501144
 40
0.7875392454996427
 40
0.9840392161494923
 40
1.18032749492171
 40
1.376619285406784
 40
1.574213215558309
 40
1.574213215558309
 40
1.574213215558309
 40
1.574213215558309
 10
-125.3733668528107
 20
321.5246690882942
 30
0.0
 10
-125.3695684321153
 20
321.4587301673492
 30
0.0
 10
-125.3619880643024
 20
321.3271385502088
 30
0.0
 10
-125.3014409723855
 20
321.1375670445546
 30
0.0
 10
-125.2075874408939
 20
320.9635901410631
 30
0.0
 10
-125.0810919447949
 20
320.8112804925957
 30
0.0
 10
-124.9273852569872
 20
320.6869027504642
 30
0.0
 10
-124.7528220163346
 20
320.5948804998288
 30
0.0
 10
-124.5631648103707
 20
320.5359334176149
 30
0.0
 10
-124.4316764704502
 20
320.5284321260545
 30
0.0
 10
-124.3657149573179
 20
320.5246690882948
 30
0.0
 11
-125.3733668528107
 21
321.5246690882942
 31
0.0
 11
-125.3537383412264
 21
321.3281560745425
 31
0.0
 11
-125.295913353369
 21
321.1402171253625
 31
0.0
 11
-125.2020409542395
 21
320.967046940833
 31
0.0
 11
-125.0765455244039
 21
320.8159221797482
 31
0.0
 11
-124.9238432413611
 21
320.6922522488852
 31
0.0
 11
-124.7503669121907
 21
320.6004097084723
 31
0.0
 11
-124.5623638771168
 21
320.5439710110601
 31
0.0
 11
-124.3657149573179
 21
320.5246690882948
 31
0.0
  0
SPLINE
  5
1AD
330
8B
100
AcDbEntity
  8
0
  6
Continuous
 62
     7
100
AcDbSpline
210
0.0
220
0.0
230
1.0
 70
  1064
 71
     3
 72
    11
 73
     7
 74
     5
 42
0.000000001
 43
0.0000000001
 44
0.00000001
 40
0.0
 40
0.0
 40
0.0
 40
0.0
 40
0.2369254397777471
 40
0.4641578593242794
 40
0.6771954390411306
 40
0.8738563945017616
 40
0.8738563945017616
 40
0.8738563945017616
 40
0.8738563945017616
 10
-156.5441224490701
 20
319.7246690882943
 30
0.0
 10
-156.5494425863185
 20
319.6454373484179
 30
0.0
 10
-156.5598652195073
 20
319.4902153751138
 30
0.0
 10
-156.642363424283
 20
319.2773430032257
 30
0.0
 10
-156.7641351242721
 20
319.0982216333953
 30
0.0
 10
-156.8787945718877
 20
319.0219786508909
 30
0.0
 10
-156.9338326947786
 20
318.9853809719035
 30
0.0
 11
-156.5441224490701
 21
319.7246690882943
 31
0.0
 11
-156.5721001401385
 21
319.4894013410558
 31
0.0
 11
-156.6522273781529
 21
319.2767650333923
 31
0.0
 11
-156.7770895169803
 21
319.1041543209495
 31
0.0
 11
-156.9338326947786
 21
318.9853809719035
 31
0.0
  0
SPLINE
  5
1AE
330
8B
100
AcDbEntity
  8
0
  6
Continuous
 62
     7
100
AcDbSpline
210
0.0
220
0.0
230
1.0
 70
  1064
 71
     3
 72
    15
 73
    11
 74
     9
 42
0.000000001
 43
0.0000000001
 44
0.00000001
 40
0.0
 40
0.0
 40
0.0
 40
0.0
 40
0.2028711724447161
 40
0.4129839807354012
 40
0.6326577887560251
 40
0.8625848003900156
 40
1.102778345440005
 40
1.351727820304955
 40
1.607300524228202
 40
1.868249322952639
 40
1.868249322952639
 40
1.868249322952639
 40
1.868249322952639
 10
-156.9338326947786
 20
318.256150474508
 30
0.0
 10
-156.8694375465171
 20
318.2775086673266
 30
0.0
 10
-156.7383486228971
 20
318.3209874628182
 30
0.0
 10
-156.5591938867811
 20
318.4360906235128
 30
0.0
 10
-156.3968575177944
 20
318.5856481445289
 30
0.0
 10
-156.2560236964945
 20
318.7688378455533
 30
0.0
 10
-156.1417050974048
 20
318.9806081541525
 30
0.0
 10
-156.0570298483716
 20
319.2146976919168
 30
0.0
 10
-156.0029285360014
 20
319.4653235347529
 30
0.0
 10
-155.9960312787849
 20
319.637622791102
 30
0.0
 10
-155.9925467631545
 20
319.7246690882943
 30
0.0
 11
-156.9338326947786
 21
318.256150474508
 31
0.0
 11
-156.7440595970926
 21
318.3278643870167
 31
0.0
 11
-156.5657129471223
 21
318.4389493369362
 31
0.0
 11
-156.4038780731531
 21
318.5874958166715
 31
0.0
 11
-156.2632011541781
 21
318.7693650992174
 31
0.0
 11
-156.1484377234548
 21
318.9803681669104
 31
0.0
 11
-156.0630680405665
 21
319.2142225200751
 31
0.0
 11
-156.010557459272
 21
319.4643425827366
 31
0.0
 11
-155.9925467631545
 21
319.7246690882943
 31
0.0
  0
SPLINE
  5
1AF
330
8B
100
AcDbEntity
  8
0
  6
Continuous
 62
     7
100
AcDbSpline
210
0.0
220
0.0
230
1.0
 70
  1064
 71
     3
 72
    11
 73
     7
 74
     5
 42
0.000000001
 43
0.0000000001
 44
0.00000001
 40
0.0
 40
0.0
 40
0.0
 40
0.0
 40
0.2728319864338813
 40
0.5452089998855993
 40
0.817424196074841
 40
1.089458161479791
 40
1.089458161479791
 40
1.089458161479791
 40
1.089458161479791
 10
-123.358349050471
 20
319.7246690882943
 30
0.0
 10
-123.3675920718722
 20
319.6332068718143
 30
0.0
 10
-123.3860627153244
 20
319.4504349634939
 30
0.0
 10
-123.528834008195
 20
319.2100834496272
 30
0.0
 10
-123.7365868172633
 20
319.0237815132576
 30
0.0
 10
-123.9115266979566
 20
318.9690321085421
 30
0.0
 10
-123.9989675142833
 20
318.9416665284639
 30
0.0
 11
-123.358349050471
 21
319.7246690882943
 31
0.0
 11
-123.4052990461592
 21
319.4559071272113
 31
0.0
 11
-123.5397256834912
 21
319.2190132302118
 31
0.0
 11
-123.7457591980505
 21
319.0411050918369
 31
0.0
 11
-123.9989675142833
 21
318.9416665284639
 31
0.0
  0
SPLINE
  5
1B0
330
8B
100
AcDbEntity
  8
0
  6
Continuous
 62
     7
100
AcDbSpline
210
0.0
220
0.0
230
1.0
 70
  1064
 71
     3
 72
    17
 73
    13
 74
    11
 42
0.000000001
 43
0.0000000001
 44
0.00000001
 40
0.0
 40
0.0
 40
0.0
 40
0.0
 40
0.2741368439114633
 40
0.5382656492132312
 40
0.7846514478228999
 40
1.004248677719925
 40
1.101744281643289
 40
1.190029484779715
 40
1.269051018450489
 40
1.337635327006895
 40
1.441169837184575
 40
1.499623526080898
 40
1.499623526080898
 40
1.499623526080898
 40
1.499623526080898
 10
-182.9425011817116
 20
319.7246690882943
 30
0.0
 10
-182.942879746852
 20
319.6332892269633
 30
0.0
 10
-182.943623042818
 20
319.4538655504135
 30
0.0
 10
-182.9496737388739
 20
319.1923696595018
 30
0.0
 10
-182.959061062977
 20
318.9491690962554
 30
0.0
 10
-182.9700332411291
 20
318.7616488371033
 30
0.0
 10
-182.9805755408304
 20
318.6269233905966
 30
0.0
 10
-182.9889039617769
 20
318.5390625899328
 30
0.0
 10
-182.9975813241845
 20
318.4608553212246
 30
0.0
 10
-183.0097321183731
 20
318.3781860372393
 30
0.0
 10
-183.0204713457887
 20
318.3013257826645
 30
0.0
 10
-183.0419491791467
 20
318.2516063844195
 30
0.0
 10
-183.0496994819371
 20
318.2336650612373
 30
0.0
 11
-182.9425011817116
 21
319.7246690882943
 31
0.0
 11
-182.9445207048161
 21
319.4505396861065
 31
0.0
 11
-182.950513801926
 21
319.1864788813087
 31
0.0
 11
-182.9602672517385
 21
318.9402862088597
 31
0.0
 11
-182.9734045011895
 21
318.7210822945926
 31
0.0
 11
-182.9810936867762
 21
318.6238903751741
 31
0.0
 11
-182.9894438212183
 21
318.5360009427233
 31
0.0
 11
-182.9984558787953
 21
318.4574949837885
 31
0.0
 11
-183.0079917908891
 21
318.3895768437715
 31
0.0
 11
-183.028262841189
 21
318.2880461633093
 31
0.0
 11
-183.0496994819371
 21
318.2336650612373
 31
0.0
  0
SPLINE
  5
1B1
330
8B
100
AcDbEntity
  8
0
  6
Continuous
 62
     7
100
AcDbSpline
210
0.0
220
0.0
230
1.0
 70
  1064
 71
     3
 72
    15
 73
    11
 74
     9
 42
0.000000001
 43
0.0000000001
 44
0.00000001
 40
0.0
 40
0.0
 40
0.0
 40
0.0
 40
0.2739239264699508
 40
0.5477584548079466
 40
0.8218175177843297
 40
1.095922692598176
 40
1.370227748637398
 40
1.644671125375569
 40
1.919340927325443
 40
2.196022985214993
 40
2.196022985214993
 40
2.196022985214993
 40
2.196022985214993
 10
-123.9989675142833
 20
318.2336650612371
 30
0.0
 10
-123.9086160440806
 20
318.2484131718519
 30
0.0
 10
-123.7279425937674
 20
318.2779045940888
 30
0.0
 10
-123.4722429078611
 20
318.3823465750603
 30
0.0
 10
-123.239053288314
 20
318.5284558990155
 30
0.0
 10
-123.0356478182286
 20
318.7146535167553
 30
0.0
 10
-122.8698384561986
 20
318.9351836709473
 30
0.0
 10
-122.7470651328123
 20
319.1820095482865
 30
0.0
 10
-122.6684213198956
 20
319.4482925195567
 30
0.0
 10
-122.6583906558212
 20
319.632319685053
 30
0.0
 10
-122.6533570266656
 20
319.7246690882943
 30
0.0
 11
-123.9989675142833
 21
318.2336650612371
 31
0.0
 11
-123.7304750130995
 21
318.2879430043673
 31
0.0
 11
-123.4760700348733
 21
318.3892517253493
 31
0.0
 11
-123.2440504450388
 21
318.5351122092757
 31
0.0
 11
-123.0419727065615
 21
318.720310036611
 31
0.0
 11
-122.8770517506068
 21
318.9395002344834
 31
0.0
 11
-122.7544876922214
 21
319.1850551560333
 31
0.0
 11
-122.6791547732708
 21
319.449192340967
 31
0.0
 11
-122.6533570266656
 21
319.7246690882943
 31
0.0
  0
SPLINE
  5
1B2
330
8B
100
AcDbEntity
  8
0
  6
Continuous
 62
     7
100
AcDbSpline
210
0.0
220
0.0
230
1.0
 70
  1064
 71
     3
 72
    15
 73
    11
 74
     9
 42
0.000000001
 43
0.0000000001
 44
0.00000001
 40
0.0
 40
0.0
 40
0.0
 40
0.0
 40
0.156538074693063
 40
0.3075790978420104
 40
0.4461939186572862
 40
0.5674181411449476
 40
0.6667237168152546
 40
0.7409918837972229
 40
0.7879553001728016
 40
0.8077500904171571
 40
0.8077500904171571
 40
0.8077500904171571
 40
0.8077500904171571
 10
-217.0013423869979
 20
319.7246690882943
 30
0.0
 10
-217.0011062073622
 20
319.7768507750847
 30
0.0
 10
-217.0006421549886
 20
319.8793817165051
 30
0.0
 10
-216.9969340756066
 20
320.0280525645221
 30
0.0
 10
-216.9913236842606
 20
320.1649848562872
 30
0.0
 10
-216.9832695933879
 20
320.2842085430697
 30
0.0
 10
-216.9751472727266
 20
320.3827770078553
 30
0.0
 10
-216.9623771532254
 20
320.4539000026323
 30
0.0
 10
-216.9569640136036
 20
320.5031333121965
 30
0.0
 10
-216.941675774905
 20
320.5197438234269
 30
0.0
 10
-216.9371425921195
 20
320.5246690882942
 30
0.0
 11
-217.0013423869979
 21
319.7246690882943
 31
0.0
 11
-217.0000919723119
 21
319.8812021645228
 31
0.0
 11
-216.9964098955007
 21
320.0321983002237
 31
0.0
 11
-216.9904376194642
 21
320.1706844022682
 31
0.0
 11
-216.9824364372445
 21
320.2916442847985
 31
0.0
 11
-216.9727329534378
 21
320.3904746431542
 31
0.0
 11
-216.9616842222692
 21
320.4639163623941
 31
0.0
 11
-216.9496232770683
 21
320.5093046430998
 31
0.0
 11
-216.9371425921195
 21
320.5246690882942
 31
0.0
  0
SPLINE
  5
1B3
330
8B
100
AcDbEntity
  8
0
  6
Continuous
 62
     7
100
AcDbSpline
210
0.0
220
0.0
230
1.0
 70
  1064
 71
     3
 72
    28
 73
    24
 74
    22
 42
0.000000001
 43
0.0000000001
 44
0.00000001
 40
0.0
 40
0.0
 40
0.0
 40
0.0
 40
0.0036783052405997
 40
0.0103939676500783
 40
0.0227497726044778
 40
0.0440017925962738
 40
0.0774245760813292
 40
0.1262468780032193
 40
0.1466114630624145
 40
0.1786224920303407
 40
0.223702227344744
 40
0.2832898368800489
 40
0.3588379281088156
 40
0.4518096988075235
 40
0.5993019845518036
 40
0.7626855975678254
 40
0.9385561470610507
 40
0.994888950701048
 40
1.069010616472485
 40
1.159574181703266
 40
1.265234768895039
 40
1.384649921935254
 40
1.516480004143667
 40
1.516480004143667
 40
1.516480004143667
 40
1.516480004143667
 10
-216.9371425921197
 20
321.2246690882943
 30
0.0
 10
-216.938382005891
 20
321.2245765996481
 30
0.0
 10
-216.9418842808538
 20
321.224315268193
 30
0.0
 10
-216.9481915743721
 20
321.2194020301548
 30
0.0
 10
-216.9556069207328
 20
321.20818434184
 30
0.0
 10
-216.964344010312
 20
321.1874728729605
 30
0.0
 10
-216.9740792206659
 20
321.1543637858936
 30
0.0
 10
-216.9813148318601
 20
321.12090145936
 30
0.0
 10
-216.9875055121315
 20
321.0877435807576
 30
0.0
 10
-216.9928130255005
 20
321.0556912055863
 30
0.0
 10
-216.9993059269695
 20
321.0105940227318
 30
0.0
 10
-217.0066724562479
 20
320.9509715958466
 30
0.0
 10
-217.0145986573237
 20
320.875346108446
 30
0.0
 10
-217.0238075853185
 20
320.770407466851
 30
0.0
 10
-217.0331460378835
 20
320.6361075292604
 30
0.0
 10
-217.0417865076076
 20
320.4740835952064
 30
0.0
 10
-217.0469963978379
 20
320.3423200323193
 30
0.0
 10
-217.0502209893811
 20
320.2402625264987
 30
0.0
 10
-217.0522296711459
 20
320.166616935889
 30
0.0
 10
-217.0542340522497
 20
320.0765234862858
 30
0.0
 10
-217.0559671962076
 20
319.9713242056874
 30
0.0
 10
-217.0572453678736
 20
319.8523611403265
 30
0.0
 10
-217.0574161088115
 20
319.7686125452211
 30
0.0
 10
-217.0575057026975
 20
319.7246690882943
 30
0.0
 11
-216.9371425921197
 21
321.2246690882943
 31
0.0
 11
-216.9407831125716
 21
321.2241432254629
 31
0.0
 11
-216.9464071080624
 21
321.2204729683014
 31
0.0
 11
-216.953727671636
 21
321.210519313809
 31
0.0
 11
-216.9624578963367
 21
321.1911432589845
 31
0.0
 11
-216.9723108752087
 21
321.1592058008273
 31
0.0
 11
-216.982999701296
 21
321.1115679363363
 31
0.0
 11
-216.9867398921787
 21
321.0915497622501
 31
0.0
 11
-216.992008824162
 21
321.0599753370686
 31
0.0
 11
-216.9984880237288
 21
321.0153636513722
 31
0.0
 11
-217.0058590173621
 21
320.9562336957413
 31
0.0
 11
-217.0138033315448
 21
320.8811044607563
 31
0.0
 11
-217.0220024927596
 21
320.7884949369978
 31
0.0
 11
-217.0324026363858
 21
320.6413697816104
 31
0.0
 11
-217.041204347741
 21
320.4782234213542
 31
0.0
 11
-217.0482186044173
 21
320.3024928025885
 31
0.0
 11
-217.0499987351464
 21
320.2461881322691
 31
0.0
 11
-217.0520243834677
 21
320.1720941508362
 31
0.0
 11
-217.0540417268824
 21
320.0815530570059
 31
0.0
 11
-217.0557969428916
 21
319.9759070494947
 31
0.0
 11
-217.0570362089962
 21
319.8564983270186
 31
0.0
 11
-217.0575057026975
 21
319.7246690882943
 31
0.0
  0
SPLINE
  5
1B4
330
8B
100
AcDbEntity
  8
0
  6
Continuous
 62
     7
100
AcDbSpline
210
0.0
220
0.0
230
1.0
 70
  1064
 71
     3
 72
    15
 73
    11
 74
     9
 42
0.000000001
 43
0.0000000001
 44
0.00000001
 40
0.0
 40
0.0
 40
0.0
 40
0.0
 40
0.1588095688757698
 40
0.3144739005469551
 40
0.4625093683898075
 40
0.6007941023091666
 40
0.7280580815518811
 40
0.8450995007542166
 40
0.9546355067154056
 40
1.05906814732846
 40
1.05906814732846
 40
1.05906814732846
 40
1.05906814732846
 10
-232.8820958390259
 20
319.7246690882943
 30
0.0
 10
-232.8800135709855
 20
319.7776411811091
 30
0.0
 10
-232.8758902617001
 20
319.8825362489619
 30
0.0
 10
-232.8438817801759
 20
320.0340953053251
 30
0.0
 10
-232.7938642321778
 20
320.1731817117934
 30
0.0
 10
-232.7267781032821
 20
320.2943586722556
 30
0.0
 10
-232.6454237117457
 20
320.3937578419421
 30
0.0
 10
-232.5524914451064
 20
320.4674983712406
 30
0.0
 10
-232.4508051991367
 20
320.515430768976
 30
0.0
 10
-232.3792781534644
 20
320.5216390105412
 30
0.0
 10
-232.3443676251924
 20
320.5246690882942
 30
0.0
 11
-232.8820958390259
 21
319.7246690882943
 31
0.0
 11
-232.8713503220082
 21
319.8831146984361
 31
0.0
 11
-232.8398463982459
 21
320.0355577587077
 31
0.0
 11
-232.7890072786714
 21
320.1745897107577
 31
0.0
 11
-232.7213585945483
 21
320.2951978504277
 31
0.0
 11
-232.6399354503191
 21
320.3930057863517
 31
0.0
 11
-232.5478260830691
 21
320.4652176892524
 31
0.0
 11
-232.4477185321063
 21
320.5096768392442
 31
0.0
 11
-232.3443676251924
 21
320.5246690882942
 31
0.0
  0
SPLINE
  5
1B5
330
8B
100
AcDbEntity
  8
0
  6
Continuous
 62
     7
100
AcDbSpline
210
0.0
220
0.0
230
1.0
 70
  1064
 71
     3
 72
    17
 73
    13
 74
    11
 42
0.000000001
 43
0.0000000001
 44
0.00000001
 40
0.0
 40
0.0
 40
0.0
 40
0.0
 40
0.2977119305544058
 40
0.5766934525720129
 40
0.7074334334366122
 40
0.8768491815183929
 40
1.063903830659039
 40
1.250334412406424
 40
1.389668124133532
 40
1.439765065111981
 40
1.48736482076064
 40
1.51506315504612
 40
1.51506315504612
 40
1.51506315504612
 40
1.51506315504612
 10
-204.8730197842199
 20
319.7246690882943
 30
0.0
 10
-204.8734674889494
 20
319.823907715633
 30
0.0
 10
-204.8743347185437
 20
320.0161414180344
 30
0.0
 10
-204.8802352585498
 20
320.2518932015175
 30
0.0
 10
-204.8874870869108
 20
320.4448115226756
 30
0.0
 10
-204.8955659714176
 20
320.6069896759411
 30
0.0
 10
-204.9074451229371
 20
320.7877068613727
 30
0.0
 10
-204.9241569049623
 20
320.9574394523631
 30
0.0
 10
-204.9399650521016
 20
321.0827076545522
 30
0.0
 10
-204.958510601361
 20
321.1584873647467
 30
0.0
 10
-204.9669024459765
 20
321.2017413712802
 30
0.0
 10
-204.9862616381753
 20
321.2185032439525
 30
0.0
 10
-204.9933828947976
 20
321.2246690882947
 30
0.0
 11
-204.8730197842199
 21
319.7246690882943
 31
0.0
 11
-204.8754136730522
 21
320.0223713893675
 31
0.0
 11
-204.8822659402002
 21
320.3012687469744
 31
0.0
 11
-204.8872340189435
 21
320.4319143010007
 31
0.0
 11
-204.8957001461025
 21
320.6011183800814
 31
0.0
 11
-204.9084618753101
 21
320.7877371894401
 31
0.0
 11
-204.9267021225709
 21
320.9732733183654
 31
0.0
 11
-204.9474264280236
 21
321.1110571574346
 31
0.0
 11
-204.9584152485553
 21
321.1599340363634
 31
0.0
 11
-204.9739568049085
 21
321.2049251102022
 31
0.0
 11
-204.9933828947976
 21
321.2246690882947
 31
0.0
  0
SPLINE
  5
1B6
330
8B
100
AcDbEntity
  8
0
  6
Continuous
 62
     7
100
AcDbSpline
210
0.0
220
0.0
230
1.0
 70
  1064
 71
     3
 72
    15
 73
    11
 74
     9
 42
0.000000001
 43
0.0000000001
 44
0.00000001
 40
0.0
 40
0.0
 40
0.0
 40
0.0
 40
0.2223206738284946
 40
0.3994444933466654
 40
0.6361582503754863
 40
0.8582290525009781
 40
1.063510086438093
 40
1.394702301419777
 40
1.685458105215425
 40
1.98549704444889
 40
1.98549704444889
 40
1.98549704444889
 40
1.98549704444889
 10
-232.3443676251924
 20
321.2246690882942
 30
0.0
 10
-232.4187921276746
 20
321.21756257104
 30
0.0
 10
-232.5525109432534
 20
321.2047942489638
 30
0.0
 10
-232.745627715567
 20
321.1098302187542
 30
0.0
 10
-232.9120053290717
 20
320.975971398337
 30
0.0
 10
-233.0519907749224
 20
320.8027741221171
 30
0.0
 10
-233.1792722237251
 20
320.5834736711112
 30
0.0
 10
-233.2764838745772
 20
320.3237749146081
 30
0.0
 10
-233.3406830302206
 20
320.021856818265
 30
0.0
 10
-233.3483696690842
 20
319.8247639694192
 30
0.0
 10
-233.3522733719694
 20
319.7246690882943
 30
0.0
 11
-232.3443676251924
 21
321.2246690882942
 31
0.0
 11
-232.5637811583305
 21
321.1888335510882
 31
0.0
 11
-232.7243595196015
 21
321.1140843774076
 31
0.0
 11
-232.9096275288232
 21
320.9667440599372
 31
0.0
 11
-233.0505675604471
 21
320.7951301057226
 31
0.0
 11
-233.1541950068087
 21
320.6179249829681
 31
0.0
 11
-233.2727909096649
 21
320.3086948174048
 31
0.0
 11
-233.3319345934557
 21
320.0240178750108
 31
0.0
 11
-233.3522733719694
 21
319.7246690882943
 31
0.0
  0
SPLINE
  5
1B7
330
8B
100
AcDbEntity
  8
0
  6
Continuous
 62
     7
100
AcDbSpline
210
0.0
220
0.0
230
1.0
 70
  1064
 71
     3
 72
    15
 73
    11
 74
     9
 42
0.000000001
 43
0.0000000001
 44
0.00000001
 40
0.0
 40
0.0
 40
0.0
 40
0.0
 40
0.1216822613533327
 40
0.2467340038562626
 40
0.3769354317429588
 40
0.5139085091002549
 40
0.658163643823814
 40
0.8093285850121081
 40
0.9665512193059836
 40
1.125872701844457
 40
1.125872701844457
 40
1.125872701844457
 40
1.125872701844457
 10
-157.1749433360751
 20
320.5246690882941
 30
0.0
 10
-157.1342939164748
 20
320.5217134126752
 30
0.0
 10
-157.0518694634609
 20
320.5157202024709
 30
0.0
 10
-156.9333495375876
 20
320.4688532970735
 30
0.0
 10
-156.8240475918612
 20
320.3957184641922
 30
0.0
 10
-156.7279610926201
 20
320.2964689601098
 30
0.0
 10
-156.6486681579349
 20
320.1751328530039
 30
0.0
 10
-156.5894959893913
 20
320.0356802674888
 30
0.0
 10
-156.5515019025952
 20
319.8834366909417
 30
0.0
 10
-156.5465931113814
 20
319.7778250425153
 30
0.0
 10
-156.5441224490701
 20
319.7246690882943
 30
0.0
 11
-157.1749433360751
 21
320.5246690882941
 31
0.0
 11
-157.0541731762594
 21
320.5097982378672
 31
0.0
 11
-156.9371595414331
 21
320.4656875981912
 31
0.0
 11
-156.8287980261581
 21
320.3935059210152
 31
0.0
 11
-156.7330081816475
 21
320.2955981577942
 31
0.0
 11
-156.6536443651148
 21
320.1751368409194
 31
0.0
 11
-156.5939550919598
 21
320.0362554875734
 31
0.0
 11
-156.5568050183873
 21
319.8834849774302
 31
0.0
 11
-156.5441224490701
 21
319.7246690882943
 31
0.0
  0
SPLINE
  5
1B8
330
8B
100
AcDbEntity
  8
0
  6
Continuous
 62
     7
100
AcDbSpline
210
0.0
220
0.0
230
1.0
 70
  1064
 71
     3
 72
    25
 73
    21
 74
    19
 42
0.000000001
 43
0.0000000001
 44
0.00000001
 40
0.0
 40
0.0
 40
0.0
 40
0.0
 40
0.0036783052417017
 40
0.0103939676527312
 40
0.0227497726084297
 40
0.0440017926005455
 40
0.0774245760843175
 40
0.1262468780026127
 40
0.1466114630604601
 40
0.1786224920275079
 40
0.2237022273414929
 40
0.2832898368766604
 40
0.3588379281057274
 40
0.4518096988053036
 40
0.5993019845599342
 40
0.7626855975756309
 40
0.9385561470533291
 40
1.124562609654835
 40
1.318344885549126
 40
1.516477849444422
 40
1.516477849444422
 40
1.516477849444422
 40
1.516477849444422
 10
-183.0628642922894
 20
321.2246690882947
 30
0.0
 10
-183.0616248785177
 20
321.2245765996484
 30
0.0
 10
-183.058122603554
 20
321.2243152681928
 30
0.0
 10
-183.0518153100355
 20
321.2194020301525
 30
0.0
 10
-183.0443999636748
 20
321.2081843418368
 30
0.0
 10
-183.0356628740963
 20
321.1874728729567
 30
0.0
 10
-183.0259276637419
 20
321.1543637858913
 30
0.0
 10
-183.0186920525541
 20
321.1209014593593
 30
0.0
 10
-183.0125013722702
 20
321.0877435807598
 30
0.0
 10
-183.0071938589725
 20
321.0556912055848
 30
0.0
 10
-183.0007009570555
 20
321.0105940227593
 30
0.0
 10
-182.9933344303214
 20
320.9509715957129
 30
0.0
 10
-182.9854082156804
 20
320.8753461091701
 30
0.0
 10
-182.9761993656564
 20
320.7704074626394
 30
0.0
 10
-182.9668604160344
 20
320.6361075564853
 30
0.0
 10
-182.9582222056299
 20
320.474083479525
 30
0.0
 10
-182.9512951267823
 20
320.2991283304914
 30
0.0
 10
-182.9463041195169
 20
320.1139723996243
 30
0.0
 10
-182.9431071076745
 20
319.9213527569781
 30
0.0
 10
-182.9427046495399
 20
319.7907137232453
 30
0.0
 10
-182.9425011817116
 20
319.7246690882943
 30
0.0
 11
-183.0628642922894
 21
321.2246690882947
 31
0.0
 11
-183.0592237718361
 21
321.2241432254625
 31
0.0
 11
-183.0535997763448
 21
321.2204729682994
 31
0.0
 11
-183.0462792127711
 21
321.2105193138053
 31
0.0
 11
-183.0375489880708
 21
321.1911432589803
 31
0.0
 11
-183.0276960091995
 21
321.159205800824
 31
0.0
 11
-183.017007183113
 21
321.1115679363363
 31
0.0
 11
-183.0132669922306
 21
321.0915497622514
 31
0.0
 11
-183.0079980602474
 21
321.0599753370706
 31
0.0
 11
-183.0015188606805
 21
321.0153636513744
 31
0.0
 11
-182.9941478670472
 21
320.9562336957433
 31
0.0
 11
-182.9862035528645
 21
320.8811044607577
 31
0.0
 11
-182.9780043916495
 21
320.7884949369978
 31
0.0
 11
-182.9676042480226
 21
320.641369781599
 31
0.0
 11
-182.9588025366675
 21
320.4782234213415
 31
0.0
 11
-182.9517882799917
 21
320.3024928025885
 31
0.0
 11
-182.9466882818302
 21
320.1165562700191
 31
0.0
 11
-182.943562831962
 21
319.9227992004085
 31
0.0
 11
-182.9425011817116
 21
319.7246690882943
 31
0.0
  0
SPLINE
  5
1B9
330
8B
100
AcDbEntity
  8
0
  6
Continuous
 62
     7
100
AcDbSpline
210
0.0
220
0.0
230
1.0
 70
  1064
 71
     3
 72
    15
 73
    11
 74
     9
 42
0.000000001
 43
0.0000000001
 44
0.00000001
 40
0.0
 40
0.0
 40
0.0
 40
0.0
 40
0.1568543550496803
 40
0.3143419386979266
 40
0.4715545060731716
 40
0.6286875828410002
 40
0.7856976622995395
 40
0.9429645914217103
 40
1.101371638168601
 40
1.259180224625542
 40
1.259180224625542
 40
1.259180224625542
 40
1.259180224625542
 10
-124.1642192658516
 20
320.524669088293
 30
0.0
 10
-124.1118608887567
 20
320.5216816530256
 30
0.0
 10
-124.0069327626906
 20
320.5156947076446
 30
0.0
 10
-123.8553352707897
 20
320.4688163282402
 30
0.0
 10
-123.7153840380599
 20
320.3953214470387
 30
0.0
 10
-123.5924923892064
 20
320.2957396183475
 30
0.0
 10
-123.4912691063947
 20
320.1741601580652
 30
0.0
 10
-123.4159995133861
 20
320.0348126978229
 30
0.0
 10
-123.3676730503387
 20
319.8829078066856
 30
0.0
 10
-123.3614531217532
 20
319.7773487355923
 30
0.0
 10
-123.358349050471
 20
319.7246690882943
 30
0.0
 11
-124.1642192658516
 21
320.524669088293
 31
0.0
 11
-124.0081082489754
 21
320.5094165596265
 31
0.0
 11
-123.8572071514774
 21
320.4643477412895
 31
0.0
 11
-123.7181825130897
 21
320.3909451407432
 31
0.0
 11
-123.5960754026502
 21
320.2920479321915
 31
0.0
 11
-123.4956766035679
 21
320.1713323712088
 31
0.0
 11
-123.420660506933
 21
320.0331098232559
 31
0.0
 11
-123.374150369716
 21
319.8816845933881
 31
0.0
 11
-123.358349050471
 21
319.7246690882943
 31
0.0
  0
SPLINE
  5
1BA
330
8B
100
AcDbEntity
  8
0
  6
Continuous
 62
     7
100
AcDbSpline
210
0.0
220
0.0
230
1.0
 70
  1064
 71
     3
 72
    15
 73
    11
 74
     9
 42
0.000000001
 43
0.0000000001
 44
0.00000001
 40
0.0
 40
0.0
 40
0.0
 40
0.0
 40
0.0246024382025994
 40
0.0829065854681011
 40
0.1756882804786151
 40
0.2998923857940884
 40
0.451107486151105
 40
0.6240488024295987
 40
0.8134002067670496
 40
1.009698029247531
 40
1.009698029247531
 40
1.009698029247531
 40
1.009698029247531
 10
-216.9210904018114
 20
320.5246690882892
 30
0.0
 10
-216.9154433679298
 20
320.5307794944912
 30
0.0
 10
-216.8964136808485
 20
320.5513706481483
 30
0.0
 10
-216.889614053364
 20
320.6127067164504
 30
0.0
 10
-216.8736343353242
 20
320.7014705643438
 30
0.0
 10
-216.8634693354306
 20
320.8245860327194
 30
0.0
 10
-216.8533927561667
 20
320.9734232838125
 30
0.0
 10
-216.8463585144851
 20
321.1445574488167
 30
0.0
 10
-216.8416976910391
 20
321.3306780187762
 30
0.0
 10
-216.8411131665272
 20
321.4592335395649
 30
0.0
 10
-216.8408156332882
 20
321.5246690882942
 30
0.0
 11
-216.9210904018114
 21
320.5246690882892
 31
0.0
 11
-216.9055424921517
 21
320.5437358764511
 31
0.0
 11
-216.8905132054435
 21
320.6000696501915
 31
0.0
 11
-216.8766659440606
 21
320.6918122042707
 31
0.0
 11
-216.8645025461853
 21
320.8154192893975
 31
0.0
 11
-216.8545000961801
 21
320.9663032101644
 31
0.0
 11
-216.847025351849
 21
321.1390829169065
 31
0.0
 11
-216.842390481529
 21
321.3283775875051
 31
0.0
 11
-216.8408156332882
 21
321.5246690882942
 31
0.0
  0
SPLINE
  5
1BB
330
8B
100
AcDbEntity
  8
0
  6
Continuous
 62
     7
100
AcDbSpline
210
0.0
220
0.0
230
1.0
 70
  1064
 71
     3
 72
    13
 73
     9
 74
     7
 42
0.000000001
 43
0.0000000001
 44
0.00000001
 40
0.0
 40
0.0
 40
0.0
 40
0.0
 40
0.0782739542389476
 40
0.150724344194592
 40
0.2127846735233424
 40
0.2602215964667433
 40
0.2905878189983466
 40
0.3027029462212241
 40
0.3027029462212241
 40
0.3027029462212241
 40
0.3027029462212241
 10
-216.8970104055866
 20
321.5246690882942
 30
0.0
 10
-216.8971538175773
 20
321.4985694945203
 30
0.0
 10
-216.8974299580816
 20
321.4483121104586
 30
0.0
 10
-216.900017578998
 20
321.3775155155236
 30
0.0
 10
-216.9028957339783
 20
321.3166590335292
 30
0.0
 10
-216.9089884097494
 20
321.2709887507243
 30
0.0
 10
-216.910875298568
 20
321.2399402042029
 30
0.0
 10
-216.918823642945
 20
321.2280577986772
 30
0.0
 10
-216.9210904018114
 20
321.2246690882948
 30
0.0
 11
-216.8970104055866
 21
321.5246690882942
 31
0.0
 11
-216.8978604875734
 21
321.4463997538442
 31
0.0
 11
-216.9002866804225
 21
321.3739899989935
 31
0.0
 11
-216.9041029044669
 21
321.3120471148195
 31
0.0
 11
-216.9090790594534
 21
321.2648719145457
 31
0.0
 11
-216.9148640717922
 21
321.2350618318063
 31
0.0
 11
-216.9210904018114
 21
321.2246690882948
 31
0.0
  0
SPLINE
  5
1BC
330
8B
100
AcDbEntity
  8
0
  6
Continuous
 62
     7
100
AcDbSpline
210
0.0
220
0.0
230
1.0
 70
  1064
 71
     3
 72
    13
 73
     9
 74
     7
 42
0.000000001
 43
0.0000000001
 44
0.00000001
 40
0.0
 40
0.0
 40
0.0
 40
0.0
 40
0.0120777651270779
 40
0.042369275328847
 40
0.0897709564502598
 40
0.1518711415269819
 40
0.2243891146340304
 40
0.3027071292316924
 40
0.3027071292316924
 40
0.3027071292316924
 40
0.3027071292316924
 10
-205.0094350851059
 20
321.2246690882968
 30
0.0
 10
-205.0117003774124
 20
321.2280439560706
 30
0.0
 10
-205.0196471307017
 20
321.2398831137402
 30
0.0
 10
-205.0215240126747
 20
321.2708890418624
 30
0.0
 10
-205.027621912107
 20
321.3165311908436
 30
0.0
 10
-205.0305024153205
 20
321.3774138301486
 30
0.0
 10
-205.0330944072257
 20
321.44826003356
 30
0.0
 10
-205.03337130278
 20
321.4985547486847
 30
0.0
 10
-205.0335150813307
 20
321.5246690882942
 30
0.0
 11
-205.0094350851059
 21
321.2246690882968
 31
0.0
 11
-205.0156572012727
 21
321.2350207874826
 31
0.0
 11
-205.0214345236313
 21
321.2647562556531
 31
0.0
 11
-205.0264103917594
 21
321.3118960487207
 31
0.0
 11
-205.0302329057394
 21
321.3738784765755
 31
0.0
 11
-205.0326634034874
 21
321.4463557082333
 31
0.0
 11
-205.0335150813307
 21
321.5246690882942
 31
0.0
  0
SPLINE
  5
1BD
330
8B
100
AcDbEntity
  8
0
  6
Continuous
 62
     7
100
AcDbSpline
210
0.0
220
0.0
230
1.0
 70
  1064
 71
     3
 72
    11
 73
     7
 74
     5
 42
0.000000001
 43
0.0000000001
 44
0.00000001
 40
0.0
 40
0.0
 40
0.0
 40
0.0
 40
0.1178220518842307
 40
0.2246661305109984
 40
0.3156897693789299
 40
0.3952086953352097
 40
0.3952086953352097
 40
0.3952086953352097
 40
0.3952086953352097
 10
-232.0080744281452
 20
321.5246690882942
 30
0.0
 10
-232.0111359624223
 20
321.485197732858
 30
0.0
 10
-232.0169737881889
 20
321.409932735542
 30
0.0
 10
-232.0606057723461
 20
321.3128587179583
 30
0.0
 10
-232.1260599341701
 20
321.2405711337328
 30
0.0
 10
-232.1832188077229
 20
321.2297258944362
 30
0.0
 10
-232.2098702925829
 20
321.2246690882939
 30
0.0
 11
-232.0080744281452
 21
321.5246690882942
 31
0.0
 11
-232.0241935076259
 21
321.4079548624182
 31
0.0
 11
-232.0684321847521
 21
321.3106995424323
 31
0.0
 11
-232.1335935987128
 21
321.2471441011942
 31
0.0
 11
-232.2098702925829
 21
321.2246690882939
 31
0.0
  0
SPLINE
  5
1BE
330
8B
100
AcDbEntity
  8
0
  6
Continuous
 62
     7
100
AcDbSpline
210
0.0
220
0.0
230
1.0
 70
  1064
 71
     3
 72
    15
 73
    11
 74
     9
 42
0.000000001
 43
0.0000000001
 44
0.00000001
 40
0.0
 40
0.0
 40
0.0
 40
0.0
 40
0.130083340646161
 40
0.2664726754118085
 40
0.4130535356132756
 40
0.5724451487960913
 40
0.7451748786202576
 40
0.9301099134478921
 40
1.125195754422409
 40
1.324254953395601
 40
1.324254953395601
 40
1.324254953395601
 40
1.324254953395601
 10
-232.2098702925828
 20
320.5246690882946
 30
0.0
 10
-232.1663859619472
 20
320.5284260824512
 30
0.0
 10
-232.0773093316944
 20
320.5361222105923
 30
0.0
 10
-231.9503255464251
 20
320.5956780786441
 30
0.0
 10
-231.8339403397659
 20
320.6876234268634
 30
0.0
 10
-231.7319459379729
 20
320.8118333941677
 30
0.0
 10
-231.6478756086367
 20
320.9632168227573
 30
0.0
 10
-231.5851061357263
 20
321.1370801217198
 30
0.0
 10
-231.5448143773906
 20
321.3268005070254
 30
0.0
 10
-231.5396094036263
 20
321.4582711111933
 30
0.0
 10
-231.5369806876117
 20
321.5246690882942
 30
0.0
 11
-232.2098702925828
 21
320.5246690882946
 31
0.0
 11
-232.081122566701
 21
320.5432620956291
 31
0.0
 11
-231.9563727026321
 21
320.5983939694788
 31
0.0
 11
-231.8408243954167
 21
320.6885856436394
 31
0.0
 11
-231.7386485410876
 21
320.8109203548278
 31
0.0
 11
-231.6539505571936
 21
320.9614587596201
 31
0.0
 11
-231.5902168855407
 21
321.1350645954752
 31
0.0
 11
-231.5505342013066
 21
321.3260718453955
 31
0.0
 11
-231.5369806876117
 21
321.5246690882942
 31
0.0
  0
SPLINE
  5
1BF
330
8B
100
AcDbEntity
  8
0
  6
Continuous
 62
     7
100
AcDbSpline
210
0.0
220
0.0
230
1.0
 70
  1064
 71
     3
 72
     9
 73
     5
 74
     3
 42
0.000000001
 43
0.0000000001
 44
0.00000001
 40
0.0
 40
0.0
 40
0.0
 40
0.0
 40
0.1296252411752172
 40
0.267618253002063
 40
0.267618253002063
 40
0.267618253002063
 40
0.267618253002063
 10
-269.014961624542
 20
318.9853809719035
 30
0.0
 10
-268.975047385068
 20
318.9678665963472
 30
0.0
 10
-268.8926422940835
 20
318.9317072488514
 30
0.0
 10
-268.8027119011293
 20
318.9270635343408
 30
0.0
 10
-268.7563407507305
 20
318.9246690882941
 30
0.0
 11
-269.014961624542
 21
318.9853809719035
 31
0.0
 11
-268.8934533869377
 21
318.9402317564296
 31
0.0
 11
-268.7563407507305
 21
318.9246690882941
 31
0.0
  0
SPLINE
  5
1C0
330
8B
100
AcDbEntity
  8
0
  6
Continuous
 62
     7
100
AcDbSpline
210
0.0
220
0.0
230
1.0
 70
  1064
 71
     3
 72
     9
 73
     5
 74
     3
 42
0.000000001
 43
0.0000000001
 44
0.00000001
 40
0.0
 40
0.0
 40
0.0
 40
0.0
 40
0.0056631279005489
 40
0.0145573010805738
 40
0.0145573010805738
 40
0.0145573010805738
 40
0.0145573010805738
 10
-204.9840113607517
 20
318.9276555908377
 30
0.0
 10
-204.983748901928
 20
318.9295303205934
 30
0.0
 10
-204.9830742202658
 20
318.9343493858266
 30
0.0
 10
-204.9813013061523
 20
318.9388914413184
 30
0.0
 10
-204.9802180844455
 20
318.9416665284639
 30
0.0
 11
-204.9840113607517
 21
318.9276555908377
 31
0.0
 11
-204.9830577725222
 21
318.9332378570369
 31
0.0
 11
-204.9802180844455
 21
318.9416665284639
 31
0.0
  0
SPLINE
  5
1C1
330
8B
100
AcDbEntity
  8
0
  6
Continuous
 62
     7
100
AcDbSpline
210
0.0
220
0.0
230
1.0
 70
  1064
 71
     3
 72
     9
 73
     5
 74
     3
 42
0.000000001
 43
0.0000000001
 44
0.00000001
 40
0.0
 40
0.0
 40
0.0
 40
0.0
 40
0.0052797719942281
 40
0.0083801112620996
 40
0.0083801112620996
 40
0.0083801112620996
 40
0.0083801112620996
 10
-204.9802180844455
 20
318.2336650612371
 30
0.0
 10
-204.981295200685
 20
318.2322429524461
 30
0.0
 10
-204.9830047924099
 20
318.2299857565019
 30
0.0
 10
-204.9837370699343
 20
318.227269084463
 30
0.0
 10
-204.9840079788542
 20
318.2262640110214
 30
0.0
 11
-204.9802180844455
 21
318.2336650612371
 31
0.0
 11
-204.9830614781164
 21
318.2292163402578
 31
0.0
 11
-204.9840079788542
 21
318.2262640110214
 31
0.0
  0
SPLINE
  5
1C2
330
8B
100
AcDbEntity
  8
0
  6
Continuous
 62
     7
100
AcDbSpline
210
0.0
220
0.0
230
1.0
 70
  1064
 71
     3
 72
     9
 73
     5
 74
     3
 42
0.000000001
 43
0.0000000001
 44
0.00000001
 40
0.0
 40
0.0
 40
0.0
 40
0.0
 40
0.015120616088063
 40
0.0266232907337811
 40
0.0266232907337811
 40
0.0266232907337811
 40
0.0266232907337811
 10
-183.0739747123699
 20
318.2246690882947
 30
0.0
 10
-183.068736221783
 20
318.2247985673641
 30
0.0
 10
-183.0595126709423
 20
318.2250265631831
 30
0.0
 10
-183.05266013629
 20
318.2310588052594
 30
0.0
 10
-183.0496994819371
 20
318.2336650612373
 30
0.0
 11
-183.0739747123699
 21
318.2246690882947
 31
0.0
 11
-183.0590240471139
 21
318.2269297763549
 31
0.0
 11
-183.0496994819371
 21
318.2336650612373
 31
0.0
  0
SPLINE
  5
1C3
330
8B
100
AcDbEntity
  8
0
  6
Continuous
 62
     7
100
AcDbSpline
210
0.0
220
0.0
230
1.0
 70
  1064
 71
     3
 72
    15
 73
    11
 74
     9
 42
0.000000001
 43
0.0000000001
 44
0.00000001
 40
0.0
 40
0.0
 40
0.0
 40
0.0
 40
0.2426885238193264
 40
0.5909823476107628
 40
0.9382055083862884
 40
1.180931508147083
 40
1.54461167665316
 40
1.769855409061425
 40
2.003388855451639
 40
2.36045954872616
 40
2.36045954872616
 40
2.36045954872616
 40
2.36045954872616
 10
-122.6533570266656
 20
319.7246690882943
 30
0.0
 10
-122.6572700165343
 20
319.8056363602602
 30
0.0
 10
-122.666798740398
 20
320.0028036073271
 30
0.0
 10
-122.7575063094421
 20
320.3062143380646
 30
0.0
 10
-122.911747416764
 20
320.5811703982615
 30
0.0
 10
-123.1199489455856
 20
320.823017380428
 30
0.0
 10
-123.341781621083
 20
320.9945076297576
 30
0.0
 10
-123.5876645458952
 20
321.1170503650171
 30
0.0
 10
-123.8475277024633
 20
321.2035058478228
 30
0.0
 10
-124.0448942899172
 20
321.2166950785123
 30
0.0
 10
-124.1642192658517
 20
321.224669088293
 30
0.0
 11
-122.6533570266656
 21
319.7246690882943
 31
0.0
 11
-122.6731245123346
 21
319.9665512230467
 31
0.0
 11
-122.7694197294441
 21
320.3012687469744
 31
0.0
 11
-122.9399477605173
 21
320.6037321586181
 31
0.0
 11
-123.098245139385
 21
320.7877371894401
 31
0.0
 11
-123.3859447301843
 21
321.0102056405474
 31
0.0
 11
-123.587349077286
 21
321.1110571574346
 31
0.0
 11
-123.8096246519386
 21
321.1826912281153
 31
0.0
 11
-124.1642192658517
 21
321.224669088293
 31
0.0
  0
SPLINE
  5
1C4
330
8B
100
AcDbEntity
  8
0
  6
Continuous
 62
     7
100
AcDbSpline
210
0.0
220
0.0
230
1.0
 70
  1064
 71
     3
 72
    15
 73
    11
 74
     9
 42
0.000000001
 43
0.0000000001
 44
0.00000001
 40
0.0
 40
0.0
 40
0.0
 40
0.0
 40
0.3509829493131589
 40
0.5920371459197864
 40
0.9219033570289894
 40
1.146310362599928
 40
1.343941741258535
 40
1.646916542022544
 40
1.927838950646919
 40
2.110427248638294
 40
2.110427248638294
 40
2.110427248638294
 40
2.110427248638294
 10
-155.9925467631545
 20
319.7246690882943
 30
0.0
 10
-155.9986292751359
 20
319.8418762041599
 30
0.0
 10
-156.0088892535749
 20
320.0395808678056
 30
0.0
 10
-156.0880818731085
 20
320.3379249292418
 30
0.0
 10
-156.1950584767653
 20
320.5823309879357
 30
0.0
 10
-156.3360932269654
 20
320.7907616705503
 30
0.0
 10
-156.5010304407892
 20
320.9685998772793
 30
0.0
 10
-156.715185214142
 20
321.12148363241
 30
0.0
 10
-156.9593188809065
 20
321.2119375067548
 30
0.0
 10
-157.1140076245168
 20
321.2210711337425
 30
0.0
 10
-157.1749433360751
 20
321.2246690882946
 30
0.0
 11
-155.9925467631545
 21
319.7246690882943
 31
0.0
 11
-156.0250623733776
 21
320.0741426411634
 31
0.0
 11
-156.0853997375962
 21
320.3075232918071
 31
0.0
 11
-156.2196605484899
 21
320.6088300329538
 31
0.0
 11
-156.3458795111415
 21
320.794375924751
 31
0.0
 11
-156.4806952353016
 21
320.9388850343013
 31
0.0
 11
-156.728222239338
 21
321.1135965502641
 31
0.0
 11
-156.9932310815516
 21
321.2068044685943
 31
0.0
 11
-157.1749433360751
 21
321.2246690882946
 31
0.0
  0
ENDBLK
  5
8D
330
8B
100
AcDbEntity
  8
0
100
AcDbBlockEnd
  0
BLOCK
  5
92
330
8E
100
AcDbEntity
  8
0
100
AcDbBlockBegin
  2
BG-HL350_0__6
 70
     0
 10
-350.0000034422048
 20
15.27533102523935
 30
0.0
  3
BG-HL350_0__6
  1

  0
INSERT
  5
8F
330
8E
100
AcDbEntity
  8
0
100
AcDbBlockReference
  2
HL084_4E-Klemmring
 10
-292.5011709422049
 20
285.5765280252394
 30
0.0
  0
INSERT
  5
90
330
8E
100
AcDbEntity
  8
0
100
AcDbBlockReference
  2
HL350_1-Aufstockelement__4
 10
-350.0000034422048
 20
15.27533102523935
 30
0.0
  0
INSERT
  5
91
330
8E
100
AcDbEntity
  8
0
100
AcDbBlockReference
  2
HL084_2E_Edelstahlflansch__5
 10
-309.9990033421848
 20
318.224669088293
 30
0.0
  0
ENDBLK
  5
93
330
8E
100
AcDbEntity
  8
0
100
AcDbBlockEnd
  0
BLOCK
  5
96
330
94
100
AcDbEntity
  8
0
100
AcDbBlockBegin
  2
Vordans1
 70
     0
 10
-199.9999999999998
 20
183.0000000003
 30
0.0
  3
Vordans1
  1

  0
INSERT
  5
95
330
94
100
AcDbEntity
  8
0
100
AcDbBlockReference
  2
BG-HL350_0__6
 10
-350.0000034422048
 20
15.27533102523935
 30
0.0
  0
MTEXT
  5
1C5
330
94
100
AcDbEntity
  8
1
 62
     1
100
AcDbMText
 10
-200.0000034422048
 20
10.27533102523935
 30
0.0
 40
3.5
 41
0.0
 71
     2
 72
     1
  1
 
  7
CONVERTER_11
 73
     1
 44
1.32052821128451
  0
DIMENSION
  5
1D0
330
94
100
AcDbEntity
  8
1
100
AcDbDimension
  2
*D10
 10
-350.0000034422048
 20
255.427297858948
 30
0.0
 11
-204.419302711449
 21
260.927297858948
 31
0.0
 70
    32
  1
<>
 71
     5
 42
-1.0
 53
0.00013888888889
  3
ME10_DIM_10
100
AcDbAlignedDimension
 13
-50.00000344220484
 23
237.3095610651875
 33
0.0
 14
-350.0000034422048
 24
237.3095610651875
 34
0.0
100
AcDbRotatedDimension
  0
DIMENSION
  5
1DB
330
94
100
AcDbEntity
  8
1
100
AcDbDimension
  2
*D11
 10
-370.317034767568
 20
15.2753310252394
 30
0.0
 11
-375.817034767568
 21
127.68941421765
 31
0.0
 70
    32
  1
<>
 71
     5
 42
-1.0
 53
90.0
  3
ME10_DIM_11
100
AcDbAlignedDimension
 13
-350.0000034422048
 23
237.3095610651875
 33
0.0
 14
-271.1602574422047
 24
15.27533102523935
 34
0.0
 50
90.0
100
AcDbRotatedDimension
  0
DIMENSION
  5
1E6
330
94
100
AcDbEntity
  8
1
100
AcDbDimension
  2
*D12
 10
-272.5000034422048
 20
-12.79495339393264
 30
0.0
 11
-201.728144007422
 21
-7.29495339393264
 31
0.0
 70
    32
  1
<>
 71
     5
 42
-1.0
 53
0.00013888888889
  3
ME10_DIM_12
100
AcDbAlignedDimension
 13
-127.5000034422048
 23
20.27533102523935
 33
0.0
 14
-272.5000034422048
 24
20.27533102523935
 34
0.0
100
AcDbRotatedDimension
  0
ENDBLK
  5
97
330
94
100
AcDbEntity
  8
0
100
AcDbBlockEnd
  0
BLOCK
  5
1CD
330
1C6
100
AcDbEntity
  8
0
100
AcDbBlockBegin
  2
*D10
 70
     1
 10
0.0
 20
0.0
 30
0.0
  3
*D10
  1

  0
LINE
  5
1C7
330
1C6
100
AcDbEntity
  8
1
  6
Continuous
 62
     4
100
AcDbLine
 10
-350.0000034422048
 20
255.427297858948
 30
0.0
 11
-50.00000344220481
 21
255.427297858948
 31
0.0
  0
LINE
  5
1C8
330
1C6
100
AcDbEntity
  8
1
  6
Continuous
 62
     4
100
AcDbLine
 10
-50.00000344220481
 20
237.3095610651875
 30
0.0
 11
-50.00000344220481
 21
257.427297858948
 31
0.0
  0
LINE
  5
1C9
330
1C6
100
AcDbEntity
  8
1
  6
Continuous
 62
     4
100
AcDbLine
 10
-350.0000034422048
 20
237.3095610651875
 30
0.0
 11
-350.0000034422048
 21
257.427297858948
 31
0.0
  0
SOLID
  5
1CA
330
1C6
100
AcDbEntity
  8
1
 62
     4
100
AcDbTrace
 10
-343.0000034422048
 20
256.3488653420598
 30
0.0
 11
-343.0000034422048
 21
254.5057303758362
 31
0.0
 12
-350.0000034422048
 22
255.427297858948
 32
0.0
 13
-350.0000034422048
 23
255.427297858948
 33
0.0
  0
SOLID
  5
1CB
330
1C6
100
AcDbEntity
  8
1
 62
     4
100
AcDbTrace
 10
-57.00000344220481
 20
254.5057303758362
 30
0.0
 11
-57.00000344220481
 21
256.3488653420598
 31
0.0
 12
-50.00000344220481
 22
255.427297858948
 32
0.0
 13
-50.00000344220481
 23
255.427297858948
 33
0.0
  0
MTEXT
  5
1CC
330
1C6
100
AcDbEntity
  8
1
 62
     1
100
AcDbMText
 10
-217.2993027114153
 20
257.4272700306427
 30
0.0
 40
7.0
 41
0.0
 71
     7
 72
     1
  1
\C1; {\Fgdt;n}\C1;300
  7
CONVERTER_11
 11
0.9999999999970619
 21
2.424068405545306E-6
 31
0.0
 73
     1
 44
0.60024009603842
  0
ENDBLK
  5
1CE
330
1C6
100
AcDbEntity
  8
0
100
AcDbBlockEnd
  0
BLOCK
  5
1D8
330
1D1
100
AcDbEntity
  8
0
100
AcDbBlockBegin
  2
*D11
 70
     1
 10
0.0
 20
0.0
 30
0.0
  3
*D11
  1

  0
LINE
  5
1D2
330
1D1
100
AcDbEntity
  8
1
  6
Continuous
 62
     4
100
AcDbLine
 10
-370.317034767568
 20
15.2753310252394
 30
0.0
 11
-370.317034767568
 21
237.3095610651875
 31
0.0
  0
LINE
  5
1D3
330
1D1
100
AcDbEntity
  8
1
  6
Continuous
 62
     4
100
AcDbLine
 10
-350.0000034422048
 20
237.3095610651875
 30
0.0
 11
-372.317034767568
 21
237.3095610651875
 31
0.0
  0
LINE
  5
1D4
330
1D1
100
AcDbEntity
  8
1
  6
Continuous
 62
     4
100
AcDbLine
 10
-271.1602574422048
 20
15.2753310252394
 30
0.0
 11
-372.317034767568
 21
15.2753310252394
 31
0.0
  0
SOLID
  5
1D5
330
1D1
100
AcDbEntity
  8
1
 62
     4
100
AcDbTrace
 10
-371.2386022506797
 20
22.2753310252394
 30
0.0
 11
-369.3954672844562
 21
22.2753310252394
 31
0.0
 12
-370.317034767568
 22
15.2753310252394
 32
0.0
 13
-370.317034767568
 23
15.2753310252394
 33
0.0
  0
SOLID
  5
1D6
330
1D1
100
AcDbEntity
  8
1
 62
     4
100
AcDbTrace
 10
-369.3954672844562
 20
230.3095610651875
 30
0.0
 11
-371.2386022506797
 21
230.3095610651875
 31
0.0
 12
-370.317034767568
 22
237.3095610651875
 32
0.0
 13
-370.317034767568
 23
237.3095610651875
 33
0.0
  0
MTEXT
  5
1D7
330
1D1
100
AcDbEntity
  8
1
 62
     1
100
AcDbMText
 10
-372.317034767568
 20
119.28941421765
 30
0.0
 40
7.0
 41
0.0
 71
     7
 72
     1
  1
222
  7
CONVERTER_11
 11
0.0
 21
1.0
 31
0.0
 73
     1
 44
0.60024009603842
  0
ENDBLK
  5
1D9
330
1D1
100
AcDbEntity
  8
0
100
AcDbBlockEnd
  0
BLOCK
  5
1E3
330
1DC
100
AcDbEntity
  8
0
100
AcDbBlockBegin
  2
*D12
 70
     1
 10
0.0
 20
0.0
 30
0.0
  3
*D12
  1

  0
LINE
  5
1DD
330
1DC
100
AcDbEntity
  8
1
  6
Continuous
 62
     4
100
AcDbLine
 10
-272.5000034422048
 20
-12.79495339393264
 30
0.0
 11
-127.5000034422048
 21
-12.79495339393264
 31
0.0
  0
LINE
  5
1DE
330
1DC
100
AcDbEntity
  8
1
  6
Continuous
 62
     4
100
AcDbLine
 10
-127.5000034422048
 20
20.27533102523935
 30
0.0
 11
-127.5000034422048
 21
-14.79495339393264
 31
0.0
  0
LINE
  5
1DF
330
1DC
100
AcDbEntity
  8
1
  6
Continuous
 62
     4
100
AcDbLine
 10
-272.5000034422048
 20
20.27533102523935
 30
0.0
 11
-272.5000034422048
 21
-14.79495339393264
 31
0.0
  0
SOLID
  5
1E0
330
1DC
100
AcDbEntity
  8
1
 62
     4
100
AcDbTrace
 10
-265.5000034422048
 20
-11.87338591082087
 30
0.0
 11
-265.5000034422048
 21
-13.71652087704441
 31
0.0
 12
-272.5000034422048
 22
-12.79495339393264
 32
0.0
 13
-272.5000034422048
 23
-12.79495339393264
 33
0.0
  0
SOLID
  5
1E1
330
1DC
100
AcDbEntity
  8
1
 62
     4
100
AcDbTrace
 10
-134.5000034422048
 20
-13.71652087704441
 30
0.0
 11
-134.5000034422048
 21
-11.87338591082087
 31
0.0
 12
-127.5000034422048
 22
-12.79495339393264
 32
0.0
 13
-127.5000034422048
 23
-12.79495339393264
 33
0.0
  0
MTEXT
  5
1E2
330
1DC
100
AcDbEntity
  8
1
 62
     1
100
AcDbMText
 10
-213.5581440073883
 20
-10.79498122223794
 30
0.0
 40
7.0
 41
0.0
 71
     7
 72
     1
  1
\C1; {\Fgdt;n}\C1;145
  7
CONVERTER_11
 11
0.9999999999970619
 21
2.424068405545306E-6
 31
0.0
 73
     1
 44
0.60024009603842
  0
ENDBLK
  5
1E4
330
1DC
100
AcDbEntity
  8
0
100
AcDbBlockEnd
  0
ENDSEC
  0
SECTION
  2
ENTITIES
  0
INSERT
  5
98
330
1F
100
AcDbEntity
  8
0
100
AcDbBlockReference
  2
Drfsicht2
 10
-199.9999999999998
 20
-292.0736198147891
 30
0.0
  0
INSERT
  5
99
330
1F
100
AcDbEntity
  8
0
100
AcDbBlockReference
  2
Vordans1
 10
-199.9999999999998
 20
183.0000000003
 30
0.0
  0
ENDSEC
  0
SECTION
  2
OBJECTS
  0
DICTIONARY
  5
C
330
0
100
AcDbDictionary
281
     1
  3
ACAD_GROUP
350
D
  3
ACAD_LAYOUT
350
1A
  3
ACAD_MATERIAL
350
43
  3
ACAD_MLEADERSTYLE
350
6B
  3
ACAD_MLINESTYLE
350
17
  3
ACAD_PLOTSETTINGS
350
19
  3
ACAD_PLOTSTYLENAME
350
E
  3
ACAD_SCALELIST
350
47
  3
ACAD_TABLESTYLE
350
69
  3
ACAD_VISUALSTYLE
350
2A
  3
AcDbVariableDictionary
350
1E7
  0
DICTIONARY
  5
1EE
330
8
100
AcDbDictionary
280
     1
281
     1
  3
ACAD_XREC_ROUNDTRIP
360
1EF
  0
DICTIONARY
  5
D
102
{ACAD_REACTORS
330
C
102
}
330
C
100
AcDbDictionary
281
     1
  0
DICTIONARY
  5
1A
102
{ACAD_REACTORS
330
C
102
}
330
C
100
AcDbDictionary
281
     1
  3
Layout1
350
1E
  3
Layout2
350
26
  3
Model
350
22
  0
DICTIONARY
  5
43
102
{ACAD_REACTORS
330
C
102
}
330
C
100
AcDbDictionary
281
     1
  3
ByBlock
350
45
  3
ByLayer
350
44
  3
Global
350
46
  0
DICTIONARY
  5
6B
102
{ACAD_REACTORS
330
C
102
}
330
C
100
AcDbDictionary
281
     1
  3
Standard
350
6C
  0
DICTIONARY
  5
17
102
{ACAD_REACTORS
330
C
102
}
330
C
100
AcDbDictionary
281
     1
  3
Standard
350
18
  0
DICTIONARY
  5
19
102
{ACAD_REACTORS
330
C
102
}
330
C
100
AcDbDictionary
281
     1
  0
ACDBDICTIONARYWDFLT
  5
E
102
{ACAD_REACTORS
330
C
102
}
330
C
100
AcDbDictionary
281
     1
  3
Normal
350
F
100
AcDbDictionaryWithDefault
340
F
  0
DICTIONARY
  5
47
102
{ACAD_REACTORS
330
C
102
}
330
C
100
AcDbDictionary
281
     1
  3
A0
350
48
  3
A1
350
49
  3
A2
350
4A
  3
A3
350
4B
  3
A4
350
4C
  3
A5
350
4D
  3
A6
350
4E
  3
A7
350
4F
  3
A8
350
50
  3
A9
350
51
  3
B0
350
52
  3
B1
350
53
  3
B2
350
54
  3
B3
350
55
  3
B4
350
56
  3
B5
350
57
  3
B6
350
58
  3
B7
350
59
  3
B8
350
5A
  3
B9
350
5B
  3
C0
350
5C
  3
C1
350
5D
  3
C2
350
5E
  3
C3
350
5F
  3
C4
350
60
  3
C5
350
61
  3
C6
350
62
  3
C7
350
63
  3
C8
350
64
  3
C9
350
65
  3
D0
350
66
  3
D1
350
67
  3
D2
350
68
  0
DICTIONARY
  5
69
102
{ACAD_REACTORS
330
C
102
}
330
C
100
AcDbDictionary
281
     1
  3
Standard
350
6A
  0
DICTIONARY
  5
2A
102
{ACAD_REACTORS
330
C
102
}
330
C
100
AcDbDictionary
281
     1
  3
2dWireframe
350
2F
  3
Basic
350
32
  3
Brighten
350
36
  3
ColorChange
350
3A
  3
Conceptual
350
34
  3
Dim
350
35
  3
EdgeColorOff
350
3D
  3
Facepattern
350
39
  3
Flat
350
2B
  3
FlatWithEdges
350
2C
  3
Gouraud
350
2D
  3
GouraudWithEdges
350
2E
  3
Hidden
350
31
  3
JitterOff
350
3B
  3
Linepattern
350
38
  3
OverhangOff
350
3C
  3
Realistic
350
33
  3
Shaded
350
42
  3
Shaded with edges
350
41
  3
Shades of Gray
350
3E
  3
Sketchy
350
3F
  3
Thicken
350
37
  3
Wireframe
350
30
  3
X-Ray
350
40
  0
DICTIONARY
  5
1E7
102
{ACAD_REACTORS
330
C
102
}
330
C
100
AcDbDictionary
281
     1
  3
CANNOSCALE
350
1F0
  3
CMLEADERSTYLE
350
1E9
  3
CTABLESTYLE
350
1E8
  3
DIMASSOC
350
1EC
  3
HIDETEXT
350
1ED
  3
MSLTSCALE
350
1F1
  0
XRECORD
  5
1EF
102
{ACAD_REACTORS
330
1EE
102
}
330
1EE
100
AcDbXrecord
280
     1
102
VTR_0.000_0.000_1.000_1.000_GRIDDISPLAY
 70
     3
102
VTR_0.000_0.000_1.000_1.000_GRIDMAJOR
 70
     5
102
VTR_0.000_0.000_1.000_1.000_DEFAULTLIGHTING
280
     1
102
VTR_0.000_0.000_1.000_1.000_DEFAULTLIGHTINGTYPE
 70
     1
102
VTR_0.000_0.000_1.000_1.000_BRIGHTNESS
141
0.0
102
VTR_0.000_0.000_1.000_1.000_CONTRAST
142
0.0
  0
LAYOUT
  5
1E
102
{ACAD_REACTORS
330
1A
102
}
330
1A
100
AcDbPlotSettings
  1

  2
none_device
  4

  6

 40
0.0
 41
0.0
 42
0.0
 43
0.0
 44
0.0
 45
0.0
 46
0.0
 47
0.0
 48
0.0
 49
0.0
140
0.0
141
0.0
142
1.0
143
1.0
 70
   688
 72
     0
 73
     0
 74
     5
  7

 75
    16
147
1.0
148
0.0
149
0.0
100
AcDbLayout
  1
Layout1
 70
     1
 71
     1
 10
0.0
 20
0.0
 11
12.0
 21
9.0
 12
0.0
 22
0.0
 32
0.0
 14
1.00000000000000E+20
 24
1.00000000000000E+20
 34
1.00000000000000E+20
 15
-1.00000000000000E+20
 25
-1.00000000000000E+20
 35
-1.00000000000000E+20
146
0.0
 13
0.0
 23
0.0
 33
0.0
 16
1.0
 26
0.0
 36
0.0
 17
0.0
 27
1.0
 37
0.0
 76
     0
330
1B
  0
LAYOUT
  5
26
102
{ACAD_REACTORS
330
1A
102
}
330
1A
100
AcDbPlotSettings
  1

  2
none_device
  4

  6

 40
0.0
 41
0.0
 42
0.0
 43
0.0
 44
0.0
 45
0.0
 46
0.0
 47
0.0
 48
0.0
 49
0.0
140
0.0
141
0.0
142
1.0
143
1.0
 70
   688
 72
     0
 73
     0
 74
     5
  7

 75
    16
147
1.0
148
0.0
149
0.0
100
AcDbLayout
  1
Layout2
 70
     1
 71
     2
 10
0.0
 20
0.0
 11
0.0
 21
0.0
 12
0.0
 22
0.0
 32
0.0
 14
0.0
 24
0.0
 34
0.0
 15
0.0
 25
0.0
 35
0.0
146
0.0
 13
0.0
 23
0.0
 33
0.0
 16
1.0
 26
0.0
 36
0.0
 17
0.0
 27
1.0
 37
0.0
 76
     0
330
23
  0
LAYOUT
  5
22
102
{ACAD_REACTORS
330
1A
102
}
330
1A
100
AcDbPlotSettings
  1

  2
none_device
  4
Letter_(8.50_x_11.00_Inches)
  6

 40
6.35
 41
6.35
 42
6.35000508
 43
6.35000508
 44
215.9
 45
279.4
 46
0.0
 47
0.0
 48
0.0
 49
0.0
140
0.0
141
0.0
142
1.0
143
1.0
 70
  1712
 72
     0
 73
     0
 74
     0
  7

 75
     0
147
1.0
148
0.0
149
0.0
100
AcDbLayout
  1
Model
 70
     1
 71
     0
 10
0.0
 20
0.0
 11
12.0
 21
9.0
 12
0.0
 22
0.0
 32
0.0
 14
-379.317034767568
 24
-465.5736198147891
 34
0.0
 15
-35.00000344220485
 25
353.077237402388
 35
0.0
146
0.0
 13
0.0
 23
0.0
 33
0.0
 16
1.0
 26
0.0
 36
0.0
 17
0.0
 27
1.0
 37
0.0
 76
     0
330
1F
331
29
  0
MATERIAL
  5
45
102
{ACAD_REACTORS
330
43
102
}
102
{ACAD_XDICTIONARY
360
224
102
}
330
43
100
AcDbMaterial
  1
ByBlock
  0
MATERIAL
  5
44
102
{ACAD_REACTORS
330
43
102
}
102
{ACAD_XDICTIONARY
360
222
102
}
330
43
100
AcDbMaterial
  1
ByLayer
  0
MATERIAL
  5
46
102
{ACAD_REACTORS
330
43
102
}
102
{ACAD_XDICTIONARY
360
226
102
}
330
43
100
AcDbMaterial
  1
Global
  0
MLEADERSTYLE
  5
6C
102
{ACAD_REACTORS
330
6B
102
}
102
{ACAD_XDICTIONARY
360
229
102
}
330
6B
100
AcDbMLeaderStyle
170
     2
171
     1
172
     0
 90
        2
 40
0.0
 41
0.0
173
     1
 91
-1056964608
340
14
 92
       -2
290
     1
 42
0.09
291
     1
 43
0.36
  3
Standard
341
0
 44
0.18
300

342
11
174
     1
178
     6
175
     1
176
     0
 93
-1056964608
 45
0.18
292
     0
297
     0
 46
0.18
343
0
 94
-1056964608
 47
1.0
 49
1.0
140
1.0
293
     1
141
0.0
294
     1
177
     0
142
1.0
295
     0
296
     0
143
0.125
1001
ACAD_MLEADERVER
1070
     2
  0
MLINESTYLE
  5
18
102
{ACAD_REACTORS
330
17
102
}
330
17
100
AcDbMlineStyle
  2
Standard
 70
     0
  3

 62
   256
 51
90.0
 52
90.0
 71
     2
 49
0.5
 62
   256
  6
BYLAYER
 49
-0.5
 62
   256
  6
BYLAYER
  0
ACDBPLACEHOLDER
  5
F
102
{ACAD_REACTORS
330
E
102
}
330
E
  0
SCALE
  5
48
102
{ACAD_REACTORS
330
47
102
}
330
47
100
AcDbScale
 70
     0
300
1:1
140
1.0
141
1.0
290
     1
  0
SCALE
  5
49
102
{ACAD_REACTORS
330
47
102
}
330
47
100
AcDbScale
 70
     0
300
1:2
140
1.0
141
2.0
290
     0
  0
SCALE
  5
4A
102
{ACAD_REACTORS
330
47
102
}
330
47
100
AcDbScale
 70
     0
300
1:4
140
1.0
141
4.0
290
     0
  0
SCALE
  5
4B
102
{ACAD_REACTORS
330
47
102
}
330
47
100
AcDbScale
 70
     0
300
1:5
140
1.0
141
5.0
290
     0
  0
SCALE
  5
4C
102
{ACAD_REACTORS
330
47
102
}
330
47
100
AcDbScale
 70
     0
300
1:8
140
1.0
141
8.0
290
     0
  0
SCALE
  5
4D
102
{ACAD_REACTORS
330
47
102
}
330
47
100
AcDbScale
 70
     0
300
1:10
140
1.0
141
10.0
290
     0
  0
SCALE
  5
4E
102
{ACAD_REACTORS
330
47
102
}
330
47
100
AcDbScale
 70
     0
300
1:16
140
1.0
141
16.0
290
     0
  0
SCALE
  5
4F
102
{ACAD_REACTORS
330
47
102
}
330
47
100
AcDbScale
 70
     0
300
1:20
140
1.0
141
20.0
290
     0
  0
SCALE
  5
50
102
{ACAD_REACTORS
330
47
102
}
330
47
100
AcDbScale
 70
     0
300
1:30
140
1.0
141
30.0
290
     0
  0
SCALE
  5
51
102
{ACAD_REACTORS
330
47
102
}
330
47
100
AcDbScale
 70
     0
300
1:40
140
1.0
141
40.0
290
     0
  0
SCALE
  5
52
102
{ACAD_REACTORS
330
47
102
}
330
47
100
AcDbScale
 70
     0
300
1:50
140
1.0
141
50.0
290
     0
  0
SCALE
  5
53
102
{ACAD_REACTORS
330
47
102
}
330
47
100
AcDbScale
 70
     0
300
1:100
140
1.0
141
100.0
290
     0
  0
SCALE
  5
54
102
{ACAD_REACTORS
330
47
102
}
330
47
100
AcDbScale
 70
     0
300
2:1
140
2.0
141
1.0
290
     0
  0
SCALE
  5
55
102
{ACAD_REACTORS
330
47
102
}
330
47
100
AcDbScale
 70
     0
300
4:1
140
4.0
141
1.0
290
     0
  0
SCALE
  5
56
102
{ACAD_REACTORS
330
47
102
}
330
47
100
AcDbScale
 70
     0
300
8:1
140
8.0
141
1.0
290
     0
  0
SCALE
  5
57
102
{ACAD_REACTORS
330
47
102
}
330
47
100
AcDbScale
 70
     0
300
10:1
140
10.0
141
1.0
290
     0
  0
SCALE
  5
58
102
{ACAD_REACTORS
330
47
102
}
330
47
100
AcDbScale
 70
     0
300
100:1
140
100.0
141
1.0
290
     0
  0
SCALE
  5
59
102
{ACAD_REACTORS
330
47
102
}
330
47
100
AcDbScale
 70
     0
300
1/128" = 1'-0"
140
0.0078125
141
12.0
290
     0
  0
SCALE
  5
5A
102
{ACAD_REACTORS
330
47
102
}
330
47
100
AcDbScale
 70
     0
300
1/64" = 1'-0"
140
0.015625
141
12.0
290
     0
  0
SCALE
  5
5B
102
{ACAD_REACTORS
330
47
102
}
330
47
100
AcDbScale
 70
     0
300
1/32" = 1'-0"
140
0.03125
141
12.0
290
     0
  0
SCALE
  5
5C
102
{ACAD_REACTORS
330
47
102
}
330
47
100
AcDbScale
 70
     0
300
1/16" = 1'-0"
140
0.0625
141
12.0
290
     0
  0
SCALE
  5
5D
102
{ACAD_REACTORS
330
47
102
}
330
47
100
AcDbScale
 70
     0
300
3/32" = 1'-0"
140
0.09375
141
12.0
290
     0
  0
SCALE
  5
5E
102
{ACAD_REACTORS
330
47
102
}
330
47
100
AcDbScale
 70
     0
300
1/8" = 1'-0"
140
0.125
141
12.0
290
     0
  0
SCALE
  5
5F
102
{ACAD_REACTORS
330
47
102
}
330
47
100
AcDbScale
 70
     0
300
3/16" = 1'-0"
140
0.1875
141
12.0
290
     0
  0
SCALE
  5
60
102
{ACAD_REACTORS
330
47
102
}
330
47
100
AcDbScale
 70
     0
300
1/4" = 1'-0"
140
0.25
141
12.0
290
     0
  0
SCALE
  5
61
102
{ACAD_REACTORS
330
47
102
}
330
47
100
AcDbScale
 70
     0
300
3/8" = 1'-0"
140
0.375
141
12.0
290
     0
  0
SCALE
  5
62
102
{ACAD_REACTORS
330
47
102
}
330
47
100
AcDbScale
 70
     0
300
1/2" = 1'-0"
140
0.5
141
12.0
290
     0
  0
SCALE
  5
63
102
{ACAD_REACTORS
330
47
102
}
330
47
100
AcDbScale
 70
     0
300
3/4" = 1'-0"
140
0.75
141
12.0
290
     0
  0
SCALE
  5
64
102
{ACAD_REACTORS
330
47
102
}
330
47
100
AcDbScale
 70
     0
300
1" = 1'-0"
140
1.0
141
12.0
290
     0
  0
SCALE
  5
65
102
{ACAD_REACTORS
330
47
102
}
330
47
100
AcDbScale
 70
     0
300
1-1/2" = 1'-0"
140
1.5
141
12.0
290
     0
  0
SCALE
  5
66
102
{ACAD_REACTORS
330
47
102
}
330
47
100
AcDbScale
 70
     0
300
3" = 1'-0"
140
3.0
141
12.0
290
     0
  0
SCALE
  5
67
102
{ACAD_REACTORS
330
47
102
}
330
47
100
AcDbScale
 70
     0
300
6" = 1'-0"
140
6.0
141
12.0
290
     0
  0
SCALE
  5
68
102
{ACAD_REACTORS
330
47
102
}
330
47
100
AcDbScale
 70
     0
300
1'-0" = 1'-0"
140
12.0
141
12.0
290
     0
  0
TABLESTYLE
  5
6A
102
{ACAD_REACTORS
330
69
102
}
330
69
100
AcDbTableStyle
  3
Standard
 70
     0
 71
     0
 40
0.06
 41
0.06
280
     0
281
     0
  7
Standard
140
0.18
170
     2
 62
     0
 63
   257
283
     0
274
    -2
284
     1
 64
     0
275
    -2
285
     1
 65
     0
276
    -2
286
     1
 66
     0
277
    -2
287
     1
 67
     0
278
    -2
288
     1
 68
     0
279
    -2
289
     1
 69
     0
  7
Standard
140
0.25
170
     5
 62
     0
 63
   257
283
     0
274
    -2
284
     1
 64
     0
275
    -2
285
     1
 65
     0
276
    -2
286
     1
 66
     0
277
    -2
287
     1
 67
     0
278
    -2
288
     1
 68
     0
279
    -2
289
     1
 69
     0
  7
Standard
140
0.18
170
     5
 62
     0
 63
   257
283
     0
274
    -2
284
     1
 64
     0
275
    -2
285
     1
 65
     0
276
    -2
286
     1
 66
     0
277
    -2
287
     1
 67
     0
278
    -2
288
     1
 68
     0
279
    -2
289
     1
 69
     0
  0
VISUALSTYLE
  5
2F
102
{ACAD_REACTORS
330
2A
102
}
102
{ACAD_XDICTIONARY
360
1FA
102
}
330
2A
100
AcDbVisualStyle
  2
2dWireframe
 70
     4
 71
     0
 72
     2
 73
     0
 90
        0
 40
0.6
 41
30.0
 62
     5
 63
     7
 74
     1
 91
        4
 64
     7
 65
   257
 75
     1
175
     1
 42
1.0
 92
        0
 66
   257
 43
1.0
 76
     1
 77
     6
 78
     2
 67
     7
 79
     5
170
     0
171
     0
290
     0
174
     0
 93
        1
 44
0.0
173
     0
291
     0
 45
0.0
1001
ACAD
1000
AcDbSavedByObjectVersion
1070
     0
  0
VISUALSTYLE
  5
32
102
{ACAD_REACTORS
330
2A
102
}
102
{ACAD_XDICTIONARY
360
200
102
}
330
2A
100
AcDbVisualStyle
  2
Basic
 70
     7
 71
     1
 72
     0
 73
     1
 90
        0
 40
0.6
 41
30.0
 62
     5
 63
     7
 74
     0
 91
        4
 64
     7
 65
   257
 75
     1
175
     1
 42
1.0
 92
        8
 66
     7
 43
1.0
 76
     1
 77
     6
 78
     2
 67
     7
 79
     5
170
     0
171
     0
290
     0
174
     0
 93
        1
 44
0.0
173
     0
291
     1
 45
0.0
1001
ACAD
1000
AcDbSavedByObjectVersion
1070
     0
  0
VISUALSTYLE
  5
36
102
{ACAD_REACTORS
330
2A
102
}
102
{ACAD_XDICTIONARY
360
208
102
}
330
2A
100
AcDbVisualStyle
  2
Brighten
 70
    12
 71
     2
 72
     2
 73
     0
 90
        0
 40
0.6
 41
30.0
 62
     5
 63
     7
 74
     1
 91
        4
 64
     7
 65
   257
 75
     1
175
     1
 42
1.0
 92
        8
 66
     7
 43
1.0
 76
     1
 77
     6
 78
     2
 67
     7
 79
     5
170
     0
171
     0
290
     0
174
     0
 93
        1
 44
50.0
173
     0
291
     1
 45
0.0
1001
ACAD
1000
AcDbSavedByObjectVersion
1070
     0
  0
VISUALSTYLE
  5
3A
102
{ACAD_REACTORS
330
2A
102
}
102
{ACAD_XDICTIONARY
360
210
102
}
330
2A
100
AcDbVisualStyle
  2
ColorChange
 70
    16
 71
     2
 72
     2
 73
     3
 90
        0
 40
0.6
 41
30.0
 62
     5
 63
     8
 74
     1
 91
        4
 64
     7
 65
   257
 75
     1
175
     1
 42
1.0
 92
        8
 66
     8
 43
1.0
 76
     1
 77
     6
 78
     2
 67
     7
 79
     5
170
     0
171
     0
290
     0
174
     0
 93
        1
 44
0.0
173
     0
291
     1
 45
0.0
1001
ACAD
1000
AcDbSavedByObjectVersion
1070
     0
  0
VISUALSTYLE
  5
34
102
{ACAD_REACTORS
330
2A
102
}
102
{ACAD_XDICTIONARY
360
204
102
}
330
2A
100
AcDbVisualStyle
  2
Conceptual
 70
     9
 71
     3
 72
     2
 73
     0
 90
        0
 40
0.6
 41
30.0
 62
     5
 63
     7
 74
     2
 91
        2
 64
     7
 65
   257
 75
     1
175
     1
 42
179.0
 92
        8
 66
     7
 43
1.0
 76
     1
 77
     6
 78
     2
 67
     7
 79
     3
170
     0
171
     0
290
     0
174
     0
 93
        1
 44
0.0
173
     0
291
     0
 45
0.0
1001
ACAD
1000
AcDbSavedByObjectVersion
1070
     0
  0
VISUALSTYLE
  5
35
102
{ACAD_REACTORS
330
2A
102
}
102
{ACAD_XDICTIONARY
360
206
102
}
330
2A
100
AcDbVisualStyle
  2
Dim
 70
    11
 71
     2
 72
     2
 73
     0
 90
        0
 40
0.6
 41
30.0
 62
     5
 63
     7
 74
     1
 91
        4
 64
     7
 65
   257
 75
     1
175
     1
 42
1.0
 92
        8
 66
     7
 43
1.0
 76
     1
 77
     6
 78
     2
 67
     7
 79
     5
170
     0
171
     0
290
     0
174
     0
 93
        1
 44
-50.0
173
     0
291
     1
 45
0.0
1001
ACAD
1000
AcDbSavedByObjectVersion
1070
     0
  0
VISUALSTYLE
  5
3D
102
{ACAD_REACTORS
330
2A
102
}
102
{ACAD_XDICTIONARY
360
216
102
}
330
2A
100
AcDbVisualStyle
  2
EdgeColorOff
 70
    22
 71
     2
 72
     2
 73
     0
 90
        0
 40
0.6
 41
30.0
 62
     5
 63
     7
 74
     1
 91
        4
 64
     7
 65
   257
 75
     1
175
     1
 42
1.0
 92
        8
 66
     7
 43
1.0
 76
     1
 77
     6
 78
     2
 67
     7
 79
     5
170
     0
171
     0
290
     0
174
     0
 93
        1
 44
0.0
173
     0
291
     1
 45
0.0
1001
ACAD
1000
AcDbSavedByObjectVersion
1070
     0
  0
VISUALSTYLE
  5
39
102
{ACAD_REACTORS
330
2A
102
}
102
{ACAD_XDICTIONARY
360
20E
102
}
330
2A
100
AcDbVisualStyle
  2
Facepattern
 70
    15
 71
     2
 72
     2
 73
     0
 90
        0
 40
0.6
 41
30.0
 62
     5
 63
     7
 74
     1
 91
        4
 64
     7
 65
   257
 75
     1
175
     1
 42
1.0
 92
        8
 66
     7
 43
1.0
 76
     1
 77
     6
 78
     2
 67
     7
 79
     5
170
     0
171
     0
290
     0
174
     0
 93
        1
 44
0.0
173
     0
291
     1
 45
0.0
1001
ACAD
1000
AcDbSavedByObjectVersion
1070
     0
  0
VISUALSTYLE
  5
2B
102
{ACAD_REACTORS
330
2A
102
}
102
{ACAD_XDICTIONARY
360
1F2
102
}
330
2A
100
AcDbVisualStyle
  2
Flat
 70
     0
 71
     2
 72
     1
 73
     1
 90
        2
 40
0.6
 41
30.0
 62
     5
 63
     7
 74
     0
 91
        0
 64
     7
 65
   257
 75
     1
175
     1
 42
1.0
 92
        8
 66
     7
 43
1.0
 76
     1
 77
     6
 78
     2
 67
     7
 79
     5
170
     0
171
     0
290
     0
174
     0
 93
       13
 44
0.0
173
     0
291
     1
 45
0.0
1001
ACAD
1000
AcDbSavedByObjectVersion
1070
     0
  0
VISUALSTYLE
  5
2C
102
{ACAD_REACTORS
330
2A
102
}
102
{ACAD_XDICTIONARY
360
1F4
102
}
330
2A
100
AcDbVisualStyle
  2
FlatWithEdges
 70
     1
 71
     2
 72
     1
 73
     1
 90
        2
 40
0.6
 41
30.0
 62
     5
 63
     7
 74
     1
 91
        0
 64
     7
 65
   257
 75
     1
175
     1
 42
1.0
 92
        0
 66
   257
 43
1.0
 76
     1
 77
     6
 78
     2
 67
     7
 79
     5
170
     0
171
     0
290
     0
174
     0
 93
       13
 44
0.0
173
     0
291
     1
 45
0.0
1001
ACAD
1000
AcDbSavedByObjectVersion
1070
     0
  0
VISUALSTYLE
  5
2D
102
{ACAD_REACTORS
330
2A
102
}
102
{ACAD_XDICTIONARY
360
1F6
102
}
330
2A
100
AcDbVisualStyle
  2
Gouraud
 70
     2
 71
     2
 72
     2
 73
     1
 90
        2
 40
0.6
 41
30.0
 62
     5
 63
     7
 74
     0
 91
        0
 64
     7
 65
   257
 75
     1
175
     1
 42
1.0
 92
        0
 66
     7
 43
1.0
 76
     1
 77
     6
 78
     2
 67
     7
 79
     5
170
     0
171
     0
290
     0
174
     0
 93
       13
 44
0.0
173
     0
291
     1
 45
0.0
1001
ACAD
1000
AcDbSavedByObjectVersion
1070
     0
  0
VISUALSTYLE
  5
2E
102
{ACAD_REACTORS
330
2A
102
}
102
{ACAD_XDICTIONARY
360
1F8
102
}
330
2A
100
AcDbVisualStyle
  2
GouraudWithEdges
 70
     3
 71
     2
 72
     2
 73
     1
 90
        2
 40
0.6
 41
30.0
 62
     5
 63
     7
 74
     1
 91
        0
 64
     7
 65
   257
 75
     1
175
     1
 42
1.0
 92
        0
 66
   257
 43
1.0
 76
     1
 77
     6
 78
     2
 67
     7
 79
     5
170
     0
171
     0
290
     0
174
     0
 93
       13
 44
0.0
173
     0
291
     1
 45
0.0
1001
ACAD
1000
AcDbSavedByObjectVersion
1070
     0
  0
VISUALSTYLE
  5
31
102
{ACAD_REACTORS
330
2A
102
}
102
{ACAD_XDICTIONARY
360
1FE
102
}
330
2A
100
AcDbVisualStyle
  2
Hidden
 70
     6
 71
     1
 72
     2
 73
     2
 90
        0
 40
0.6
 41
30.0
 62
     5
 63
     7
 74
     2
 91
        2
 64
     7
 65
   257
 75
     2
175
     1
 42
40.0
 92
        0
 66
   257
 43
1.0
 76
     1
 77
     6
 78
     2
 67
     7
 79
     3
170
     0
171
     0
290
     0
174
     0
 93
        1
 44
0.0
173
     0
291
     0
 45
0.0
1001
ACAD
1000
AcDbSavedByObjectVersion
1070
     0
  0
VISUALSTYLE
  5
3B
102
{ACAD_REACTORS
330
2A
102
}
102
{ACAD_XDICTIONARY
360
212
102
}
330
2A
100
AcDbVisualStyle
  2
JitterOff
 70
    20
 71
     2
 72
     2
 73
     0
 90
        0
 40
0.6
 41
30.0
 62
     5
 63
     7
 74
     1
 91
        4
 64
     7
 65
   257
 75
     1
175
     1
 42
1.0
 92
       10
 66
     7
 43
1.0
 76
     1
 77
     6
 78
     2
 67
     7
 79
     5
170
     0
171
     0
290
     0
174
     0
 93
        1
 44
0.0
173
     0
291
     1
 45
0.0
1001
ACAD
1000
AcDbSavedByObjectVersion
1070
     0
  0
VISUALSTYLE
  5
38
102
{ACAD_REACTORS
330
2A
102
}
102
{ACAD_XDICTIONARY
360
20C
102
}
330
2A
100
AcDbVisualStyle
  2
Linepattern
 70
    14
 71
     2
 72
     2
 73
     0
 90
        0
 40
0.6
 41
30.0
 62
     5
 63
     7
 74
     1
 91
        4
 64
     7
 65
   257
 75
     7
175
     7
 42
1.0
 92
        8
 66
     7
 43
1.0
 76
     1
 77
     6
 78
     2
 67
     7
 79
     5
170
     0
171
     0
290
     0
174
     0
 93
        1
 44
0.0
173
     0
291
     1
 45
0.0
1001
ACAD
1000
AcDbSavedByObjectVersion
1070
     0
  0
VISUALSTYLE
  5
3C
102
{ACAD_REACTORS
330
2A
102
}
102
{ACAD_XDICTIONARY
360
214
102
}
330
2A
100
AcDbVisualStyle
  2
OverhangOff
 70
    21
 71
     2
 72
     2
 73
     0
 90
        0
 40
0.6
 41
30.0
 62
     5
 63
     7
 74
     1
 91
        4
 64
     7
 65
   257
 75
     1
175
     1
 42
1.0
 92
        9
 66
     7
 43
1.0
 76
     1
 77
     6
 78
     2
 67
     7
 79
     5
170
     0
171
     0
290
     0
174
     0
 93
        1
 44
0.0
173
     0
291
     1
 45
0.0
1001
ACAD
1000
AcDbSavedByObjectVersion
1070
     0
  0
VISUALSTYLE
  5
33
102
{ACAD_REACTORS
330
2A
102
}
102
{ACAD_XDICTIONARY
360
202
102
}
330
2A
100
AcDbVisualStyle
  2
Realistic
 70
     8
 71
     2
 72
     3
 73
     0
 90
        2
 40
0.6
 41
30.0
 62
     5
 63
     7
 74
     0
 91
        0
 64
     7
 65
   257
 75
     1
175
     1
 42
1.0
 92
        8
 66
   257
 43
1.0
 76
     1
 77
     6
 78
     2
 67
     7
 79
     3
170
     0
171
     0
290
     0
174
     0
 93
       13
 44
0.0
173
     0
291
     0
 45
0.0
1001
ACAD
1000
AcDbSavedByObjectVersion
1070
     0
  0
VISUALSTYLE
  5
42
102
{ACAD_REACTORS
330
2A
102
}
102
{ACAD_XDICTIONARY
360
220
102
}
330
2A
100
AcDbVisualStyle
  2
Shaded
 70
    27
 71
     2
 72
     2
 73
     1
 90
        2
 40
0.6
 41
30.0
 62
     5
 63
     7
 74
     0
 91
        4
 64
     7
 65
   257
 75
     1
175
     1
 42
1.0
 92
        8
 66
   257
 43
1.0
 76
     1
 77
     6
 78
     2
 67
     8
 79
     3
170
     0
171
     0
290
     0
174
     0
 93
        5
 44
0.0
173
     0
291
     0
 45
0.0
1001
ACAD
1000
AcDbSavedByObjectVersion
1070
     0
  0
VISUALSTYLE
  5
41
102
{ACAD_REACTORS
330
2A
102
}
102
{ACAD_XDICTIONARY
360
21E
102
}
330
2A
100
AcDbVisualStyle
  2
Shaded with edges
 70
    26
 71
     2
 72
     2
 73
     1
 90
        2
 40
0.6
 41
30.0
 62
     5
 63
     7
 74
     1
 91
       10
 64
     7
 65
   257
 75
     2
175
     1
 42
1.0
 92
        8
 66
   257
 43
1.0
 76
     1
 77
     6
 78
     2
 67
     7
 79
     3
170
     0
171
     0
290
     0
174
     0
 93
        5
 44
0.0
173
     0
291
     0
 45
0.0
1001
ACAD
1000
AcDbSavedByObjectVersion
1070
     0
  0
VISUALSTYLE
  5
3E
102
{ACAD_REACTORS
330
2A
102
}
102
{ACAD_XDICTIONARY
360
218
102
}
330
2A
100
AcDbVisualStyle
  2
Shades of Gray
 70
    23
 71
     2
 72
     2
 73
     3
 90
        0
 40
0.6
 41
30.0
 62
     5
 63
     7
 74
     2
 91
        2
 64
     7
 65
     7
 75
     1
175
     1
 42
40.0
 92
        8
 66
     7
 43
1.0
 76
     1
 77
     6
 78
     2
 67
     7
 79
     3
170
     0
171
     0
290
     0
174
     0
 93
        1
 44
0.0
173
     0
291
     0
 45
0.0
1001
ACAD
1000
AcDbSavedByObjectVersion
1070
     0
  0
VISUALSTYLE
  5
3F
102
{ACAD_REACTORS
330
2A
102
}
102
{ACAD_XDICTIONARY
360
21A
102
}
330
2A
100
AcDbVisualStyle
  2
Sketchy
 70
    24
 71
     1
 72
     2
 73
     2
 90
        0
 40
0.6
 41
30.0
 62
     5
 63
     7
 74
     2
 91
        2
 64
     7
 65
     7
 75
     1
175
     1
 42
40.0
 92
       11
 66
     7
 43
1.0
 76
     1
 77
     6
 78
     2
 67
     7
 79
     6
170
     0
171
     0
290
     0
174
     0
 93
        1
 44
0.0
173
     0
291
     0
 45
0.0
1001
ACAD
1000
AcDbSavedByObjectVersion
1070
     0
  0
VISUALSTYLE
  5
37
102
{ACAD_REACTORS
330
2A
102
}
102
{ACAD_XDICTIONARY
360
20A
102
}
330
2A
100
AcDbVisualStyle
  2
Thicken
 70
    13
 71
     2
 72
     2
 73
     0
 90
        0
 40
0.6
 41
30.0
 62
     5
 63
     7
 74
     1
 91
        4
 64
     7
 65
   257
 75
     1
175
     1
 42
1.0
 92
       12
 66
     7
 43
1.0
 76
     1
 77
     6
 78
     2
 67
     7
 79
     5
170
     0
171
     0
290
     0
174
     0
 93
        1
 44
0.0
173
     0
291
     1
 45
0.0
1001
ACAD
1000
AcDbSavedByObjectVersion
1070
     0
  0
VISUALSTYLE
  5
30
102
{ACAD_REACTORS
330
2A
102
}
102
{ACAD_XDICTIONARY
360
1FC
102
}
330
2A
100
AcDbVisualStyle
  2
Wireframe
 70
     5
 71
     0
 72
     2
 73
     0
 90
        0
 40
0.6
 41
30.0
 62
     5
 63
     7
 74
     1
 91
        4
 64
     7
 65
   257
 75
     1
175
     1
 42
1.0
 92
        0
 66
   257
 43
1.0
 76
     1
 77
     6
 78
     2
 67
     7
 79
     3
170
     0
171
     0
290
     0
174
     0
 93
        1
 44
0.0
173
     0
291
     0
 45
0.0
1001
ACAD
1000
AcDbSavedByObjectVersion
1070
     0
  0
VISUALSTYLE
  5
40
102
{ACAD_REACTORS
330
2A
102
}
102
{ACAD_XDICTIONARY
360
21C
102
}
330
2A
100
AcDbVisualStyle
  2
X-Ray
 70
    25
 71
     2
 72
     2
 73
     1
 90
        1
 40
0.5
 41
30.0
 62
     5
 63
     7
 74
     1
 91
        0
 64
     7
 65
   257
 75
     1
175
     1
 42
1.0
 92
        8
 66
     7
 43
1.0
 76
     1
 77
     6
 78
     2
 67
     7
 79
     3
170
     0
171
     0
290
     0
174
     0
 93
       13
 44
0.0
173
     0
291
     0
 45
0.0
1001
ACAD
1000
AcDbSavedByObjectVersion
1070
     0
  0
DICTIONARYVAR
  5
1F0
102
{ACAD_REACTORS
330
1E7
102
}
330
1E7
100
DictionaryVariables
280
     0
  1
1:1
  0
DICTIONARYVAR
  5
1E9
102
{ACAD_REACTORS
330
1E7
102
}
330
1E7
100
DictionaryVariables
280
     0
  1
Standard
  0
DICTIONARYVAR
  5
1E8
102
{ACAD_REACTORS
330
1E7
102
}
330
1E7
100
DictionaryVariables
280
     0
  1
Standard
  0
DICTIONARYVAR
  5
1EC
102
{ACAD_REACTORS
330
1E7
102
}
330
1E7
100
DictionaryVariables
280
     0
  1
2
  0
DICTIONARYVAR
  5
1ED
102
{ACAD_REACTORS
330
1E7
102
}
330
1E7
100
DictionaryVariables
280
     0
  1
1
  0
DICTIONARYVAR
  5
1F1
102
{ACAD_REACTORS
330
1E7
102
}
330
1E7
100
DictionaryVariables
280
     0
  1
1
  0
DICTIONARY
  5
224
330
45
100
AcDbDictionary
280
     1
281
     1
  3
ACAD_XREC_ROUNDTRIP
360
225
  0
DICTIONARY
  5
222
330
44
100
AcDbDictionary
280
     1
281
     1
  3
ACAD_XREC_ROUNDTRIP
360
223
  0
DICTIONARY
  5
226
330
46
100
AcDbDictionary
280
     1
281
     1
  3
ACAD_XREC_ROUNDTRIP
360
227
  0
DICTIONARY
  5
229
330
6C
100
AcDbDictionary
280
     1
281
     1
  3
ACAD_XREC_ROUNDTRIP
360
22A
  0
DICTIONARY
  5
1FA
330
2F
100
AcDbDictionary
280
     1
281
     1
  3
ACAD_XREC_ROUNDTRIP
360
1FB
  0
DICTIONARY
  5
200
330
32
100
AcDbDictionary
280
     1
281
     1
  3
ACAD_XREC_ROUNDTRIP
360
201
  0
DICTIONARY
  5
208
330
36
100
AcDbDictionary
280
     1
281
     1
  3
ACAD_XREC_ROUNDTRIP
360
209
  0
DICTIONARY
  5
210
330
3A
100
AcDbDictionary
280
     1
281
     1
  3
ACAD_XREC_ROUNDTRIP
360
211
  0
DICTIONARY
  5
204
330
34
100
AcDbDictionary
280
     1
281
     1
  3
ACAD_XREC_ROUNDTRIP
360
205
  0
DICTIONARY
  5
206
330
35
100
AcDbDictionary
280
     1
281
     1
  3
ACAD_XREC_ROUNDTRIP
360
207
  0
DICTIONARY
  5
216
330
3D
100
AcDbDictionary
280
     1
281
     1
  3
ACAD_XREC_ROUNDTRIP
360
217
  0
DICTIONARY
  5
20E
330
39
100
AcDbDictionary
280
     1
281
     1
  3
ACAD_XREC_ROUNDTRIP
360
20F
  0
DICTIONARY
  5
1F2
330
2B
100
AcDbDictionary
280
     1
281
     1
  3
ACAD_XREC_ROUNDTRIP
360
1F3
  0
DICTIONARY
  5
1F4
330
2C
100
AcDbDictionary
280
     1
281
     1
  3
ACAD_XREC_ROUNDTRIP
360
1F5
  0
DICTIONARY
  5
1F6
330
2D
100
AcDbDictionary
280
     1
281
     1
  3
ACAD_XREC_ROUNDTRIP
360
1F7
  0
DICTIONARY
  5
1F8
330
2E
100
AcDbDictionary
280
     1
281
     1
  3
ACAD_XREC_ROUNDTRIP
360
1F9
  0
DICTIONARY
  5
1FE
330
31
100
AcDbDictionary
280
     1
281
     1
  3
ACAD_XREC_ROUNDTRIP
360
1FF
  0
DICTIONARY
  5
212
330
3B
100
AcDbDictionary
280
     1
281
     1
  3
ACAD_XREC_ROUNDTRIP
360
213
  0
DICTIONARY
  5
20C
330
38
100
AcDbDictionary
280
     1
281
     1
  3
ACAD_XREC_ROUNDTRIP
360
20D
  0
DICTIONARY
  5
214
330
3C
100
AcDbDictionary
280
     1
281
     1
  3
ACAD_XREC_ROUNDTRIP
360
215
  0
DICTIONARY
  5
202
330
33
100
AcDbDictionary
280
     1
281
     1
  3
ACAD_XREC_ROUNDTRIP
360
203
  0
DICTIONARY
  5
220
330
42
100
AcDbDictionary
280
     1
281
     1
  3
ACAD_XREC_ROUNDTRIP
360
221
  0
DICTIONARY
  5
21E
330
41
100
AcDbDictionary
280
     1
281
     1
  3
ACAD_XREC_ROUNDTRIP
360
21F
  0
DICTIONARY
  5
218
330
3E
100
AcDbDictionary
280
     1
281
     1
  3
ACAD_XREC_ROUNDTRIP
360
219
  0
DICTIONARY
  5
21A
330
3F
100
AcDbDictionary
280
     1
281
     1
  3
ACAD_XREC_ROUNDTRIP
360
21B
  0
DICTIONARY
  5
20A
330
37
100
AcDbDictionary
280
     1
281
     1
  3
ACAD_XREC_ROUNDTRIP
360
20B
  0
DICTIONARY
  5
1FC
330
30
100
AcDbDictionary
280
     1
281
     1
  3
ACAD_XREC_ROUNDTRIP
360
1FD
  0
DICTIONARY
  5
21C
330
40
100
AcDbDictionary
280
     1
281
     1
  3
ACAD_XREC_ROUNDTRIP
360
21D
  0
XRECORD
  5
225
102
{ACAD_REACTORS
330
224
102
}
330
224
100
AcDbXrecord
280
     1
102
MATERIAL
148
0.0
149
0.0
149
0.0
 93
        0
 94
      127
282
     0
 72
     1
 77
     1
171
     1
175
     1
179
     1
273
     0
  0
XRECORD
  5
223
102
{ACAD_REACTORS
330
222
102
}
330
222
100
AcDbXrecord
280
     1
102
MATERIAL
148
0.0
149
0.0
149
0.0
 93
        0
 94
      127
282
     0
 72
     1
 77
     1
171
     1
175
     1
179
     1
273
     0
  0
XRECORD
  5
227
102
{ACAD_REACTORS
330
226
102
}
330
226
100
AcDbXrecord
280
     1
102
MATERIAL
148
0.0
149
0.0
149
0.0
 93
        0
 94
      127
282
     0
 72
     1
 77
     1
171
     1
175
     1
179
     1
273
     0
  0
XRECORD
  5
22A
102
{ACAD_REACTORS
330
229
102
}
330
229
100
AcDbXrecord
280
     1
102
ACAD_ROUNDTRIP_2010_MLEADER_STYLE
  0
XRECORD
  5
1FB
102
{ACAD_REACTORS
330
1FA
102
}
330
1FA
100
AcDbXrecord
280
     1
102
RTVSPropertyOp0
 70
     1
102
RTVSPropertyOp1
 70
     1
102
RTVSPropertyOp2
 70
     1
102
RTVSPropertyOp3
 70
     1
102
RTVSPropertyOp4
 70
     1
102
RTVSPropertyOp5
 70
     1
102
RTVSPropertyOp6
 70
     1
102
RTVSPropertyOp7
 70
     1
102
RTVSPropertyOp8
 70
     1
102
RTVSPropertyOp9
 70
     1
102
RTVSPropertyOp10
 70
     1
102
RTVSPropertyOp11
 70
     1
102
RTVSPropertyOp12
 70
     1
102
RTVSPropertyOp13
 70
     1
102
RTVSPropertyOp14
 70
     1
102
RTVSPropertyOp15
 70
     1
102
RTVSPropertyOp16
 70
     1
102
RTVSPropertyOp17
 70
     1
102
RTVSPropertyOp18
 70
     1
102
RTVSPropertyOp19
 70
     1
102
RTVSPropertyOp20
 70
     1
102
RTVSPropertyOp21
 70
     1
102
RTVSPropertyOp22
 70
     1
102
RTVSPropertyOp23
 70
     1
102
RTVSPropertyOp24
 70
     1
102
RTVSPropertyOp25
 70
     1
102
RTVSPropertyOp26
 70
     1
102
RTVSPropertyOp27
 70
     1
102
RTVSPropertyOp28
 70
     1
102
RTVSPropertyOp29
 70
     1
102
RTVSPropertyOp30
 70
     1
102
RTVSPropertyOp31
 70
     1
102
RTVSPropertyOp32
 70
     1
102
RTVSPropertyOp33
 70
     1
102
RTVSPropertyOp34
 70
     1
102
RTVSPropertyOp35
 70
     1
102
RTVSPropertyOp36
 70
     1
102
RTVSPropertyOp37
 70
     1
102
RTVSPropertyOp38
 70
     1
102
RTVSPropertyOp39
 70
     1
102
RTVSPropertyOp40
 70
     1
102
RTVSPropertyOp41
 70
     1
102
RTVSPropertyOp42
 70
     1
102
RTVSPropertyOp43
 70
     1
102
RTVSPropertyOp44
 70
     1
102
RTVSPropertyOp45
 70
     1
102
RTVSPropertyOp46
 70
     1
102
RTVSPropertyOp47
 70
     1
102
RTVSPropertyOp48
 70
     1
102
RTVSPropertyOp49
 70
     1
102
RTVSPropertyOp50
 70
     1
102
RTVSPropertyOp51
 70
     0
102
RTVSPropertyOp52
 70
     0
102
RTVSPropertyOp53
 70
     1
102
RTVSPropertyOp54
 70
     1
102
RTVSPropertyOp55
 70
     1
102
RTVSPropertyOp56
 70
     1
102
RTVSPropertyOp57
 70
     1
102
RTVSPost2010Prop28
280
     1
102
RTVSPost2010PropOp28
 70
     1
102
RTVSPost2010Prop29
280
     1
102
RTVSPost2010PropOp29
 70
     1
102
RTVSPost2010Prop30
280
     0
102
RTVSPost2010PropOp30
 70
     1
102
RTVSPost2010Prop31
280
     0
102
RTVSPost2010PropOp31
 70
     1
102
RTVSPost2010Prop32
280
     0
102
RTVSPost2010PropOp32
 70
     1
102
RTVSPost2010Prop33
280
     0
102
RTVSPost2010PropOp33
 70
     1
102
RTVSPost2010Prop34
280
     0
102
RTVSPost2010PropOp34
 70
     1
102
RTVSPost2010Prop35
280
     0
102
RTVSPost2010PropOp35
 70
     1
102
RTVSPost2010Prop36
280
     0
102
RTVSPost2010PropOp36
 70
     1
102
RTVSPost2010Prop37
 90
       50
102
RTVSPost2010PropOp37
 70
     1
102
RTVSPost2010Prop38
140
0.0
102
RTVSPost2010PropOp38
 70
     1
102
RTVSPost2010Prop39
140
1.0
102
RTVSPost2010PropOp39
 70
     1
102
RTVSPost2010Prop40
 90
        0
102
RTVSPost2010PropOp40
 70
     1
102
RTVSPost2010Prop41ColorIndex
 90
       18
102
RTVSPost2010Prop41ColorRGB
 90
        0
102
RTVSPost2010PropOp41
 70
     1
102
RTVSPost2010Prop42
 90
       50
102
RTVSPost2010PropOp42
 70
     1
102
RTVSPost2010Prop43
 90
        3
102
RTVSPost2010PropOp43
 70
     1
102
RTVSPost2010Prop44ColorIndex
 90
        5
102
RTVSPost2010Prop44ColorRGB
 90
      255
102
RTVSPost2010PropOp44
 70
     1
102
RTVSPost2010Prop45
280
     0
102
RTVSPost2010PropOp45
 70
     1
102
RTVSPost2010Prop46
 90
       50
102
RTVSPost2010PropOp46
 70
     1
102
RTVSPost2010Prop47
 90
       50
102
RTVSPost2010PropOp47
 70
     1
102
RTVSPost2010Prop48
 90
       50
102
RTVSPost2010PropOp48
 70
     1
102
RTVSPost2010Prop49
280
     0
102
RTVSPost2010PropOp49
 70
     1
102
RTVSPost2010Prop50
 90
       50
102
RTVSPost2010PropOp50
 70
     1
102
RTVSPost2010Prop51ColorIndex
 90
      256
102
RTVSPost2010Prop51ColorRGB
 90
-16777216
102
RTVSPost2010PropOp51
 70
     0
102
RTVSPost2010Prop52
140
1.0
102
RTVSPost2010PropOp52
 70
     0
102
RTVSPost2010Prop53
 90
        2
102
RTVSPost2010PropOp53
 70
     1
102
RTVSPost2010Prop54
  1
strokes_ogs.tif
102
RTVSPost2010PropOp54
 70
     1
102
RTVSPost2010Prop55
280
     0
102
RTVSPost2010PropOp55
 70
     1
102
RTVSPost2010Prop56
140
1.0
102
RTVSPost2010PropOp56
 70
     1
102
RTVSPost2010Prop57
140
1.0
102
RTVSPost2010PropOp57
 70
     1
  0
XRECORD
  5
201
102
{ACAD_REACTORS
330
200
102
}
330
200
100
AcDbXrecord
280
     1
102
RTVSPropertyOp0
 70
     1
102
RTVSPropertyOp1
 70
     1
102
RTVSPropertyOp2
 70
     1
102
RTVSPropertyOp3
 70
     1
102
RTVSPropertyOp4
 70
     1
102
RTVSPropertyOp5
 70
     1
102
RTVSPropertyOp6
 70
     1
102
RTVSPropertyOp7
 70
     1
102
RTVSPropertyOp8
 70
     1
102
RTVSPropertyOp9
 70
     1
102
RTVSPropertyOp10
 70
     1
102
RTVSPropertyOp11
 70
     1
102
RTVSPropertyOp12
 70
     1
102
RTVSPropertyOp13
 70
     1
102
RTVSPropertyOp14
 70
     1
102
RTVSPropertyOp15
 70
     1
102
RTVSPropertyOp16
 70
     1
102
RTVSPropertyOp17
 70
     1
102
RTVSPropertyOp18
 70
     1
102
RTVSPropertyOp19
 70
     1
102
RTVSPropertyOp20
 70
     1
102
RTVSPropertyOp21
 70
     1
102
RTVSPropertyOp22
 70
     1
102
RTVSPropertyOp23
 70
     1
102
RTVSPropertyOp24
 70
     1
102
RTVSPropertyOp25
 70
     1
102
RTVSPropertyOp26
 70
     1
102
RTVSPropertyOp27
 70
     1
102
RTVSPropertyOp28
 70
     1
102
RTVSPropertyOp29
 70
     1
102
RTVSPropertyOp30
 70
     1
102
RTVSPropertyOp31
 70
     1
102
RTVSPropertyOp32
 70
     1
102
RTVSPropertyOp33
 70
     1
102
RTVSPropertyOp34
 70
     1
102
RTVSPropertyOp35
 70
     1
102
RTVSPropertyOp36
 70
     1
102
RTVSPropertyOp37
 70
     1
102
RTVSPropertyOp38
 70
     1
102
RTVSPropertyOp39
 70
     1
102
RTVSPropertyOp40
 70
     1
102
RTVSPropertyOp41
 70
     1
102
RTVSPropertyOp42
 70
     1
102
RTVSPropertyOp43
 70
     1
102
RTVSPropertyOp44
 70
     1
102
RTVSPropertyOp45
 70
     1
102
RTVSPropertyOp46
 70
     1
102
RTVSPropertyOp47
 70
     1
102
RTVSPropertyOp48
 70
     1
102
RTVSPropertyOp49
 70
     1
102
RTVSPropertyOp50
 70
     1
102
RTVSPropertyOp51
 70
     0
102
RTVSPropertyOp52
 70
     0
102
RTVSPropertyOp53
 70
     1
102
RTVSPropertyOp54
 70
     1
102
RTVSPropertyOp55
 70
     1
102
RTVSPropertyOp56
 70
     1
102
RTVSPropertyOp57
 70
     1
102
RTVSPost2010Prop28
280
     0
102
RTVSPost2010PropOp28
 70
     1
102
RTVSPost2010Prop29
280
     1
102
RTVSPost2010PropOp29
 70
     1
102
RTVSPost2010Prop30
280
     1
102
RTVSPost2010PropOp30
 70
     1
102
RTVSPost2010Prop31
280
     0
102
RTVSPost2010PropOp31
 70
     1
102
RTVSPost2010Prop32
280
     0
102
RTVSPost2010PropOp32
 70
     1
102
RTVSPost2010Prop33
280
     0
102
RTVSPost2010PropOp33
 70
     1
102
RTVSPost2010Prop34
280
     0
102
RTVSPost2010PropOp34
 70
     1
102
RTVSPost2010Prop35
280
     0
102
RTVSPost2010PropOp35
 70
     1
102
RTVSPost2010Prop36
280
     0
102
RTVSPost2010PropOp36
 70
     1
102
RTVSPost2010Prop37
 90
       50
102
RTVSPost2010PropOp37
 70
     1
102
RTVSPost2010Prop38
140
0.0
102
RTVSPost2010PropOp38
 70
     1
102
RTVSPost2010Prop39
140
1.0
102
RTVSPost2010PropOp39
 70
     1
102
RTVSPost2010Prop40
 90
        0
102
RTVSPost2010PropOp40
 70
     1
102
RTVSPost2010Prop41ColorIndex
 90
       18
102
RTVSPost2010Prop41ColorRGB
 90
        0
102
RTVSPost2010PropOp41
 70
     1
102
RTVSPost2010Prop42
 90
       50
102
RTVSPost2010PropOp42
 70
     1
102
RTVSPost2010Prop43
 90
        3
102
RTVSPost2010PropOp43
 70
     1
102
RTVSPost2010Prop44ColorIndex
 90
        5
102
RTVSPost2010Prop44ColorRGB
 90
      255
102
RTVSPost2010PropOp44
 70
     1
102
RTVSPost2010Prop45
280
     0
102
RTVSPost2010PropOp45
 70
     1
102
RTVSPost2010Prop46
 90
       50
102
RTVSPost2010PropOp46
 70
     1
102
RTVSPost2010Prop47
 90
       50
102
RTVSPost2010PropOp47
 70
     1
102
RTVSPost2010Prop48
 90
       50
102
RTVSPost2010PropOp48
 70
     1
102
RTVSPost2010Prop49
280
     0
102
RTVSPost2010PropOp49
 70
     1
102
RTVSPost2010Prop50
 90
       50
102
RTVSPost2010PropOp50
 70
     1
102
RTVSPost2010Prop51ColorIndex
 90
      256
102
RTVSPost2010Prop51ColorRGB
 90
-16777216
102
RTVSPost2010PropOp51
 70
     0
102
RTVSPost2010Prop52
140
1.0
102
RTVSPost2010PropOp52
 70
     0
102
RTVSPost2010Prop53
 90
        2
102
RTVSPost2010PropOp53
 70
     1
102
RTVSPost2010Prop54
  1
strokes_ogs.tif
102
RTVSPost2010PropOp54
 70
     1
102
RTVSPost2010Prop55
280
     0
102
RTVSPost2010PropOp55
 70
     1
102
RTVSPost2010Prop56
140
1.0
102
RTVSPost2010PropOp56
 70
     1
102
RTVSPost2010Prop57
140
1.0
102
RTVSPost2010PropOp57
 70
     1
  0
XRECORD
  5
209
102
{ACAD_REACTORS
330
208
102
}
330
208
100
AcDbXrecord
280
     1
102
RTVSPropertyOp0
 70
     1
102
RTVSPropertyOp1
 70
     1
102
RTVSPropertyOp2
 70
     1
102
RTVSPropertyOp3
 70
     1
102
RTVSPropertyOp4
 70
     1
102
RTVSPropertyOp5
 70
     1
102
RTVSPropertyOp6
 70
     1
102
RTVSPropertyOp7
 70
     1
102
RTVSPropertyOp8
 70
     1
102
RTVSPropertyOp9
 70
     1
102
RTVSPropertyOp10
 70
     1
102
RTVSPropertyOp11
 70
     1
102
RTVSPropertyOp12
 70
     1
102
RTVSPropertyOp13
 70
     1
102
RTVSPropertyOp14
 70
     1
102
RTVSPropertyOp15
 70
     1
102
RTVSPropertyOp16
 70
     1
102
RTVSPropertyOp17
 70
     1
102
RTVSPropertyOp18
 70
     1
102
RTVSPropertyOp19
 70
     1
102
RTVSPropertyOp20
 70
     1
102
RTVSPropertyOp21
 70
     1
102
RTVSPropertyOp22
 70
     1
102
RTVSPropertyOp23
 70
     1
102
RTVSPropertyOp24
 70
     1
102
RTVSPropertyOp25
 70
     1
102
RTVSPropertyOp26
 70
     1
102
RTVSPropertyOp27
 70
     1
102
RTVSPropertyOp28
 70
     1
102
RTVSPropertyOp29
 70
     1
102
RTVSPropertyOp30
 70
     1
102
RTVSPropertyOp31
 70
     1
102
RTVSPropertyOp32
 70
     1
102
RTVSPropertyOp33
 70
     1
102
RTVSPropertyOp34
 70
     1
102
RTVSPropertyOp35
 70
     1
102
RTVSPropertyOp36
 70
     1
102
RTVSPropertyOp37
 70
     1
102
RTVSPropertyOp38
 70
     1
102
RTVSPropertyOp39
 70
     1
102
RTVSPropertyOp40
 70
     1
102
RTVSPropertyOp41
 70
     1
102
RTVSPropertyOp42
 70
     1
102
RTVSPropertyOp43
 70
     1
102
RTVSPropertyOp44
 70
     1
102
RTVSPropertyOp45
 70
     1
102
RTVSPropertyOp46
 70
     1
102
RTVSPropertyOp47
 70
     1
102
RTVSPropertyOp48
 70
     1
102
RTVSPropertyOp49
 70
     1
102
RTVSPropertyOp50
 70
     1
102
RTVSPropertyOp51
 70
     0
102
RTVSPropertyOp52
 70
     0
102
RTVSPropertyOp53
 70
     1
102
RTVSPropertyOp54
 70
     1
102
RTVSPropertyOp55
 70
     1
102
RTVSPropertyOp56
 70
     1
102
RTVSPropertyOp57
 70
     1
102
RTVSPost2010Prop28
280
     0
102
RTVSPost2010PropOp28
 70
     1
102
RTVSPost2010Prop29
280
     1
102
RTVSPost2010PropOp29
 70
     1
102
RTVSPost2010Prop30
280
     1
102
RTVSPost2010PropOp30
 70
     1
102
RTVSPost2010Prop31
280
     0
102
RTVSPost2010PropOp31
 70
     1
102
RTVSPost2010Prop32
280
     0
102
RTVSPost2010PropOp32
 70
     1
102
RTVSPost2010Prop33
280
     0
102
RTVSPost2010PropOp33
 70
     1
102
RTVSPost2010Prop34
280
     0
102
RTVSPost2010PropOp34
 70
     1
102
RTVSPost2010Prop35
280
     0
102
RTVSPost2010PropOp35
 70
     1
102
RTVSPost2010Prop36
280
     0
102
RTVSPost2010PropOp36
 70
     1
102
RTVSPost2010Prop37
 90
       50
102
RTVSPost2010PropOp37
 70
     1
102
RTVSPost2010Prop38
140
0.0
102
RTVSPost2010PropOp38
 70
     1
102
RTVSPost2010Prop39
140
1.0
102
RTVSPost2010PropOp39
 70
     1
102
RTVSPost2010Prop40
 90
        0
102
RTVSPost2010PropOp40
 70
     1
102
RTVSPost2010Prop41ColorIndex
 90
       18
102
RTVSPost2010Prop41ColorRGB
 90
        0
102
RTVSPost2010PropOp41
 70
     1
102
RTVSPost2010Prop42
 90
       50
102
RTVSPost2010PropOp42
 70
     1
102
RTVSPost2010Prop43
 90
        3
102
RTVSPost2010PropOp43
 70
     1
102
RTVSPost2010Prop44ColorIndex
 90
        5
102
RTVSPost2010Prop44ColorRGB
 90
      255
102
RTVSPost2010PropOp44
 70
     1
102
RTVSPost2010Prop45
280
     0
102
RTVSPost2010PropOp45
 70
     1
102
RTVSPost2010Prop46
 90
       50
102
RTVSPost2010PropOp46
 70
     1
102
RTVSPost2010Prop47
 90
       50
102
RTVSPost2010PropOp47
 70
     1
102
RTVSPost2010Prop48
 90
       50
102
RTVSPost2010PropOp48
 70
     1
102
RTVSPost2010Prop49
280
     0
102
RTVSPost2010PropOp49
 70
     1
102
RTVSPost2010Prop50
 90
       50
102
RTVSPost2010PropOp50
 70
     1
102
RTVSPost2010Prop51ColorIndex
 90
      256
102
RTVSPost2010Prop51ColorRGB
 90
-16777216
102
RTVSPost2010PropOp51
 70
     0
102
RTVSPost2010Prop52
140
1.0
102
RTVSPost2010PropOp52
 70
     0
102
RTVSPost2010Prop53
 90
        2
102
RTVSPost2010PropOp53
 70
     1
102
RTVSPost2010Prop54
  1
strokes_ogs.tif
102
RTVSPost2010PropOp54
 70
     1
102
RTVSPost2010Prop55
280
     0
102
RTVSPost2010PropOp55
 70
     1
102
RTVSPost2010Prop56
140
1.0
102
RTVSPost2010PropOp56
 70
     1
102
RTVSPost2010Prop57
140
1.0
102
RTVSPost2010PropOp57
 70
     1
  0
XRECORD
  5
211
102
{ACAD_REACTORS
330
210
102
}
330
210
100
AcDbXrecord
280
     1
102
RTVSPropertyOp0
 70
     1
102
RTVSPropertyOp1
 70
     1
102
RTVSPropertyOp2
 70
     1
102
RTVSPropertyOp3
 70
     1
102
RTVSPropertyOp4
 70
     1
102
RTVSPropertyOp5
 70
     1
102
RTVSPropertyOp6
 70
     1
102
RTVSPropertyOp7
 70
     1
102
RTVSPropertyOp8
 70
     1
102
RTVSPropertyOp9
 70
     1
102
RTVSPropertyOp10
 70
     1
102
RTVSPropertyOp11
 70
     1
102
RTVSPropertyOp12
 70
     1
102
RTVSPropertyOp13
 70
     1
102
RTVSPropertyOp14
 70
     1
102
RTVSPropertyOp15
 70
     1
102
RTVSPropertyOp16
 70
     1
102
RTVSPropertyOp17
 70
     1
102
RTVSPropertyOp18
 70
     1
102
RTVSPropertyOp19
 70
     1
102
RTVSPropertyOp20
 70
     1
102
RTVSPropertyOp21
 70
     1
102
RTVSPropertyOp22
 70
     1
102
RTVSPropertyOp23
 70
     1
102
RTVSPropertyOp24
 70
     1
102
RTVSPropertyOp25
 70
     1
102
RTVSPropertyOp26
 70
     1
102
RTVSPropertyOp27
 70
     1
102
RTVSPropertyOp28
 70
     1
102
RTVSPropertyOp29
 70
     1
102
RTVSPropertyOp30
 70
     1
102
RTVSPropertyOp31
 70
     1
102
RTVSPropertyOp32
 70
     1
102
RTVSPropertyOp33
 70
     1
102
RTVSPropertyOp34
 70
     1
102
RTVSPropertyOp35
 70
     1
102
RTVSPropertyOp36
 70
     1
102
RTVSPropertyOp37
 70
     1
102
RTVSPropertyOp38
 70
     1
102
RTVSPropertyOp39
 70
     1
102
RTVSPropertyOp40
 70
     1
102
RTVSPropertyOp41
 70
     1
102
RTVSPropertyOp42
 70
     1
102
RTVSPropertyOp43
 70
     1
102
RTVSPropertyOp44
 70
     1
102
RTVSPropertyOp45
 70
     1
102
RTVSPropertyOp46
 70
     1
102
RTVSPropertyOp47
 70
     1
102
RTVSPropertyOp48
 70
     1
102
RTVSPropertyOp49
 70
     1
102
RTVSPropertyOp50
 70
     1
102
RTVSPropertyOp51
 70
     0
102
RTVSPropertyOp52
 70
     0
102
RTVSPropertyOp53
 70
     1
102
RTVSPropertyOp54
 70
     1
102
RTVSPropertyOp55
 70
     1
102
RTVSPropertyOp56
 70
     1
102
RTVSPropertyOp57
 70
     1
102
RTVSPost2010Prop28
280
     0
102
RTVSPost2010PropOp28
 70
     1
102
RTVSPost2010Prop29
280
     1
102
RTVSPost2010PropOp29
 70
     1
102
RTVSPost2010Prop30
280
     1
102
RTVSPost2010PropOp30
 70
     1
102
RTVSPost2010Prop31
280
     0
102
RTVSPost2010PropOp31
 70
     1
102
RTVSPost2010Prop32
280
     0
102
RTVSPost2010PropOp32
 70
     1
102
RTVSPost2010Prop33
280
     0
102
RTVSPost2010PropOp33
 70
     1
102
RTVSPost2010Prop34
280
     0
102
RTVSPost2010PropOp34
 70
     1
102
RTVSPost2010Prop35
280
     0
102
RTVSPost2010PropOp35
 70
     1
102
RTVSPost2010Prop36
280
     0
102
RTVSPost2010PropOp36
 70
     1
102
RTVSPost2010Prop37
 90
       50
102
RTVSPost2010PropOp37
 70
     1
102
RTVSPost2010Prop38
140
0.0
102
RTVSPost2010PropOp38
 70
     1
102
RTVSPost2010Prop39
140
1.0
102
RTVSPost2010PropOp39
 70
     1
102
RTVSPost2010Prop40
 90
        0
102
RTVSPost2010PropOp40
 70
     1
102
RTVSPost2010Prop41ColorIndex
 90
       18
102
RTVSPost2010Prop41ColorRGB
 90
        0
102
RTVSPost2010PropOp41
 70
     1
102
RTVSPost2010Prop42
 90
       50
102
RTVSPost2010PropOp42
 70
     1
102
RTVSPost2010Prop43
 90
        3
102
RTVSPost2010PropOp43
 70
     1
102
RTVSPost2010Prop44ColorIndex
 90
        5
102
RTVSPost2010Prop44ColorRGB
 90
      255
102
RTVSPost2010PropOp44
 70
     1
102
RTVSPost2010Prop45
280
     0
102
RTVSPost2010PropOp45
 70
     1
102
RTVSPost2010Prop46
 90
       50
102
RTVSPost2010PropOp46
 70
     1
102
RTVSPost2010Prop47
 90
       50
102
RTVSPost2010PropOp47
 70
     1
102
RTVSPost2010Prop48
 90
       50
102
RTVSPost2010PropOp48
 70
     1
102
RTVSPost2010Prop49
280
     0
102
RTVSPost2010PropOp49
 70
     1
102
RTVSPost2010Prop50
 90
       50
102
RTVSPost2010PropOp50
 70
     1
102
RTVSPost2010Prop51ColorIndex
 90
      256
102
RTVSPost2010Prop51ColorRGB
 90
-16777216
102
RTVSPost2010PropOp51
 70
     0
102
RTVSPost2010Prop52
140
1.0
102
RTVSPost2010PropOp52
 70
     0
102
RTVSPost2010Prop53
 90
        2
102
RTVSPost2010PropOp53
 70
     1
102
RTVSPost2010Prop54
  1
strokes_ogs.tif
102
RTVSPost2010PropOp54
 70
     1
102
RTVSPost2010Prop55
280
     0
102
RTVSPost2010PropOp55
 70
     1
102
RTVSPost2010Prop56
140
1.0
102
RTVSPost2010PropOp56
 70
     1
102
RTVSPost2010Prop57
140
1.0
102
RTVSPost2010PropOp57
 70
     1
  0
XRECORD
  5
205
102
{ACAD_REACTORS
330
204
102
}
330
204
100
AcDbXrecord
280
     1
102
RTVSPropertyOp0
 70
     1
102
RTVSPropertyOp1
 70
     1
102
RTVSPropertyOp2
 70
     1
102
RTVSPropertyOp3
 70
     1
102
RTVSPropertyOp4
 70
     1
102
RTVSPropertyOp5
 70
     1
102
RTVSPropertyOp6
 70
     1
102
RTVSPropertyOp7
 70
     1
102
RTVSPropertyOp8
 70
     1
102
RTVSPropertyOp9
 70
     1
102
RTVSPropertyOp10
 70
     1
102
RTVSPropertyOp11
 70
     1
102
RTVSPropertyOp12
 70
     1
102
RTVSPropertyOp13
 70
     1
102
RTVSPropertyOp14
 70
     1
102
RTVSPropertyOp15
 70
     1
102
RTVSPropertyOp16
 70
     1
102
RTVSPropertyOp17
 70
     1
102
RTVSPropertyOp18
 70
     1
102
RTVSPropertyOp19
 70
     1
102
RTVSPropertyOp20
 70
     1
102
RTVSPropertyOp21
 70
     1
102
RTVSPropertyOp22
 70
     1
102
RTVSPropertyOp23
 70
     1
102
RTVSPropertyOp24
 70
     1
102
RTVSPropertyOp25
 70
     1
102
RTVSPropertyOp26
 70
     1
102
RTVSPropertyOp27
 70
     1
102
RTVSPropertyOp28
 70
     1
102
RTVSPropertyOp29
 70
     1
102
RTVSPropertyOp30
 70
     1
102
RTVSPropertyOp31
 70
     1
102
RTVSPropertyOp32
 70
     1
102
RTVSPropertyOp33
 70
     1
102
RTVSPropertyOp34
 70
     1
102
RTVSPropertyOp35
 70
     1
102
RTVSPropertyOp36
 70
     1
102
RTVSPropertyOp37
 70
     1
102
RTVSPropertyOp38
 70
     1
102
RTVSPropertyOp39
 70
     1
102
RTVSPropertyOp40
 70
     1
102
RTVSPropertyOp41
 70
     1
102
RTVSPropertyOp42
 70
     1
102
RTVSPropertyOp43
 70
     1
102
RTVSPropertyOp44
 70
     1
102
RTVSPropertyOp45
 70
     1
102
RTVSPropertyOp46
 70
     1
102
RTVSPropertyOp47
 70
     1
102
RTVSPropertyOp48
 70
     1
102
RTVSPropertyOp49
 70
     1
102
RTVSPropertyOp50
 70
     1
102
RTVSPropertyOp51
 70
     0
102
RTVSPropertyOp52
 70
     0
102
RTVSPropertyOp53
 70
     1
102
RTVSPropertyOp54
 70
     1
102
RTVSPropertyOp55
 70
     1
102
RTVSPropertyOp56
 70
     1
102
RTVSPropertyOp57
 70
     1
102
RTVSPost2010Prop28
280
     0
102
RTVSPost2010PropOp28
 70
     1
102
RTVSPost2010Prop29
280
     1
102
RTVSPost2010PropOp29
 70
     1
102
RTVSPost2010Prop30
280
     1
102
RTVSPost2010PropOp30
 70
     1
102
RTVSPost2010Prop31
280
     0
102
RTVSPost2010PropOp31
 70
     1
102
RTVSPost2010Prop32
280
     0
102
RTVSPost2010PropOp32
 70
     1
102
RTVSPost2010Prop33
280
     0
102
RTVSPost2010PropOp33
 70
     1
102
RTVSPost2010Prop34
280
     0
102
RTVSPost2010PropOp34
 70
     1
102
RTVSPost2010Prop35
280
     0
102
RTVSPost2010PropOp35
 70
     1
102
RTVSPost2010Prop36
280
     0
102
RTVSPost2010PropOp36
 70
     1
102
RTVSPost2010Prop37
 90
       50
102
RTVSPost2010PropOp37
 70
     1
102
RTVSPost2010Prop38
140
0.0
102
RTVSPost2010PropOp38
 70
     1
102
RTVSPost2010Prop39
140
1.0
102
RTVSPost2010PropOp39
 70
     1
102
RTVSPost2010Prop40
 90
        0
102
RTVSPost2010PropOp40
 70
     1
102
RTVSPost2010Prop41ColorIndex
 90
       18
102
RTVSPost2010Prop41ColorRGB
 90
        0
102
RTVSPost2010PropOp41
 70
     1
102
RTVSPost2010Prop42
 90
       50
102
RTVSPost2010PropOp42
 70
     1
102
RTVSPost2010Prop43
 90
        3
102
RTVSPost2010PropOp43
 70
     1
102
RTVSPost2010Prop44ColorIndex
 90
        5
102
RTVSPost2010Prop44ColorRGB
 90
      255
102
RTVSPost2010PropOp44
 70
     1
102
RTVSPost2010Prop45
280
     0
102
RTVSPost2010PropOp45
 70
     1
102
RTVSPost2010Prop46
 90
       50
102
RTVSPost2010PropOp46
 70
     1
102
RTVSPost2010Prop47
 90
       50
102
RTVSPost2010PropOp47
 70
     1
102
RTVSPost2010Prop48
 90
       50
102
RTVSPost2010PropOp48
 70
     1
102
RTVSPost2010Prop49
280
     0
102
RTVSPost2010PropOp49
 70
     1
102
RTVSPost2010Prop50
 90
       50
102
RTVSPost2010PropOp50
 70
     1
102
RTVSPost2010Prop51ColorIndex
 90
      256
102
RTVSPost2010Prop51ColorRGB
 90
-16777216
102
RTVSPost2010PropOp51
 70
     0
102
RTVSPost2010Prop52
140
1.0
102
RTVSPost2010PropOp52
 70
     0
102
RTVSPost2010Prop53
 90
        2
102
RTVSPost2010PropOp53
 70
     1
102
RTVSPost2010Prop54
  1
strokes_ogs.tif
102
RTVSPost2010PropOp54
 70
     1
102
RTVSPost2010Prop55
280
     0
102
RTVSPost2010PropOp55
 70
     1
102
RTVSPost2010Prop56
140
1.0
102
RTVSPost2010PropOp56
 70
     1
102
RTVSPost2010Prop57
140
1.0
102
RTVSPost2010PropOp57
 70
     1
  0
XRECORD
  5
207
102
{ACAD_REACTORS
330
206
102
}
330
206
100
AcDbXrecord
280
     1
102
RTVSPropertyOp0
 70
     1
102
RTVSPropertyOp1
 70
     1
102
RTVSPropertyOp2
 70
     1
102
RTVSPropertyOp3
 70
     1
102
RTVSPropertyOp4
 70
     1
102
RTVSPropertyOp5
 70
     1
102
RTVSPropertyOp6
 70
     1
102
RTVSPropertyOp7
 70
     1
102
RTVSPropertyOp8
 70
     1
102
RTVSPropertyOp9
 70
     1
102
RTVSPropertyOp10
 70
     1
102
RTVSPropertyOp11
 70
     1
102
RTVSPropertyOp12
 70
     1
102
RTVSPropertyOp13
 70
     1
102
RTVSPropertyOp14
 70
     1
102
RTVSPropertyOp15
 70
     1
102
RTVSPropertyOp16
 70
     1
102
RTVSPropertyOp17
 70
     1
102
RTVSPropertyOp18
 70
     1
102
RTVSPropertyOp19
 70
     1
102
RTVSPropertyOp20
 70
     1
102
RTVSPropertyOp21
 70
     1
102
RTVSPropertyOp22
 70
     1
102
RTVSPropertyOp23
 70
     1
102
RTVSPropertyOp24
 70
     1
102
RTVSPropertyOp25
 70
     1
102
RTVSPropertyOp26
 70
     1
102
RTVSPropertyOp27
 70
     1
102
RTVSPropertyOp28
 70
     1
102
RTVSPropertyOp29
 70
     1
102
RTVSPropertyOp30
 70
     1
102
RTVSPropertyOp31
 70
     1
102
RTVSPropertyOp32
 70
     1
102
RTVSPropertyOp33
 70
     1
102
RTVSPropertyOp34
 70
     1
102
RTVSPropertyOp35
 70
     1
102
RTVSPropertyOp36
 70
     1
102
RTVSPropertyOp37
 70
     1
102
RTVSPropertyOp38
 70
     1
102
RTVSPropertyOp39
 70
     1
102
RTVSPropertyOp40
 70
     1
102
RTVSPropertyOp41
 70
     1
102
RTVSPropertyOp42
 70
     1
102
RTVSPropertyOp43
 70
     1
102
RTVSPropertyOp44
 70
     1
102
RTVSPropertyOp45
 70
     1
102
RTVSPropertyOp46
 70
     1
102
RTVSPropertyOp47
 70
     1
102
RTVSPropertyOp48
 70
     1
102
RTVSPropertyOp49
 70
     1
102
RTVSPropertyOp50
 70
     1
102
RTVSPropertyOp51
 70
     0
102
RTVSPropertyOp52
 70
     0
102
RTVSPropertyOp53
 70
     1
102
RTVSPropertyOp54
 70
     1
102
RTVSPropertyOp55
 70
     1
102
RTVSPropertyOp56
 70
     1
102
RTVSPropertyOp57
 70
     1
102
RTVSPost2010Prop28
280
     0
102
RTVSPost2010PropOp28
 70
     1
102
RTVSPost2010Prop29
280
     1
102
RTVSPost2010PropOp29
 70
     1
102
RTVSPost2010Prop30
280
     1
102
RTVSPost2010PropOp30
 70
     1
102
RTVSPost2010Prop31
280
     0
102
RTVSPost2010PropOp31
 70
     1
102
RTVSPost2010Prop32
280
     0
102
RTVSPost2010PropOp32
 70
     1
102
RTVSPost2010Prop33
280
     0
102
RTVSPost2010PropOp33
 70
     1
102
RTVSPost2010Prop34
280
     0
102
RTVSPost2010PropOp34
 70
     1
102
RTVSPost2010Prop35
280
     0
102
RTVSPost2010PropOp35
 70
     1
102
RTVSPost2010Prop36
280
     0
102
RTVSPost2010PropOp36
 70
     1
102
RTVSPost2010Prop37
 90
       50
102
RTVSPost2010PropOp37
 70
     1
102
RTVSPost2010Prop38
140
0.0
102
RTVSPost2010PropOp38
 70
     1
102
RTVSPost2010Prop39
140
1.0
102
RTVSPost2010PropOp39
 70
     1
102
RTVSPost2010Prop40
 90
        0
102
RTVSPost2010PropOp40
 70
     1
102
RTVSPost2010Prop41ColorIndex
 90
       18
102
RTVSPost2010Prop41ColorRGB
 90
        0
102
RTVSPost2010PropOp41
 70
     1
102
RTVSPost2010Prop42
 90
       50
102
RTVSPost2010PropOp42
 70
     1
102
RTVSPost2010Prop43
 90
        3
102
RTVSPost2010PropOp43
 70
     1
102
RTVSPost2010Prop44ColorIndex
 90
        5
102
RTVSPost2010Prop44ColorRGB
 90
      255
102
RTVSPost2010PropOp44
 70
     1
102
RTVSPost2010Prop45
280
     0
102
RTVSPost2010PropOp45
 70
     1
102
RTVSPost2010Prop46
 90
       50
102
RTVSPost2010PropOp46
 70
     1
102
RTVSPost2010Prop47
 90
       50
102
RTVSPost2010PropOp47
 70
     1
102
RTVSPost2010Prop48
 90
       50
102
RTVSPost2010PropOp48
 70
     1
102
RTVSPost2010Prop49
280
     0
102
RTVSPost2010PropOp49
 70
     1
102
RTVSPost2010Prop50
 90
       50
102
RTVSPost2010PropOp50
 70
     1
102
RTVSPost2010Prop51ColorIndex
 90
      256
102
RTVSPost2010Prop51ColorRGB
 90
-16777216
102
RTVSPost2010PropOp51
 70
     0
102
RTVSPost2010Prop52
140
1.0
102
RTVSPost2010PropOp52
 70
     0
102
RTVSPost2010Prop53
 90
        2
102
RTVSPost2010PropOp53
 70
     1
102
RTVSPost2010Prop54
  1
strokes_ogs.tif
102
RTVSPost2010PropOp54
 70
     1
102
RTVSPost2010Prop55
280
     0
102
RTVSPost2010PropOp55
 70
     1
102
RTVSPost2010Prop56
140
1.0
102
RTVSPost2010PropOp56
 70
     1
102
RTVSPost2010Prop57
140
1.0
102
RTVSPost2010PropOp57
 70
     1
  0
XRECORD
  5
217
102
{ACAD_REACTORS
330
216
102
}
330
216
100
AcDbXrecord
280
     1
102
RTVSPropertyOp0
 70
     0
102
RTVSPropertyOp1
 70
     0
102
RTVSPropertyOp2
 70
     0
102
RTVSPropertyOp3
 70
     0
102
RTVSPropertyOp4
 70
     0
102
RTVSPropertyOp5
 70
     0
102
RTVSPropertyOp6
 70
     0
102
RTVSPropertyOp7
 70
     0
102
RTVSPropertyOp8
 70
     0
102
RTVSPropertyOp9
 70
     0
102
RTVSPropertyOp10
 70
     0
102
RTVSPropertyOp11
 70
     0
102
RTVSPropertyOp12
 70
     0
102
RTVSPropertyOp13
 70
     0
102
RTVSPropertyOp14
 70
     2
102
RTVSPropertyOp15
 70
     0
102
RTVSPropertyOp16
 70
     0
102
RTVSPropertyOp17
 70
     0
102
RTVSPropertyOp18
 70
     0
102
RTVSPropertyOp19
 70
     0
102
RTVSPropertyOp20
 70
     0
102
RTVSPropertyOp21
 70
     0
102
RTVSPropertyOp22
 70
     0
102
RTVSPropertyOp23
 70
     0
102
RTVSPropertyOp24
 70
     0
102
RTVSPropertyOp25
 70
     0
102
RTVSPropertyOp26
 70
     0
102
RTVSPropertyOp27
 70
     0
102
RTVSPropertyOp28
 70
     0
102
RTVSPropertyOp29
 70
     0
102
RTVSPropertyOp30
 70
     0
102
RTVSPropertyOp31
 70
     0
102
RTVSPropertyOp32
 70
     0
102
RTVSPropertyOp33
 70
     0
102
RTVSPropertyOp34
 70
     0
102
RTVSPropertyOp35
 70
     0
102
RTVSPropertyOp36
 70
     0
102
RTVSPropertyOp37
 70
     0
102
RTVSPropertyOp38
 70
     0
102
RTVSPropertyOp39
 70
     0
102
RTVSPropertyOp40
 70
     0
102
RTVSPropertyOp41
 70
     0
102
RTVSPropertyOp42
 70
     0
102
RTVSPropertyOp43
 70
     0
102
RTVSPropertyOp44
 70
     0
102
RTVSPropertyOp45
 70
     0
102
RTVSPropertyOp46
 70
     0
102
RTVSPropertyOp47
 70
     0
102
RTVSPropertyOp48
 70
     0
102
RTVSPropertyOp49
 70
     0
102
RTVSPropertyOp50
 70
     0
102
RTVSPropertyOp51
 70
     0
102
RTVSPropertyOp52
 70
     0
102
RTVSPropertyOp53
 70
     0
102
RTVSPropertyOp54
 70
     0
102
RTVSPropertyOp55
 70
     0
102
RTVSPropertyOp56
 70
     0
102
RTVSPropertyOp57
 70
     0
102
RTVSPost2010Prop28
280
     0
102
RTVSPost2010PropOp28
 70
     0
102
RTVSPost2010Prop29
280
     1
102
RTVSPost2010PropOp29
 70
     0
102
RTVSPost2010Prop30
280
     1
102
RTVSPost2010PropOp30
 70
     0
102
RTVSPost2010Prop31
280
     0
102
RTVSPost2010PropOp31
 70
     0
102
RTVSPost2010Prop32
280
     0
102
RTVSPost2010PropOp32
 70
     0
102
RTVSPost2010Prop33
280
     0
102
RTVSPost2010PropOp33
 70
     0
102
RTVSPost2010Prop34
280
     0
102
RTVSPost2010PropOp34
 70
     0
102
RTVSPost2010Prop35
280
     0
102
RTVSPost2010PropOp35
 70
     0
102
RTVSPost2010Prop36
280
     0
102
RTVSPost2010PropOp36
 70
     0
102
RTVSPost2010Prop37
 90
       50
102
RTVSPost2010PropOp37
 70
     0
102
RTVSPost2010Prop38
140
0.0
102
RTVSPost2010PropOp38
 70
     0
102
RTVSPost2010Prop39
140
1.0
102
RTVSPost2010PropOp39
 70
     0
102
RTVSPost2010Prop40
 90
        0
102
RTVSPost2010PropOp40
 70
     0
102
RTVSPost2010Prop41ColorIndex
 90
       18
102
RTVSPost2010Prop41ColorRGB
 90
        0
102
RTVSPost2010PropOp41
 70
     0
102
RTVSPost2010Prop42
 90
       50
102
RTVSPost2010PropOp42
 70
     0
102
RTVSPost2010Prop43
 90
        3
102
RTVSPost2010PropOp43
 70
     0
102
RTVSPost2010Prop44ColorIndex
 90
        5
102
RTVSPost2010Prop44ColorRGB
 90
      255
102
RTVSPost2010PropOp44
 70
     0
102
RTVSPost2010Prop45
280
     0
102
RTVSPost2010PropOp45
 70
     0
102
RTVSPost2010Prop46
 90
       50
102
RTVSPost2010PropOp46
 70
     0
102
RTVSPost2010Prop47
 90
       50
102
RTVSPost2010PropOp47
 70
     0
102
RTVSPost2010Prop48
 90
       50
102
RTVSPost2010PropOp48
 70
     0
102
RTVSPost2010Prop49
280
     0
102
RTVSPost2010PropOp49
 70
     0
102
RTVSPost2010Prop50
 90
       50
102
RTVSPost2010PropOp50
 70
     0
102
RTVSPost2010Prop51ColorIndex
 90
      256
102
RTVSPost2010Prop51ColorRGB
 90
-16777216
102
RTVSPost2010PropOp51
 70
     0
102
RTVSPost2010Prop52
140
1.0
102
RTVSPost2010PropOp52
 70
     0
102
RTVSPost2010Prop53
 90
        2
102
RTVSPost2010PropOp53
 70
     0
102
RTVSPost2010Prop54
  1
strokes_ogs.tif
102
RTVSPost2010PropOp54
 70
     0
102
RTVSPost2010Prop55
280
     0
102
RTVSPost2010PropOp55
 70
     0
102
RTVSPost2010Prop56
140
1.0
102
RTVSPost2010PropOp56
 70
     0
102
RTVSPost2010Prop57
140
1.0
102
RTVSPost2010PropOp57
 70
     0
  0
XRECORD
  5
20F
102
{ACAD_REACTORS
330
20E
102
}
330
20E
100
AcDbXrecord
280
     1
102
RTVSPropertyOp0
 70
     1
102
RTVSPropertyOp1
 70
     1
102
RTVSPropertyOp2
 70
     1
102
RTVSPropertyOp3
 70
     1
102
RTVSPropertyOp4
 70
     1
102
RTVSPropertyOp5
 70
     1
102
RTVSPropertyOp6
 70
     1
102
RTVSPropertyOp7
 70
     1
102
RTVSPropertyOp8
 70
     1
102
RTVSPropertyOp9
 70
     1
102
RTVSPropertyOp10
 70
     1
102
RTVSPropertyOp11
 70
     1
102
RTVSPropertyOp12
 70
     1
102
RTVSPropertyOp13
 70
     1
102
RTVSPropertyOp14
 70
     1
102
RTVSPropertyOp15
 70
     1
102
RTVSPropertyOp16
 70
     1
102
RTVSPropertyOp17
 70
     1
102
RTVSPropertyOp18
 70
     1
102
RTVSPropertyOp19
 70
     1
102
RTVSPropertyOp20
 70
     1
102
RTVSPropertyOp21
 70
     1
102
RTVSPropertyOp22
 70
     1
102
RTVSPropertyOp23
 70
     1
102
RTVSPropertyOp24
 70
     1
102
RTVSPropertyOp25
 70
     1
102
RTVSPropertyOp26
 70
     1
102
RTVSPropertyOp27
 70
     1
102
RTVSPropertyOp28
 70
     1
102
RTVSPropertyOp29
 70
     1
102
RTVSPropertyOp30
 70
     1
102
RTVSPropertyOp31
 70
     1
102
RTVSPropertyOp32
 70
     1
102
RTVSPropertyOp33
 70
     1
102
RTVSPropertyOp34
 70
     1
102
RTVSPropertyOp35
 70
     1
102
RTVSPropertyOp36
 70
     1
102
RTVSPropertyOp37
 70
     1
102
RTVSPropertyOp38
 70
     1
102
RTVSPropertyOp39
 70
     1
102
RTVSPropertyOp40
 70
     1
102
RTVSPropertyOp41
 70
     1
102
RTVSPropertyOp42
 70
     1
102
RTVSPropertyOp43
 70
     1
102
RTVSPropertyOp44
 70
     1
102
RTVSPropertyOp45
 70
     1
102
RTVSPropertyOp46
 70
     1
102
RTVSPropertyOp47
 70
     1
102
RTVSPropertyOp48
 70
     1
102
RTVSPropertyOp49
 70
     1
102
RTVSPropertyOp50
 70
     1
102
RTVSPropertyOp51
 70
     0
102
RTVSPropertyOp52
 70
     0
102
RTVSPropertyOp53
 70
     1
102
RTVSPropertyOp54
 70
     1
102
RTVSPropertyOp55
 70
     1
102
RTVSPropertyOp56
 70
     1
102
RTVSPropertyOp57
 70
     1
102
RTVSPost2010Prop28
280
     0
102
RTVSPost2010PropOp28
 70
     1
102
RTVSPost2010Prop29
280
     1
102
RTVSPost2010PropOp29
 70
     1
102
RTVSPost2010Prop30
280
     1
102
RTVSPost2010PropOp30
 70
     1
102
RTVSPost2010Prop31
280
     0
102
RTVSPost2010PropOp31
 70
     1
102
RTVSPost2010Prop32
280
     0
102
RTVSPost2010PropOp32
 70
     1
102
RTVSPost2010Prop33
280
     0
102
RTVSPost2010PropOp33
 70
     1
102
RTVSPost2010Prop34
280
     0
102
RTVSPost2010PropOp34
 70
     1
102
RTVSPost2010Prop35
280
     0
102
RTVSPost2010PropOp35
 70
     1
102
RTVSPost2010Prop36
280
     0
102
RTVSPost2010PropOp36
 70
     1
102
RTVSPost2010Prop37
 90
       50
102
RTVSPost2010PropOp37
 70
     1
102
RTVSPost2010Prop38
140
0.0
102
RTVSPost2010PropOp38
 70
     1
102
RTVSPost2010Prop39
140
1.0
102
RTVSPost2010PropOp39
 70
     1
102
RTVSPost2010Prop40
 90
        0
102
RTVSPost2010PropOp40
 70
     1
102
RTVSPost2010Prop41ColorIndex
 90
       18
102
RTVSPost2010Prop41ColorRGB
 90
        0
102
RTVSPost2010PropOp41
 70
     1
102
RTVSPost2010Prop42
 90
       50
102
RTVSPost2010PropOp42
 70
     1
102
RTVSPost2010Prop43
 90
        3
102
RTVSPost2010PropOp43
 70
     1
102
RTVSPost2010Prop44ColorIndex
 90
        5
102
RTVSPost2010Prop44ColorRGB
 90
      255
102
RTVSPost2010PropOp44
 70
     1
102
RTVSPost2010Prop45
280
     0
102
RTVSPost2010PropOp45
 70
     1
102
RTVSPost2010Prop46
 90
       50
102
RTVSPost2010PropOp46
 70
     1
102
RTVSPost2010Prop47
 90
       50
102
RTVSPost2010PropOp47
 70
     1
102
RTVSPost2010Prop48
 90
       50
102
RTVSPost2010PropOp48
 70
     1
102
RTVSPost2010Prop49
280
     0
102
RTVSPost2010PropOp49
 70
     1
102
RTVSPost2010Prop50
 90
       50
102
RTVSPost2010PropOp50
 70
     1
102
RTVSPost2010Prop51ColorIndex
 90
      256
102
RTVSPost2010Prop51ColorRGB
 90
-16777216
102
RTVSPost2010PropOp51
 70
     0
102
RTVSPost2010Prop52
140
1.0
102
RTVSPost2010PropOp52
 70
     0
102
RTVSPost2010Prop53
 90
        2
102
RTVSPost2010PropOp53
 70
     1
102
RTVSPost2010Prop54
  1
strokes_ogs.tif
102
RTVSPost2010PropOp54
 70
     1
102
RTVSPost2010Prop55
280
     0
102
RTVSPost2010PropOp55
 70
     1
102
RTVSPost2010Prop56
140
1.0
102
RTVSPost2010PropOp56
 70
     1
102
RTVSPost2010Prop57
140
1.0
102
RTVSPost2010PropOp57
 70
     1
  0
XRECORD
  5
1F3
102
{ACAD_REACTORS
330
1F2
102
}
330
1F2
100
AcDbXrecord
280
     1
102
RTVSPropertyOp0
 70
     1
102
RTVSPropertyOp1
 70
     1
102
RTVSPropertyOp2
 70
     1
102
RTVSPropertyOp3
 70
     1
102
RTVSPropertyOp4
 70
     1
102
RTVSPropertyOp5
 70
     1
102
RTVSPropertyOp6
 70
     1
102
RTVSPropertyOp7
 70
     1
102
RTVSPropertyOp8
 70
     1
102
RTVSPropertyOp9
 70
     1
102
RTVSPropertyOp10
 70
     1
102
RTVSPropertyOp11
 70
     1
102
RTVSPropertyOp12
 70
     1
102
RTVSPropertyOp13
 70
     1
102
RTVSPropertyOp14
 70
     1
102
RTVSPropertyOp15
 70
     1
102
RTVSPropertyOp16
 70
     1
102
RTVSPropertyOp17
 70
     1
102
RTVSPropertyOp18
 70
     1
102
RTVSPropertyOp19
 70
     1
102
RTVSPropertyOp20
 70
     1
102
RTVSPropertyOp21
 70
     1
102
RTVSPropertyOp22
 70
     1
102
RTVSPropertyOp23
 70
     1
102
RTVSPropertyOp24
 70
     1
102
RTVSPropertyOp25
 70
     1
102
RTVSPropertyOp26
 70
     1
102
RTVSPropertyOp27
 70
     1
102
RTVSPropertyOp28
 70
     1
102
RTVSPropertyOp29
 70
     1
102
RTVSPropertyOp30
 70
     1
102
RTVSPropertyOp31
 70
     1
102
RTVSPropertyOp32
 70
     1
102
RTVSPropertyOp33
 70
     1
102
RTVSPropertyOp34
 70
     1
102
RTVSPropertyOp35
 70
     1
102
RTVSPropertyOp36
 70
     1
102
RTVSPropertyOp37
 70
     1
102
RTVSPropertyOp38
 70
     1
102
RTVSPropertyOp39
 70
     1
102
RTVSPropertyOp40
 70
     1
102
RTVSPropertyOp41
 70
     1
102
RTVSPropertyOp42
 70
     1
102
RTVSPropertyOp43
 70
     1
102
RTVSPropertyOp44
 70
     1
102
RTVSPropertyOp45
 70
     1
102
RTVSPropertyOp46
 70
     1
102
RTVSPropertyOp47
 70
     1
102
RTVSPropertyOp48
 70
     1
102
RTVSPropertyOp49
 70
     1
102
RTVSPropertyOp50
 70
     1
102
RTVSPropertyOp51
 70
     0
102
RTVSPropertyOp52
 70
     0
102
RTVSPropertyOp53
 70
     1
102
RTVSPropertyOp54
 70
     1
102
RTVSPropertyOp55
 70
     1
102
RTVSPropertyOp56
 70
     1
102
RTVSPropertyOp57
 70
     1
102
RTVSPost2010Prop28
280
     0
102
RTVSPost2010PropOp28
 70
     1
102
RTVSPost2010Prop29
280
     1
102
RTVSPost2010PropOp29
 70
     1
102
RTVSPost2010Prop30
280
     1
102
RTVSPost2010PropOp30
 70
     1
102
RTVSPost2010Prop31
280
     0
102
RTVSPost2010PropOp31
 70
     1
102
RTVSPost2010Prop32
280
     0
102
RTVSPost2010PropOp32
 70
     1
102
RTVSPost2010Prop33
280
     0
102
RTVSPost2010PropOp33
 70
     1
102
RTVSPost2010Prop34
280
     0
102
RTVSPost2010PropOp34
 70
     1
102
RTVSPost2010Prop35
280
     0
102
RTVSPost2010PropOp35
 70
     1
102
RTVSPost2010Prop36
280
     0
102
RTVSPost2010PropOp36
 70
     1
102
RTVSPost2010Prop37
 90
       50
102
RTVSPost2010PropOp37
 70
     1
102
RTVSPost2010Prop38
140
0.0
102
RTVSPost2010PropOp38
 70
     1
102
RTVSPost2010Prop39
140
1.0
102
RTVSPost2010PropOp39
 70
     1
102
RTVSPost2010Prop40
 90
        0
102
RTVSPost2010PropOp40
 70
     1
102
RTVSPost2010Prop41ColorIndex
 90
       18
102
RTVSPost2010Prop41ColorRGB
 90
        0
102
RTVSPost2010PropOp41
 70
     1
102
RTVSPost2010Prop42
 90
       50
102
RTVSPost2010PropOp42
 70
     1
102
RTVSPost2010Prop43
 90
        3
102
RTVSPost2010PropOp43
 70
     1
102
RTVSPost2010Prop44ColorIndex
 90
        5
102
RTVSPost2010Prop44ColorRGB
 90
      255
102
RTVSPost2010PropOp44
 70
     1
102
RTVSPost2010Prop45
280
     0
102
RTVSPost2010PropOp45
 70
     1
102
RTVSPost2010Prop46
 90
       50
102
RTVSPost2010PropOp46
 70
     1
102
RTVSPost2010Prop47
 90
       50
102
RTVSPost2010PropOp47
 70
     1
102
RTVSPost2010Prop48
 90
       50
102
RTVSPost2010PropOp48
 70
     1
102
RTVSPost2010Prop49
280
     0
102
RTVSPost2010PropOp49
 70
     1
102
RTVSPost2010Prop50
 90
       50
102
RTVSPost2010PropOp50
 70
     1
102
RTVSPost2010Prop51ColorIndex
 90
      256
102
RTVSPost2010Prop51ColorRGB
 90
-16777216
102
RTVSPost2010PropOp51
 70
     0
102
RTVSPost2010Prop52
140
1.0
102
RTVSPost2010PropOp52
 70
     0
102
RTVSPost2010Prop53
 90
        2
102
RTVSPost2010PropOp53
 70
     1
102
RTVSPost2010Prop54
  1
strokes_ogs.tif
102
RTVSPost2010PropOp54
 70
     1
102
RTVSPost2010Prop55
280
     0
102
RTVSPost2010PropOp55
 70
     1
102
RTVSPost2010Prop56
140
1.0
102
RTVSPost2010PropOp56
 70
     1
102
RTVSPost2010Prop57
140
1.0
102
RTVSPost2010PropOp57
 70
     1
  0
XRECORD
  5
1F5
102
{ACAD_REACTORS
330
1F4
102
}
330
1F4
100
AcDbXrecord
280
     1
102
RTVSPropertyOp0
 70
     1
102
RTVSPropertyOp1
 70
     1
102
RTVSPropertyOp2
 70
     1
102
RTVSPropertyOp3
 70
     1
102
RTVSPropertyOp4
 70
     1
102
RTVSPropertyOp5
 70
     1
102
RTVSPropertyOp6
 70
     1
102
RTVSPropertyOp7
 70
     1
102
RTVSPropertyOp8
 70
     1
102
RTVSPropertyOp9
 70
     1
102
RTVSPropertyOp10
 70
     1
102
RTVSPropertyOp11
 70
     1
102
RTVSPropertyOp12
 70
     1
102
RTVSPropertyOp13
 70
     1
102
RTVSPropertyOp14
 70
     1
102
RTVSPropertyOp15
 70
     1
102
RTVSPropertyOp16
 70
     1
102
RTVSPropertyOp17
 70
     1
102
RTVSPropertyOp18
 70
     1
102
RTVSPropertyOp19
 70
     1
102
RTVSPropertyOp20
 70
     1
102
RTVSPropertyOp21
 70
     1
102
RTVSPropertyOp22
 70
     1
102
RTVSPropertyOp23
 70
     1
102
RTVSPropertyOp24
 70
     1
102
RTVSPropertyOp25
 70
     1
102
RTVSPropertyOp26
 70
     1
102
RTVSPropertyOp27
 70
     1
102
RTVSPropertyOp28
 70
     1
102
RTVSPropertyOp29
 70
     1
102
RTVSPropertyOp30
 70
     1
102
RTVSPropertyOp31
 70
     1
102
RTVSPropertyOp32
 70
     1
102
RTVSPropertyOp33
 70
     1
102
RTVSPropertyOp34
 70
     1
102
RTVSPropertyOp35
 70
     1
102
RTVSPropertyOp36
 70
     1
102
RTVSPropertyOp37
 70
     1
102
RTVSPropertyOp38
 70
     1
102
RTVSPropertyOp39
 70
     1
102
RTVSPropertyOp40
 70
     1
102
RTVSPropertyOp41
 70
     1
102
RTVSPropertyOp42
 70
     1
102
RTVSPropertyOp43
 70
     1
102
RTVSPropertyOp44
 70
     1
102
RTVSPropertyOp45
 70
     1
102
RTVSPropertyOp46
 70
     1
102
RTVSPropertyOp47
 70
     1
102
RTVSPropertyOp48
 70
     1
102
RTVSPropertyOp49
 70
     1
102
RTVSPropertyOp50
 70
     1
102
RTVSPropertyOp51
 70
     0
102
RTVSPropertyOp52
 70
     0
102
RTVSPropertyOp53
 70
     1
102
RTVSPropertyOp54
 70
     1
102
RTVSPropertyOp55
 70
     1
102
RTVSPropertyOp56
 70
     1
102
RTVSPropertyOp57
 70
     1
102
RTVSPost2010Prop28
280
     0
102
RTVSPost2010PropOp28
 70
     1
102
RTVSPost2010Prop29
280
     1
102
RTVSPost2010PropOp29
 70
     1
102
RTVSPost2010Prop30
280
     1
102
RTVSPost2010PropOp30
 70
     1
102
RTVSPost2010Prop31
280
     0
102
RTVSPost2010PropOp31
 70
     1
102
RTVSPost2010Prop32
280
     0
102
RTVSPost2010PropOp32
 70
     1
102
RTVSPost2010Prop33
280
     0
102
RTVSPost2010PropOp33
 70
     1
102
RTVSPost2010Prop34
280
     0
102
RTVSPost2010PropOp34
 70
     1
102
RTVSPost2010Prop35
280
     0
102
RTVSPost2010PropOp35
 70
     1
102
RTVSPost2010Prop36
280
     0
102
RTVSPost2010PropOp36
 70
     1
102
RTVSPost2010Prop37
 90
       50
102
RTVSPost2010PropOp37
 70
     1
102
RTVSPost2010Prop38
140
0.0
102
RTVSPost2010PropOp38
 70
     1
102
RTVSPost2010Prop39
140
1.0
102
RTVSPost2010PropOp39
 70
     1
102
RTVSPost2010Prop40
 90
        0
102
RTVSPost2010PropOp40
 70
     1
102
RTVSPost2010Prop41ColorIndex
 90
       18
102
RTVSPost2010Prop41ColorRGB
 90
        0
102
RTVSPost2010PropOp41
 70
     1
102
RTVSPost2010Prop42
 90
       50
102
RTVSPost2010PropOp42
 70
     1
102
RTVSPost2010Prop43
 90
        3
102
RTVSPost2010PropOp43
 70
     1
102
RTVSPost2010Prop44ColorIndex
 90
        5
102
RTVSPost2010Prop44ColorRGB
 90
      255
102
RTVSPost2010PropOp44
 70
     1
102
RTVSPost2010Prop45
280
     0
102
RTVSPost2010PropOp45
 70
     1
102
RTVSPost2010Prop46
 90
       50
102
RTVSPost2010PropOp46
 70
     1
102
RTVSPost2010Prop47
 90
       50
102
RTVSPost2010PropOp47
 70
     1
102
RTVSPost2010Prop48
 90
       50
102
RTVSPost2010PropOp48
 70
     1
102
RTVSPost2010Prop49
280
     0
102
RTVSPost2010PropOp49
 70
     1
102
RTVSPost2010Prop50
 90
       50
102
RTVSPost2010PropOp50
 70
     1
102
RTVSPost2010Prop51ColorIndex
 90
      256
102
RTVSPost2010Prop51ColorRGB
 90
-16777216
102
RTVSPost2010PropOp51
 70
     0
102
RTVSPost2010Prop52
140
1.0
102
RTVSPost2010PropOp52
 70
     0
102
RTVSPost2010Prop53
 90
        2
102
RTVSPost2010PropOp53
 70
     1
102
RTVSPost2010Prop54
  1
strokes_ogs.tif
102
RTVSPost2010PropOp54
 70
     1
102
RTVSPost2010Prop55
280
     0
102
RTVSPost2010PropOp55
 70
     1
102
RTVSPost2010Prop56
140
1.0
102
RTVSPost2010PropOp56
 70
     1
102
RTVSPost2010Prop57
140
1.0
102
RTVSPost2010PropOp57
 70
     1
  0
XRECORD
  5
1F7
102
{ACAD_REACTORS
330
1F6
102
}
330
1F6
100
AcDbXrecord
280
     1
102
RTVSPropertyOp0
 70
     1
102
RTVSPropertyOp1
 70
     1
102
RTVSPropertyOp2
 70
     1
102
RTVSPropertyOp3
 70
     1
102
RTVSPropertyOp4
 70
     1
102
RTVSPropertyOp5
 70
     1
102
RTVSPropertyOp6
 70
     1
102
RTVSPropertyOp7
 70
     1
102
RTVSPropertyOp8
 70
     1
102
RTVSPropertyOp9
 70
     1
102
RTVSPropertyOp10
 70
     1
102
RTVSPropertyOp11
 70
     1
102
RTVSPropertyOp12
 70
     1
102
RTVSPropertyOp13
 70
     1
102
RTVSPropertyOp14
 70
     1
102
RTVSPropertyOp15
 70
     1
102
RTVSPropertyOp16
 70
     1
102
RTVSPropertyOp17
 70
     1
102
RTVSPropertyOp18
 70
     1
102
RTVSPropertyOp19
 70
     1
102
RTVSPropertyOp20
 70
     1
102
RTVSPropertyOp21
 70
     1
102
RTVSPropertyOp22
 70
     1
102
RTVSPropertyOp23
 70
     1
102
RTVSPropertyOp24
 70
     1
102
RTVSPropertyOp25
 70
     1
102
RTVSPropertyOp26
 70
     1
102
RTVSPropertyOp27
 70
     1
102
RTVSPropertyOp28
 70
     1
102
RTVSPropertyOp29
 70
     1
102
RTVSPropertyOp30
 70
     1
102
RTVSPropertyOp31
 70
     1
102
RTVSPropertyOp32
 70
     1
102
RTVSPropertyOp33
 70
     1
102
RTVSPropertyOp34
 70
     1
102
RTVSPropertyOp35
 70
     1
102
RTVSPropertyOp36
 70
     1
102
RTVSPropertyOp37
 70
     1
102
RTVSPropertyOp38
 70
     1
102
RTVSPropertyOp39
 70
     1
102
RTVSPropertyOp40
 70
     1
102
RTVSPropertyOp41
 70
     1
102
RTVSPropertyOp42
 70
     1
102
RTVSPropertyOp43
 70
     1
102
RTVSPropertyOp44
 70
     1
102
RTVSPropertyOp45
 70
     1
102
RTVSPropertyOp46
 70
     1
102
RTVSPropertyOp47
 70
     1
102
RTVSPropertyOp48
 70
     1
102
RTVSPropertyOp49
 70
     1
102
RTVSPropertyOp50
 70
     1
102
RTVSPropertyOp51
 70
     0
102
RTVSPropertyOp52
 70
     0
102
RTVSPropertyOp53
 70
     1
102
RTVSPropertyOp54
 70
     1
102
RTVSPropertyOp55
 70
     1
102
RTVSPropertyOp56
 70
     1
102
RTVSPropertyOp57
 70
     1
102
RTVSPost2010Prop28
280
     0
102
RTVSPost2010PropOp28
 70
     1
102
RTVSPost2010Prop29
280
     1
102
RTVSPost2010PropOp29
 70
     1
102
RTVSPost2010Prop30
280
     1
102
RTVSPost2010PropOp30
 70
     1
102
RTVSPost2010Prop31
280
     0
102
RTVSPost2010PropOp31
 70
     1
102
RTVSPost2010Prop32
280
     0
102
RTVSPost2010PropOp32
 70
     1
102
RTVSPost2010Prop33
280
     0
102
RTVSPost2010PropOp33
 70
     1
102
RTVSPost2010Prop34
280
     0
102
RTVSPost2010PropOp34
 70
     1
102
RTVSPost2010Prop35
280
     0
102
RTVSPost2010PropOp35
 70
     1
102
RTVSPost2010Prop36
280
     0
102
RTVSPost2010PropOp36
 70
     1
102
RTVSPost2010Prop37
 90
       50
102
RTVSPost2010PropOp37
 70
     1
102
RTVSPost2010Prop38
140
0.0
102
RTVSPost2010PropOp38
 70
     1
102
RTVSPost2010Prop39
140
1.0
102
RTVSPost2010PropOp39
 70
     1
102
RTVSPost2010Prop40
 90
        0
102
RTVSPost2010PropOp40
 70
     1
102
RTVSPost2010Prop41ColorIndex
 90
       18
102
RTVSPost2010Prop41ColorRGB
 90
        0
102
RTVSPost2010PropOp41
 70
     1
102
RTVSPost2010Prop42
 90
       50
102
RTVSPost2010PropOp42
 70
     1
102
RTVSPost2010Prop43
 90
        3
102
RTVSPost2010PropOp43
 70
     1
102
RTVSPost2010Prop44ColorIndex
 90
        5
102
RTVSPost2010Prop44ColorRGB
 90
      255
102
RTVSPost2010PropOp44
 70
     1
102
RTVSPost2010Prop45
280
     0
102
RTVSPost2010PropOp45
 70
     1
102
RTVSPost2010Prop46
 90
       50
102
RTVSPost2010PropOp46
 70
     1
102
RTVSPost2010Prop47
 90
       50
102
RTVSPost2010PropOp47
 70
     1
102
RTVSPost2010Prop48
 90
       50
102
RTVSPost2010PropOp48
 70
     1
102
RTVSPost2010Prop49
280
     0
102
RTVSPost2010PropOp49
 70
     1
102
RTVSPost2010Prop50
 90
       50
102
RTVSPost2010PropOp50
 70
     1
102
RTVSPost2010Prop51ColorIndex
 90
      256
102
RTVSPost2010Prop51ColorRGB
 90
-16777216
102
RTVSPost2010PropOp51
 70
     0
102
RTVSPost2010Prop52
140
1.0
102
RTVSPost2010PropOp52
 70
     0
102
RTVSPost2010Prop53
 90
        2
102
RTVSPost2010PropOp53
 70
     1
102
RTVSPost2010Prop54
  1
strokes_ogs.tif
102
RTVSPost2010PropOp54
 70
     1
102
RTVSPost2010Prop55
280
     0
102
RTVSPost2010PropOp55
 70
     1
102
RTVSPost2010Prop56
140
1.0
102
RTVSPost2010PropOp56
 70
     1
102
RTVSPost2010Prop57
140
1.0
102
RTVSPost2010PropOp57
 70
     1
  0
XRECORD
  5
1F9
102
{ACAD_REACTORS
330
1F8
102
}
330
1F8
100
AcDbXrecord
280
     1
102
RTVSPropertyOp0
 70
     1
102
RTVSPropertyOp1
 70
     1
102
RTVSPropertyOp2
 70
     1
102
RTVSPropertyOp3
 70
     1
102
RTVSPropertyOp4
 70
     1
102
RTVSPropertyOp5
 70
     1
102
RTVSPropertyOp6
 70
     1
102
RTVSPropertyOp7
 70
     1
102
RTVSPropertyOp8
 70
     1
102
RTVSPropertyOp9
 70
     1
102
RTVSPropertyOp10
 70
     1
102
RTVSPropertyOp11
 70
     1
102
RTVSPropertyOp12
 70
     1
102
RTVSPropertyOp13
 70
     1
102
RTVSPropertyOp14
 70
     1
102
RTVSPropertyOp15
 70
     1
102
RTVSPropertyOp16
 70
     1
102
RTVSPropertyOp17
 70
     1
102
RTVSPropertyOp18
 70
     1
102
RTVSPropertyOp19
 70
     1
102
RTVSPropertyOp20
 70
     1
102
RTVSPropertyOp21
 70
     1
102
RTVSPropertyOp22
 70
     1
102
RTVSPropertyOp23
 70
     1
102
RTVSPropertyOp24
 70
     1
102
RTVSPropertyOp25
 70
     1
102
RTVSPropertyOp26
 70
     1
102
RTVSPropertyOp27
 70
     1
102
RTVSPropertyOp28
 70
     1
102
RTVSPropertyOp29
 70
     1
102
RTVSPropertyOp30
 70
     1
102
RTVSPropertyOp31
 70
     1
102
RTVSPropertyOp32
 70
     1
102
RTVSPropertyOp33
 70
     1
102
RTVSPropertyOp34
 70
     1
102
RTVSPropertyOp35
 70
     1
102
RTVSPropertyOp36
 70
     1
102
RTVSPropertyOp37
 70
     1
102
RTVSPropertyOp38
 70
     1
102
RTVSPropertyOp39
 70
     1
102
RTVSPropertyOp40
 70
     1
102
RTVSPropertyOp41
 70
     1
102
RTVSPropertyOp42
 70
     1
102
RTVSPropertyOp43
 70
     1
102
RTVSPropertyOp44
 70
     1
102
RTVSPropertyOp45
 70
     1
102
RTVSPropertyOp46
 70
     1
102
RTVSPropertyOp47
 70
     1
102
RTVSPropertyOp48
 70
     1
102
RTVSPropertyOp49
 70
     1
102
RTVSPropertyOp50
 70
     1
102
RTVSPropertyOp51
 70
     0
102
RTVSPropertyOp52
 70
     0
102
RTVSPropertyOp53
 70
     1
102
RTVSPropertyOp54
 70
     1
102
RTVSPropertyOp55
 70
     1
102
RTVSPropertyOp56
 70
     1
102
RTVSPropertyOp57
 70
     1
102
RTVSPost2010Prop28
280
     0
102
RTVSPost2010PropOp28
 70
     1
102
RTVSPost2010Prop29
280
     1
102
RTVSPost2010PropOp29
 70
     1
102
RTVSPost2010Prop30
280
     1
102
RTVSPost2010PropOp30
 70
     1
102
RTVSPost2010Prop31
280
     0
102
RTVSPost2010PropOp31
 70
     1
102
RTVSPost2010Prop32
280
     0
102
RTVSPost2010PropOp32
 70
     1
102
RTVSPost2010Prop33
280
     0
102
RTVSPost2010PropOp33
 70
     1
102
RTVSPost2010Prop34
280
     0
102
RTVSPost2010PropOp34
 70
     1
102
RTVSPost2010Prop35
280
     0
102
RTVSPost2010PropOp35
 70
     1
102
RTVSPost2010Prop36
280
     0
102
RTVSPost2010PropOp36
 70
     1
102
RTVSPost2010Prop37
 90
       50
102
RTVSPost2010PropOp37
 70
     1
102
RTVSPost2010Prop38
140
0.0
102
RTVSPost2010PropOp38
 70
     1
102
RTVSPost2010Prop39
140
1.0
102
RTVSPost2010PropOp39
 70
     1
102
RTVSPost2010Prop40
 90
        0
102
RTVSPost2010PropOp40
 70
     1
102
RTVSPost2010Prop41ColorIndex
 90
       18
102
RTVSPost2010Prop41ColorRGB
 90
        0
102
RTVSPost2010PropOp41
 70
     1
102
RTVSPost2010Prop42
 90
       50
102
RTVSPost2010PropOp42
 70
     1
102
RTVSPost2010Prop43
 90
        3
102
RTVSPost2010PropOp43
 70
     1
102
RTVSPost2010Prop44ColorIndex
 90
        5
102
RTVSPost2010Prop44ColorRGB
 90
      255
102
RTVSPost2010PropOp44
 70
     1
102
RTVSPost2010Prop45
280
     0
102
RTVSPost2010PropOp45
 70
     1
102
RTVSPost2010Prop46
 90
       50
102
RTVSPost2010PropOp46
 70
     1
102
RTVSPost2010Prop47
 90
       50
102
RTVSPost2010PropOp47
 70
     1
102
RTVSPost2010Prop48
 90
       50
102
RTVSPost2010PropOp48
 70
     1
102
RTVSPost2010Prop49
280
     0
102
RTVSPost2010PropOp49
 70
     1
102
RTVSPost2010Prop50
 90
       50
102
RTVSPost2010PropOp50
 70
     1
102
RTVSPost2010Prop51ColorIndex
 90
      256
102
RTVSPost2010Prop51ColorRGB
 90
-16777216
102
RTVSPost2010PropOp51
 70
     0
102
RTVSPost2010Prop52
140
1.0
102
RTVSPost2010PropOp52
 70
     0
102
RTVSPost2010Prop53
 90
        2
102
RTVSPost2010PropOp53
 70
     1
102
RTVSPost2010Prop54
  1
strokes_ogs.tif
102
RTVSPost2010PropOp54
 70
     1
102
RTVSPost2010Prop55
280
     0
102
RTVSPost2010PropOp55
 70
     1
102
RTVSPost2010Prop56
140
1.0
102
RTVSPost2010PropOp56
 70
     1
102
RTVSPost2010Prop57
140
1.0
102
RTVSPost2010PropOp57
 70
     1
  0
XRECORD
  5
1FF
102
{ACAD_REACTORS
330
1FE
102
}
330
1FE
100
AcDbXrecord
280
     1
102
RTVSPropertyOp0
 70
     1
102
RTVSPropertyOp1
 70
     1
102
RTVSPropertyOp2
 70
     1
102
RTVSPropertyOp3
 70
     1
102
RTVSPropertyOp4
 70
     1
102
RTVSPropertyOp5
 70
     1
102
RTVSPropertyOp6
 70
     1
102
RTVSPropertyOp7
 70
     1
102
RTVSPropertyOp8
 70
     1
102
RTVSPropertyOp9
 70
     1
102
RTVSPropertyOp10
 70
     1
102
RTVSPropertyOp11
 70
     1
102
RTVSPropertyOp12
 70
     1
102
RTVSPropertyOp13
 70
     1
102
RTVSPropertyOp14
 70
     1
102
RTVSPropertyOp15
 70
     1
102
RTVSPropertyOp16
 70
     1
102
RTVSPropertyOp17
 70
     1
102
RTVSPropertyOp18
 70
     1
102
RTVSPropertyOp19
 70
     1
102
RTVSPropertyOp20
 70
     1
102
RTVSPropertyOp21
 70
     1
102
RTVSPropertyOp22
 70
     1
102
RTVSPropertyOp23
 70
     1
102
RTVSPropertyOp24
 70
     1
102
RTVSPropertyOp25
 70
     1
102
RTVSPropertyOp26
 70
     1
102
RTVSPropertyOp27
 70
     1
102
RTVSPropertyOp28
 70
     1
102
RTVSPropertyOp29
 70
     1
102
RTVSPropertyOp30
 70
     1
102
RTVSPropertyOp31
 70
     1
102
RTVSPropertyOp32
 70
     1
102
RTVSPropertyOp33
 70
     1
102
RTVSPropertyOp34
 70
     1
102
RTVSPropertyOp35
 70
     1
102
RTVSPropertyOp36
 70
     1
102
RTVSPropertyOp37
 70
     1
102
RTVSPropertyOp38
 70
     1
102
RTVSPropertyOp39
 70
     1
102
RTVSPropertyOp40
 70
     1
102
RTVSPropertyOp41
 70
     1
102
RTVSPropertyOp42
 70
     1
102
RTVSPropertyOp43
 70
     1
102
RTVSPropertyOp44
 70
     1
102
RTVSPropertyOp45
 70
     1
102
RTVSPropertyOp46
 70
     1
102
RTVSPropertyOp47
 70
     1
102
RTVSPropertyOp48
 70
     1
102
RTVSPropertyOp49
 70
     1
102
RTVSPropertyOp50
 70
     1
102
RTVSPropertyOp51
 70
     0
102
RTVSPropertyOp52
 70
     0
102
RTVSPropertyOp53
 70
     1
102
RTVSPropertyOp54
 70
     1
102
RTVSPropertyOp55
 70
     1
102
RTVSPropertyOp56
 70
     1
102
RTVSPropertyOp57
 70
     1
102
RTVSPost2010Prop28
280
     0
102
RTVSPost2010PropOp28
 70
     1
102
RTVSPost2010Prop29
280
     1
102
RTVSPost2010PropOp29
 70
     1
102
RTVSPost2010Prop30
280
     1
102
RTVSPost2010PropOp30
 70
     1
102
RTVSPost2010Prop31
280
     0
102
RTVSPost2010PropOp31
 70
     1
102
RTVSPost2010Prop32
280
     0
102
RTVSPost2010PropOp32
 70
     1
102
RTVSPost2010Prop33
280
     0
102
RTVSPost2010PropOp33
 70
     1
102
RTVSPost2010Prop34
280
     0
102
RTVSPost2010PropOp34
 70
     1
102
RTVSPost2010Prop35
280
     0
102
RTVSPost2010PropOp35
 70
     1
102
RTVSPost2010Prop36
280
     0
102
RTVSPost2010PropOp36
 70
     1
102
RTVSPost2010Prop37
 90
       50
102
RTVSPost2010PropOp37
 70
     1
102
RTVSPost2010Prop38
140
0.0
102
RTVSPost2010PropOp38
 70
     1
102
RTVSPost2010Prop39
140
1.0
102
RTVSPost2010PropOp39
 70
     1
102
RTVSPost2010Prop40
 90
        0
102
RTVSPost2010PropOp40
 70
     1
102
RTVSPost2010Prop41ColorIndex
 90
       18
102
RTVSPost2010Prop41ColorRGB
 90
        0
102
RTVSPost2010PropOp41
 70
     1
102
RTVSPost2010Prop42
 90
       50
102
RTVSPost2010PropOp42
 70
     1
102
RTVSPost2010Prop43
 90
        3
102
RTVSPost2010PropOp43
 70
     1
102
RTVSPost2010Prop44ColorIndex
 90
        5
102
RTVSPost2010Prop44ColorRGB
 90
      255
102
RTVSPost2010PropOp44
 70
     1
102
RTVSPost2010Prop45
280
     0
102
RTVSPost2010PropOp45
 70
     1
102
RTVSPost2010Prop46
 90
       50
102
RTVSPost2010PropOp46
 70
     1
102
RTVSPost2010Prop47
 90
       50
102
RTVSPost2010PropOp47
 70
     1
102
RTVSPost2010Prop48
 90
       50
102
RTVSPost2010PropOp48
 70
     1
102
RTVSPost2010Prop49
280
     0
102
RTVSPost2010PropOp49
 70
     1
102
RTVSPost2010Prop50
 90
       50
102
RTVSPost2010PropOp50
 70
     1
102
RTVSPost2010Prop51ColorIndex
 90
      256
102
RTVSPost2010Prop51ColorRGB
 90
-16777216
102
RTVSPost2010PropOp51
 70
     0
102
RTVSPost2010Prop52
140
1.0
102
RTVSPost2010PropOp52
 70
     0
102
RTVSPost2010Prop53
 90
        2
102
RTVSPost2010PropOp53
 70
     1
102
RTVSPost2010Prop54
  1
strokes_ogs.tif
102
RTVSPost2010PropOp54
 70
     1
102
RTVSPost2010Prop55
280
     0
102
RTVSPost2010PropOp55
 70
     1
102
RTVSPost2010Prop56
140
1.0
102
RTVSPost2010PropOp56
 70
     1
102
RTVSPost2010Prop57
140
1.0
102
RTVSPost2010PropOp57
 70
     1
  0
XRECORD
  5
213
102
{ACAD_REACTORS
330
212
102
}
330
212
100
AcDbXrecord
280
     1
102
RTVSPropertyOp0
 70
     0
102
RTVSPropertyOp1
 70
     0
102
RTVSPropertyOp2
 70
     0
102
RTVSPropertyOp3
 70
     0
102
RTVSPropertyOp4
 70
     0
102
RTVSPropertyOp5
 70
     0
102
RTVSPropertyOp6
 70
     0
102
RTVSPropertyOp7
 70
     0
102
RTVSPropertyOp8
 70
     0
102
RTVSPropertyOp9
 70
     0
102
RTVSPropertyOp10
 70
     0
102
RTVSPropertyOp11
 70
     0
102
RTVSPropertyOp12
 70
     0
102
RTVSPropertyOp13
 70
     0
102
RTVSPropertyOp14
 70
     2
102
RTVSPropertyOp15
 70
     0
102
RTVSPropertyOp16
 70
     0
102
RTVSPropertyOp17
 70
     0
102
RTVSPropertyOp18
 70
     0
102
RTVSPropertyOp19
 70
     0
102
RTVSPropertyOp20
 70
     0
102
RTVSPropertyOp21
 70
     0
102
RTVSPropertyOp22
 70
     0
102
RTVSPropertyOp23
 70
     0
102
RTVSPropertyOp24
 70
     0
102
RTVSPropertyOp25
 70
     0
102
RTVSPropertyOp26
 70
     0
102
RTVSPropertyOp27
 70
     0
102
RTVSPropertyOp28
 70
     0
102
RTVSPropertyOp29
 70
     0
102
RTVSPropertyOp30
 70
     0
102
RTVSPropertyOp31
 70
     0
102
RTVSPropertyOp32
 70
     0
102
RTVSPropertyOp33
 70
     0
102
RTVSPropertyOp34
 70
     0
102
RTVSPropertyOp35
 70
     0
102
RTVSPropertyOp36
 70
     0
102
RTVSPropertyOp37
 70
     0
102
RTVSPropertyOp38
 70
     0
102
RTVSPropertyOp39
 70
     0
102
RTVSPropertyOp40
 70
     0
102
RTVSPropertyOp41
 70
     0
102
RTVSPropertyOp42
 70
     0
102
RTVSPropertyOp43
 70
     0
102
RTVSPropertyOp44
 70
     0
102
RTVSPropertyOp45
 70
     0
102
RTVSPropertyOp46
 70
     0
102
RTVSPropertyOp47
 70
     0
102
RTVSPropertyOp48
 70
     0
102
RTVSPropertyOp49
 70
     0
102
RTVSPropertyOp50
 70
     0
102
RTVSPropertyOp51
 70
     0
102
RTVSPropertyOp52
 70
     0
102
RTVSPropertyOp53
 70
     0
102
RTVSPropertyOp54
 70
     0
102
RTVSPropertyOp55
 70
     0
102
RTVSPropertyOp56
 70
     0
102
RTVSPropertyOp57
 70
     0
102
RTVSPost2010Prop28
280
     0
102
RTVSPost2010PropOp28
 70
     0
102
RTVSPost2010Prop29
280
     1
102
RTVSPost2010PropOp29
 70
     0
102
RTVSPost2010Prop30
280
     1
102
RTVSPost2010PropOp30
 70
     0
102
RTVSPost2010Prop31
280
     0
102
RTVSPost2010PropOp31
 70
     0
102
RTVSPost2010Prop32
280
     0
102
RTVSPost2010PropOp32
 70
     0
102
RTVSPost2010Prop33
280
     0
102
RTVSPost2010PropOp33
 70
     0
102
RTVSPost2010Prop34
280
     0
102
RTVSPost2010PropOp34
 70
     0
102
RTVSPost2010Prop35
280
     0
102
RTVSPost2010PropOp35
 70
     0
102
RTVSPost2010Prop36
280
     0
102
RTVSPost2010PropOp36
 70
     0
102
RTVSPost2010Prop37
 90
       50
102
RTVSPost2010PropOp37
 70
     0
102
RTVSPost2010Prop38
140
0.0
102
RTVSPost2010PropOp38
 70
     0
102
RTVSPost2010Prop39
140
1.0
102
RTVSPost2010PropOp39
 70
     0
102
RTVSPost2010Prop40
 90
        0
102
RTVSPost2010PropOp40
 70
     0
102
RTVSPost2010Prop41ColorIndex
 90
       18
102
RTVSPost2010Prop41ColorRGB
 90
        0
102
RTVSPost2010PropOp41
 70
     0
102
RTVSPost2010Prop42
 90
       50
102
RTVSPost2010PropOp42
 70
     0
102
RTVSPost2010Prop43
 90
        3
102
RTVSPost2010PropOp43
 70
     0
102
RTVSPost2010Prop44ColorIndex
 90
        5
102
RTVSPost2010Prop44ColorRGB
 90
      255
102
RTVSPost2010PropOp44
 70
     0
102
RTVSPost2010Prop45
280
     0
102
RTVSPost2010PropOp45
 70
     0
102
RTVSPost2010Prop46
 90
       50
102
RTVSPost2010PropOp46
 70
     0
102
RTVSPost2010Prop47
 90
       50
102
RTVSPost2010PropOp47
 70
     0
102
RTVSPost2010Prop48
 90
       50
102
RTVSPost2010PropOp48
 70
     0
102
RTVSPost2010Prop49
280
     0
102
RTVSPost2010PropOp49
 70
     0
102
RTVSPost2010Prop50
 90
       50
102
RTVSPost2010PropOp50
 70
     0
102
RTVSPost2010Prop51ColorIndex
 90
      256
102
RTVSPost2010Prop51ColorRGB
 90
-16777216
102
RTVSPost2010PropOp51
 70
     0
102
RTVSPost2010Prop52
140
1.0
102
RTVSPost2010PropOp52
 70
     0
102
RTVSPost2010Prop53
 90
        2
102
RTVSPost2010PropOp53
 70
     0
102
RTVSPost2010Prop54
  1
strokes_ogs.tif
102
RTVSPost2010PropOp54
 70
     0
102
RTVSPost2010Prop55
280
     0
102
RTVSPost2010PropOp55
 70
     0
102
RTVSPost2010Prop56
140
1.0
102
RTVSPost2010PropOp56
 70
     0
102
RTVSPost2010Prop57
140
1.0
102
RTVSPost2010PropOp57
 70
     0
  0
XRECORD
  5
20D
102
{ACAD_REACTORS
330
20C
102
}
330
20C
100
AcDbXrecord
280
     1
102
RTVSPropertyOp0
 70
     1
102
RTVSPropertyOp1
 70
     1
102
RTVSPropertyOp2
 70
     1
102
RTVSPropertyOp3
 70
     1
102
RTVSPropertyOp4
 70
     1
102
RTVSPropertyOp5
 70
     1
102
RTVSPropertyOp6
 70
     1
102
RTVSPropertyOp7
 70
     1
102
RTVSPropertyOp8
 70
     1
102
RTVSPropertyOp9
 70
     1
102
RTVSPropertyOp10
 70
     1
102
RTVSPropertyOp11
 70
     1
102
RTVSPropertyOp12
 70
     1
102
RTVSPropertyOp13
 70
     1
102
RTVSPropertyOp14
 70
     1
102
RTVSPropertyOp15
 70
     1
102
RTVSPropertyOp16
 70
     1
102
RTVSPropertyOp17
 70
     1
102
RTVSPropertyOp18
 70
     1
102
RTVSPropertyOp19
 70
     1
102
RTVSPropertyOp20
 70
     1
102
RTVSPropertyOp21
 70
     1
102
RTVSPropertyOp22
 70
     1
102
RTVSPropertyOp23
 70
     1
102
RTVSPropertyOp24
 70
     1
102
RTVSPropertyOp25
 70
     1
102
RTVSPropertyOp26
 70
     1
102
RTVSPropertyOp27
 70
     1
102
RTVSPropertyOp28
 70
     1
102
RTVSPropertyOp29
 70
     1
102
RTVSPropertyOp30
 70
     1
102
RTVSPropertyOp31
 70
     1
102
RTVSPropertyOp32
 70
     1
102
RTVSPropertyOp33
 70
     1
102
RTVSPropertyOp34
 70
     1
102
RTVSPropertyOp35
 70
     1
102
RTVSPropertyOp36
 70
     1
102
RTVSPropertyOp37
 70
     1
102
RTVSPropertyOp38
 70
     1
102
RTVSPropertyOp39
 70
     1
102
RTVSPropertyOp40
 70
     1
102
RTVSPropertyOp41
 70
     1
102
RTVSPropertyOp42
 70
     1
102
RTVSPropertyOp43
 70
     1
102
RTVSPropertyOp44
 70
     1
102
RTVSPropertyOp45
 70
     1
102
RTVSPropertyOp46
 70
     1
102
RTVSPropertyOp47
 70
     1
102
RTVSPropertyOp48
 70
     1
102
RTVSPropertyOp49
 70
     1
102
RTVSPropertyOp50
 70
     1
102
RTVSPropertyOp51
 70
     0
102
RTVSPropertyOp52
 70
     0
102
RTVSPropertyOp53
 70
     1
102
RTVSPropertyOp54
 70
     1
102
RTVSPropertyOp55
 70
     1
102
RTVSPropertyOp56
 70
     1
102
RTVSPropertyOp57
 70
     1
102
RTVSPost2010Prop28
280
     0
102
RTVSPost2010PropOp28
 70
     1
102
RTVSPost2010Prop29
280
     1
102
RTVSPost2010PropOp29
 70
     1
102
RTVSPost2010Prop30
280
     1
102
RTVSPost2010PropOp30
 70
     1
102
RTVSPost2010Prop31
280
     0
102
RTVSPost2010PropOp31
 70
     1
102
RTVSPost2010Prop32
280
     0
102
RTVSPost2010PropOp32
 70
     1
102
RTVSPost2010Prop33
280
     0
102
RTVSPost2010PropOp33
 70
     1
102
RTVSPost2010Prop34
280
     0
102
RTVSPost2010PropOp34
 70
     1
102
RTVSPost2010Prop35
280
     0
102
RTVSPost2010PropOp35
 70
     1
102
RTVSPost2010Prop36
280
     0
102
RTVSPost2010PropOp36
 70
     1
102
RTVSPost2010Prop37
 90
       50
102
RTVSPost2010PropOp37
 70
     1
102
RTVSPost2010Prop38
140
0.0
102
RTVSPost2010PropOp38
 70
     1
102
RTVSPost2010Prop39
140
1.0
102
RTVSPost2010PropOp39
 70
     1
102
RTVSPost2010Prop40
 90
        0
102
RTVSPost2010PropOp40
 70
     1
102
RTVSPost2010Prop41ColorIndex
 90
       18
102
RTVSPost2010Prop41ColorRGB
 90
        0
102
RTVSPost2010PropOp41
 70
     1
102
RTVSPost2010Prop42
 90
       50
102
RTVSPost2010PropOp42
 70
     1
102
RTVSPost2010Prop43
 90
        3
102
RTVSPost2010PropOp43
 70
     1
102
RTVSPost2010Prop44ColorIndex
 90
        5
102
RTVSPost2010Prop44ColorRGB
 90
      255
102
RTVSPost2010PropOp44
 70
     1
102
RTVSPost2010Prop45
280
     0
102
RTVSPost2010PropOp45
 70
     1
102
RTVSPost2010Prop46
 90
       50
102
RTVSPost2010PropOp46
 70
     1
102
RTVSPost2010Prop47
 90
       50
102
RTVSPost2010PropOp47
 70
     1
102
RTVSPost2010Prop48
 90
       50
102
RTVSPost2010PropOp48
 70
     1
102
RTVSPost2010Prop49
280
     0
102
RTVSPost2010PropOp49
 70
     1
102
RTVSPost2010Prop50
 90
       50
102
RTVSPost2010PropOp50
 70
     1
102
RTVSPost2010Prop51ColorIndex
 90
      256
102
RTVSPost2010Prop51ColorRGB
 90
-16777216
102
RTVSPost2010PropOp51
 70
     0
102
RTVSPost2010Prop52
140
1.0
102
RTVSPost2010PropOp52
 70
     0
102
RTVSPost2010Prop53
 90
        2
102
RTVSPost2010PropOp53
 70
     1
102
RTVSPost2010Prop54
  1
strokes_ogs.tif
102
RTVSPost2010PropOp54
 70
     1
102
RTVSPost2010Prop55
280
     0
102
RTVSPost2010PropOp55
 70
     1
102
RTVSPost2010Prop56
140
1.0
102
RTVSPost2010PropOp56
 70
     1
102
RTVSPost2010Prop57
140
1.0
102
RTVSPost2010PropOp57
 70
     1
  0
XRECORD
  5
215
102
{ACAD_REACTORS
330
214
102
}
330
214
100
AcDbXrecord
280
     1
102
RTVSPropertyOp0
 70
     0
102
RTVSPropertyOp1
 70
     0
102
RTVSPropertyOp2
 70
     0
102
RTVSPropertyOp3
 70
     0
102
RTVSPropertyOp4
 70
     0
102
RTVSPropertyOp5
 70
     0
102
RTVSPropertyOp6
 70
     0
102
RTVSPropertyOp7
 70
     0
102
RTVSPropertyOp8
 70
     0
102
RTVSPropertyOp9
 70
     0
102
RTVSPropertyOp10
 70
     0
102
RTVSPropertyOp11
 70
     0
102
RTVSPropertyOp12
 70
     0
102
RTVSPropertyOp13
 70
     0
102
RTVSPropertyOp14
 70
     2
102
RTVSPropertyOp15
 70
     0
102
RTVSPropertyOp16
 70
     0
102
RTVSPropertyOp17
 70
     0
102
RTVSPropertyOp18
 70
     0
102
RTVSPropertyOp19
 70
     0
102
RTVSPropertyOp20
 70
     0
102
RTVSPropertyOp21
 70
     0
102
RTVSPropertyOp22
 70
     0
102
RTVSPropertyOp23
 70
     0
102
RTVSPropertyOp24
 70
     0
102
RTVSPropertyOp25
 70
     0
102
RTVSPropertyOp26
 70
     0
102
RTVSPropertyOp27
 70
     0
102
RTVSPropertyOp28
 70
     0
102
RTVSPropertyOp29
 70
     0
102
RTVSPropertyOp30
 70
     0
102
RTVSPropertyOp31
 70
     0
102
RTVSPropertyOp32
 70
     0
102
RTVSPropertyOp33
 70
     0
102
RTVSPropertyOp34
 70
     0
102
RTVSPropertyOp35
 70
     0
102
RTVSPropertyOp36
 70
     0
102
RTVSPropertyOp37
 70
     0
102
RTVSPropertyOp38
 70
     0
102
RTVSPropertyOp39
 70
     0
102
RTVSPropertyOp40
 70
     0
102
RTVSPropertyOp41
 70
     0
102
RTVSPropertyOp42
 70
     0
102
RTVSPropertyOp43
 70
     0
102
RTVSPropertyOp44
 70
     0
102
RTVSPropertyOp45
 70
     0
102
RTVSPropertyOp46
 70
     0
102
RTVSPropertyOp47
 70
     0
102
RTVSPropertyOp48
 70
     0
102
RTVSPropertyOp49
 70
     0
102
RTVSPropertyOp50
 70
     0
102
RTVSPropertyOp51
 70
     0
102
RTVSPropertyOp52
 70
     0
102
RTVSPropertyOp53
 70
     0
102
RTVSPropertyOp54
 70
     0
102
RTVSPropertyOp55
 70
     0
102
RTVSPropertyOp56
 70
     0
102
RTVSPropertyOp57
 70
     0
102
RTVSPost2010Prop28
280
     0
102
RTVSPost2010PropOp28
 70
     0
102
RTVSPost2010Prop29
280
     1
102
RTVSPost2010PropOp29
 70
     0
102
RTVSPost2010Prop30
280
     1
102
RTVSPost2010PropOp30
 70
     0
102
RTVSPost2010Prop31
280
     0
102
RTVSPost2010PropOp31
 70
     0
102
RTVSPost2010Prop32
280
     0
102
RTVSPost2010PropOp32
 70
     0
102
RTVSPost2010Prop33
280
     0
102
RTVSPost2010PropOp33
 70
     0
102
RTVSPost2010Prop34
280
     0
102
RTVSPost2010PropOp34
 70
     0
102
RTVSPost2010Prop35
280
     0
102
RTVSPost2010PropOp35
 70
     0
102
RTVSPost2010Prop36
280
     0
102
RTVSPost2010PropOp36
 70
     0
102
RTVSPost2010Prop37
 90
       50
102
RTVSPost2010PropOp37
 70
     0
102
RTVSPost2010Prop38
140
0.0
102
RTVSPost2010PropOp38
 70
     0
102
RTVSPost2010Prop39
140
1.0
102
RTVSPost2010PropOp39
 70
     0
102
RTVSPost2010Prop40
 90
        0
102
RTVSPost2010PropOp40
 70
     0
102
RTVSPost2010Prop41ColorIndex
 90
       18
102
RTVSPost2010Prop41ColorRGB
 90
        0
102
RTVSPost2010PropOp41
 70
     0
102
RTVSPost2010Prop42
 90
       50
102
RTVSPost2010PropOp42
 70
     0
102
RTVSPost2010Prop43
 90
        3
102
RTVSPost2010PropOp43
 70
     0
102
RTVSPost2010Prop44ColorIndex
 90
        5
102
RTVSPost2010Prop44ColorRGB
 90
      255
102
RTVSPost2010PropOp44
 70
     0
102
RTVSPost2010Prop45
280
     0
102
RTVSPost2010PropOp45
 70
     0
102
RTVSPost2010Prop46
 90
       50
102
RTVSPost2010PropOp46
 70
     0
102
RTVSPost2010Prop47
 90
       50
102
RTVSPost2010PropOp47
 70
     0
102
RTVSPost2010Prop48
 90
       50
102
RTVSPost2010PropOp48
 70
     0
102
RTVSPost2010Prop49
280
     0
102
RTVSPost2010PropOp49
 70
     0
102
RTVSPost2010Prop50
 90
       50
102
RTVSPost2010PropOp50
 70
     0
102
RTVSPost2010Prop51ColorIndex
 90
      256
102
RTVSPost2010Prop51ColorRGB
 90
-16777216
102
RTVSPost2010PropOp51
 70
     0
102
RTVSPost2010Prop52
140
1.0
102
RTVSPost2010PropOp52
 70
     0
102
RTVSPost2010Prop53
 90
        2
102
RTVSPost2010PropOp53
 70
     0
102
RTVSPost2010Prop54
  1
strokes_ogs.tif
102
RTVSPost2010PropOp54
 70
     0
102
RTVSPost2010Prop55
280
     0
102
RTVSPost2010PropOp55
 70
     0
102
RTVSPost2010Prop56
140
1.0
102
RTVSPost2010PropOp56
 70
     0
102
RTVSPost2010Prop57
140
1.0
102
RTVSPost2010PropOp57
 70
     0
  0
XRECORD
  5
203
102
{ACAD_REACTORS
330
202
102
}
330
202
100
AcDbXrecord
280
     1
102
RTVSPropertyOp0
 70
     1
102
RTVSPropertyOp1
 70
     1
102
RTVSPropertyOp2
 70
     1
102
RTVSPropertyOp3
 70
     1
102
RTVSPropertyOp4
 70
     1
102
RTVSPropertyOp5
 70
     1
102
RTVSPropertyOp6
 70
     1
102
RTVSPropertyOp7
 70
     1
102
RTVSPropertyOp8
 70
     1
102
RTVSPropertyOp9
 70
     1
102
RTVSPropertyOp10
 70
     1
102
RTVSPropertyOp11
 70
     1
102
RTVSPropertyOp12
 70
     1
102
RTVSPropertyOp13
 70
     1
102
RTVSPropertyOp14
 70
     1
102
RTVSPropertyOp15
 70
     1
102
RTVSPropertyOp16
 70
     1
102
RTVSPropertyOp17
 70
     1
102
RTVSPropertyOp18
 70
     1
102
RTVSPropertyOp19
 70
     1
102
RTVSPropertyOp20
 70
     1
102
RTVSPropertyOp21
 70
     1
102
RTVSPropertyOp22
 70
     1
102
RTVSPropertyOp23
 70
     1
102
RTVSPropertyOp24
 70
     1
102
RTVSPropertyOp25
 70
     1
102
RTVSPropertyOp26
 70
     1
102
RTVSPropertyOp27
 70
     1
102
RTVSPropertyOp28
 70
     1
102
RTVSPropertyOp29
 70
     1
102
RTVSPropertyOp30
 70
     1
102
RTVSPropertyOp31
 70
     1
102
RTVSPropertyOp32
 70
     1
102
RTVSPropertyOp33
 70
     1
102
RTVSPropertyOp34
 70
     1
102
RTVSPropertyOp35
 70
     1
102
RTVSPropertyOp36
 70
     1
102
RTVSPropertyOp37
 70
     1
102
RTVSPropertyOp38
 70
     1
102
RTVSPropertyOp39
 70
     1
102
RTVSPropertyOp40
 70
     1
102
RTVSPropertyOp41
 70
     1
102
RTVSPropertyOp42
 70
     1
102
RTVSPropertyOp43
 70
     1
102
RTVSPropertyOp44
 70
     1
102
RTVSPropertyOp45
 70
     1
102
RTVSPropertyOp46
 70
     1
102
RTVSPropertyOp47
 70
     1
102
RTVSPropertyOp48
 70
     1
102
RTVSPropertyOp49
 70
     1
102
RTVSPropertyOp50
 70
     1
102
RTVSPropertyOp51
 70
     0
102
RTVSPropertyOp52
 70
     0
102
RTVSPropertyOp53
 70
     1
102
RTVSPropertyOp54
 70
     1
102
RTVSPropertyOp55
 70
     1
102
RTVSPropertyOp56
 70
     1
102
RTVSPropertyOp57
 70
     1
102
RTVSPost2010Prop28
280
     0
102
RTVSPost2010PropOp28
 70
     1
102
RTVSPost2010Prop29
280
     1
102
RTVSPost2010PropOp29
 70
     1
102
RTVSPost2010Prop30
280
     1
102
RTVSPost2010PropOp30
 70
     1
102
RTVSPost2010Prop31
280
     0
102
RTVSPost2010PropOp31
 70
     1
102
RTVSPost2010Prop32
280
     0
102
RTVSPost2010PropOp32
 70
     1
102
RTVSPost2010Prop33
280
     0
102
RTVSPost2010PropOp33
 70
     1
102
RTVSPost2010Prop34
280
     0
102
RTVSPost2010PropOp34
 70
     1
102
RTVSPost2010Prop35
280
     0
102
RTVSPost2010PropOp35
 70
     1
102
RTVSPost2010Prop36
280
     0
102
RTVSPost2010PropOp36
 70
     1
102
RTVSPost2010Prop37
 90
       50
102
RTVSPost2010PropOp37
 70
     1
102
RTVSPost2010Prop38
140
0.0
102
RTVSPost2010PropOp38
 70
     1
102
RTVSPost2010Prop39
140
1.0
102
RTVSPost2010PropOp39
 70
     1
102
RTVSPost2010Prop40
 90
        0
102
RTVSPost2010PropOp40
 70
     1
102
RTVSPost2010Prop41ColorIndex
 90
       18
102
RTVSPost2010Prop41ColorRGB
 90
        0
102
RTVSPost2010PropOp41
 70
     1
102
RTVSPost2010Prop42
 90
       50
102
RTVSPost2010PropOp42
 70
     1
102
RTVSPost2010Prop43
 90
        3
102
RTVSPost2010PropOp43
 70
     1
102
RTVSPost2010Prop44ColorIndex
 90
        5
102
RTVSPost2010Prop44ColorRGB
 90
      255
102
RTVSPost2010PropOp44
 70
     1
102
RTVSPost2010Prop45
280
     0
102
RTVSPost2010PropOp45
 70
     1
102
RTVSPost2010Prop46
 90
       50
102
RTVSPost2010PropOp46
 70
     1
102
RTVSPost2010Prop47
 90
       50
102
RTVSPost2010PropOp47
 70
     1
102
RTVSPost2010Prop48
 90
       50
102
RTVSPost2010PropOp48
 70
     1
102
RTVSPost2010Prop49
280
     0
102
RTVSPost2010PropOp49
 70
     1
102
RTVSPost2010Prop50
 90
       50
102
RTVSPost2010PropOp50
 70
     1
102
RTVSPost2010Prop51ColorIndex
 90
      256
102
RTVSPost2010Prop51ColorRGB
 90
-16777216
102
RTVSPost2010PropOp51
 70
     0
102
RTVSPost2010Prop52
140
1.0
102
RTVSPost2010PropOp52
 70
     0
102
RTVSPost2010Prop53
 90
        2
102
RTVSPost2010PropOp53
 70
     1
102
RTVSPost2010Prop54
  1
strokes_ogs.tif
102
RTVSPost2010PropOp54
 70
     1
102
RTVSPost2010Prop55
280
     0
102
RTVSPost2010PropOp55
 70
     1
102
RTVSPost2010Prop56
140
1.0
102
RTVSPost2010PropOp56
 70
     1
102
RTVSPost2010Prop57
140
1.0
102
RTVSPost2010PropOp57
 70
     1
  0
XRECORD
  5
221
102
{ACAD_REACTORS
330
220
102
}
330
220
100
AcDbXrecord
280
     1
102
RTVSPropertyOp0
 70
     1
102
RTVSPropertyOp1
 70
     1
102
RTVSPropertyOp2
 70
     1
102
RTVSPropertyOp3
 70
     1
102
RTVSPropertyOp4
 70
     1
102
RTVSPropertyOp5
 70
     1
102
RTVSPropertyOp6
 70
     1
102
RTVSPropertyOp7
 70
     1
102
RTVSPropertyOp8
 70
     1
102
RTVSPropertyOp9
 70
     1
102
RTVSPropertyOp10
 70
     1
102
RTVSPropertyOp11
 70
     1
102
RTVSPropertyOp12
 70
     1
102
RTVSPropertyOp13
 70
     1
102
RTVSPropertyOp14
 70
     1
102
RTVSPropertyOp15
 70
     1
102
RTVSPropertyOp16
 70
     1
102
RTVSPropertyOp17
 70
     1
102
RTVSPropertyOp18
 70
     1
102
RTVSPropertyOp19
 70
     1
102
RTVSPropertyOp20
 70
     1
102
RTVSPropertyOp21
 70
     1
102
RTVSPropertyOp22
 70
     1
102
RTVSPropertyOp23
 70
     1
102
RTVSPropertyOp24
 70
     1
102
RTVSPropertyOp25
 70
     1
102
RTVSPropertyOp26
 70
     1
102
RTVSPropertyOp27
 70
     1
102
RTVSPropertyOp28
 70
     1
102
RTVSPropertyOp29
 70
     1
102
RTVSPropertyOp30
 70
     1
102
RTVSPropertyOp31
 70
     1
102
RTVSPropertyOp32
 70
     1
102
RTVSPropertyOp33
 70
     1
102
RTVSPropertyOp34
 70
     1
102
RTVSPropertyOp35
 70
     1
102
RTVSPropertyOp36
 70
     1
102
RTVSPropertyOp37
 70
     1
102
RTVSPropertyOp38
 70
     1
102
RTVSPropertyOp39
 70
     1
102
RTVSPropertyOp40
 70
     1
102
RTVSPropertyOp41
 70
     1
102
RTVSPropertyOp42
 70
     1
102
RTVSPropertyOp43
 70
     1
102
RTVSPropertyOp44
 70
     1
102
RTVSPropertyOp45
 70
     1
102
RTVSPropertyOp46
 70
     1
102
RTVSPropertyOp47
 70
     1
102
RTVSPropertyOp48
 70
     1
102
RTVSPropertyOp49
 70
     1
102
RTVSPropertyOp50
 70
     1
102
RTVSPropertyOp51
 70
     0
102
RTVSPropertyOp52
 70
     0
102
RTVSPropertyOp53
 70
     1
102
RTVSPropertyOp54
 70
     1
102
RTVSPropertyOp55
 70
     1
102
RTVSPropertyOp56
 70
     1
102
RTVSPropertyOp57
 70
     1
102
RTVSPost2010Prop28
280
     0
102
RTVSPost2010PropOp28
 70
     1
102
RTVSPost2010Prop29
280
     1
102
RTVSPost2010PropOp29
 70
     1
102
RTVSPost2010Prop30
280
     1
102
RTVSPost2010PropOp30
 70
     1
102
RTVSPost2010Prop31
280
     0
102
RTVSPost2010PropOp31
 70
     1
102
RTVSPost2010Prop32
280
     0
102
RTVSPost2010PropOp32
 70
     1
102
RTVSPost2010Prop33
280
     0
102
RTVSPost2010PropOp33
 70
     1
102
RTVSPost2010Prop34
280
     0
102
RTVSPost2010PropOp34
 70
     1
102
RTVSPost2010Prop35
280
     0
102
RTVSPost2010PropOp35
 70
     1
102
RTVSPost2010Prop36
280
     0
102
RTVSPost2010PropOp36
 70
     1
102
RTVSPost2010Prop37
 90
       50
102
RTVSPost2010PropOp37
 70
     1
102
RTVSPost2010Prop38
140
0.0
102
RTVSPost2010PropOp38
 70
     1
102
RTVSPost2010Prop39
140
1.0
102
RTVSPost2010PropOp39
 70
     1
102
RTVSPost2010Prop40
 90
        0
102
RTVSPost2010PropOp40
 70
     1
102
RTVSPost2010Prop41ColorIndex
 90
       18
102
RTVSPost2010Prop41ColorRGB
 90
        0
102
RTVSPost2010PropOp41
 70
     1
102
RTVSPost2010Prop42
 90
       50
102
RTVSPost2010PropOp42
 70
     1
102
RTVSPost2010Prop43
 90
        3
102
RTVSPost2010PropOp43
 70
     1
102
RTVSPost2010Prop44ColorIndex
 90
        5
102
RTVSPost2010Prop44ColorRGB
 90
      255
102
RTVSPost2010PropOp44
 70
     1
102
RTVSPost2010Prop45
280
     0
102
RTVSPost2010PropOp45
 70
     1
102
RTVSPost2010Prop46
 90
       50
102
RTVSPost2010PropOp46
 70
     1
102
RTVSPost2010Prop47
 90
       50
102
RTVSPost2010PropOp47
 70
     1
102
RTVSPost2010Prop48
 90
       50
102
RTVSPost2010PropOp48
 70
     1
102
RTVSPost2010Prop49
280
     0
102
RTVSPost2010PropOp49
 70
     1
102
RTVSPost2010Prop50
 90
       50
102
RTVSPost2010PropOp50
 70
     1
102
RTVSPost2010Prop51ColorIndex
 90
      256
102
RTVSPost2010Prop51ColorRGB
 90
-16777216
102
RTVSPost2010PropOp51
 70
     0
102
RTVSPost2010Prop52
140
1.0
102
RTVSPost2010PropOp52
 70
     0
102
RTVSPost2010Prop53
 90
        2
102
RTVSPost2010PropOp53
 70
     1
102
RTVSPost2010Prop54
  1
strokes_ogs.tif
102
RTVSPost2010PropOp54
 70
     1
102
RTVSPost2010Prop55
280
     0
102
RTVSPost2010PropOp55
 70
     1
102
RTVSPost2010Prop56
140
1.0
102
RTVSPost2010PropOp56
 70
     1
102
RTVSPost2010Prop57
140
1.0
102
RTVSPost2010PropOp57
 70
     1
  0
XRECORD
  5
21F
102
{ACAD_REACTORS
330
21E
102
}
330
21E
100
AcDbXrecord
280
     1
102
RTVSPropertyOp0
 70
     1
102
RTVSPropertyOp1
 70
     1
102
RTVSPropertyOp2
 70
     1
102
RTVSPropertyOp3
 70
     1
102
RTVSPropertyOp4
 70
     1
102
RTVSPropertyOp5
 70
     1
102
RTVSPropertyOp6
 70
     1
102
RTVSPropertyOp7
 70
     1
102
RTVSPropertyOp8
 70
     1
102
RTVSPropertyOp9
 70
     1
102
RTVSPropertyOp10
 70
     1
102
RTVSPropertyOp11
 70
     1
102
RTVSPropertyOp12
 70
     1
102
RTVSPropertyOp13
 70
     1
102
RTVSPropertyOp14
 70
     1
102
RTVSPropertyOp15
 70
     1
102
RTVSPropertyOp16
 70
     1
102
RTVSPropertyOp17
 70
     1
102
RTVSPropertyOp18
 70
     1
102
RTVSPropertyOp19
 70
     1
102
RTVSPropertyOp20
 70
     1
102
RTVSPropertyOp21
 70
     1
102
RTVSPropertyOp22
 70
     1
102
RTVSPropertyOp23
 70
     1
102
RTVSPropertyOp24
 70
     1
102
RTVSPropertyOp25
 70
     1
102
RTVSPropertyOp26
 70
     1
102
RTVSPropertyOp27
 70
     1
102
RTVSPropertyOp28
 70
     1
102
RTVSPropertyOp29
 70
     1
102
RTVSPropertyOp30
 70
     1
102
RTVSPropertyOp31
 70
     1
102
RTVSPropertyOp32
 70
     1
102
RTVSPropertyOp33
 70
     1
102
RTVSPropertyOp34
 70
     1
102
RTVSPropertyOp35
 70
     1
102
RTVSPropertyOp36
 70
     1
102
RTVSPropertyOp37
 70
     1
102
RTVSPropertyOp38
 70
     1
102
RTVSPropertyOp39
 70
     1
102
RTVSPropertyOp40
 70
     1
102
RTVSPropertyOp41
 70
     1
102
RTVSPropertyOp42
 70
     1
102
RTVSPropertyOp43
 70
     1
102
RTVSPropertyOp44
 70
     1
102
RTVSPropertyOp45
 70
     1
102
RTVSPropertyOp46
 70
     1
102
RTVSPropertyOp47
 70
     1
102
RTVSPropertyOp48
 70
     1
102
RTVSPropertyOp49
 70
     1
102
RTVSPropertyOp50
 70
     1
102
RTVSPropertyOp51
 70
     0
102
RTVSPropertyOp52
 70
     0
102
RTVSPropertyOp53
 70
     1
102
RTVSPropertyOp54
 70
     1
102
RTVSPropertyOp55
 70
     1
102
RTVSPropertyOp56
 70
     1
102
RTVSPropertyOp57
 70
     1
102
RTVSPost2010Prop28
280
     0
102
RTVSPost2010PropOp28
 70
     1
102
RTVSPost2010Prop29
280
     1
102
RTVSPost2010PropOp29
 70
     1
102
RTVSPost2010Prop30
280
     1
102
RTVSPost2010PropOp30
 70
     1
102
RTVSPost2010Prop31
280
     0
102
RTVSPost2010PropOp31
 70
     1
102
RTVSPost2010Prop32
280
     0
102
RTVSPost2010PropOp32
 70
     1
102
RTVSPost2010Prop33
280
     0
102
RTVSPost2010PropOp33
 70
     1
102
RTVSPost2010Prop34
280
     0
102
RTVSPost2010PropOp34
 70
     1
102
RTVSPost2010Prop35
280
     0
102
RTVSPost2010PropOp35
 70
     1
102
RTVSPost2010Prop36
280
     0
102
RTVSPost2010PropOp36
 70
     1
102
RTVSPost2010Prop37
 90
       50
102
RTVSPost2010PropOp37
 70
     1
102
RTVSPost2010Prop38
140
0.0
102
RTVSPost2010PropOp38
 70
     1
102
RTVSPost2010Prop39
140
1.0
102
RTVSPost2010PropOp39
 70
     1
102
RTVSPost2010Prop40
 90
        0
102
RTVSPost2010PropOp40
 70
     1
102
RTVSPost2010Prop41ColorIndex
 90
       18
102
RTVSPost2010Prop41ColorRGB
 90
        0
102
RTVSPost2010PropOp41
 70
     1
102
RTVSPost2010Prop42
 90
       50
102
RTVSPost2010PropOp42
 70
     1
102
RTVSPost2010Prop43
 90
        3
102
RTVSPost2010PropOp43
 70
     1
102
RTVSPost2010Prop44ColorIndex
 90
        5
102
RTVSPost2010Prop44ColorRGB
 90
      255
102
RTVSPost2010PropOp44
 70
     1
102
RTVSPost2010Prop45
280
     0
102
RTVSPost2010PropOp45
 70
     1
102
RTVSPost2010Prop46
 90
       50
102
RTVSPost2010PropOp46
 70
     1
102
RTVSPost2010Prop47
 90
       50
102
RTVSPost2010PropOp47
 70
     1
102
RTVSPost2010Prop48
 90
       50
102
RTVSPost2010PropOp48
 70
     1
102
RTVSPost2010Prop49
280
     0
102
RTVSPost2010PropOp49
 70
     1
102
RTVSPost2010Prop50
 90
       50
102
RTVSPost2010PropOp50
 70
     1
102
RTVSPost2010Prop51ColorIndex
 90
      256
102
RTVSPost2010Prop51ColorRGB
 90
-16777216
102
RTVSPost2010PropOp51
 70
     0
102
RTVSPost2010Prop52
140
1.0
102
RTVSPost2010PropOp52
 70
     0
102
RTVSPost2010Prop53
 90
        2
102
RTVSPost2010PropOp53
 70
     1
102
RTVSPost2010Prop54
  1
strokes_ogs.tif
102
RTVSPost2010PropOp54
 70
     1
102
RTVSPost2010Prop55
280
     0
102
RTVSPost2010PropOp55
 70
     1
102
RTVSPost2010Prop56
140
1.0
102
RTVSPost2010PropOp56
 70
     1
102
RTVSPost2010Prop57
140
1.0
102
RTVSPost2010PropOp57
 70
     1
  0
XRECORD
  5
219
102
{ACAD_REACTORS
330
218
102
}
330
218
100
AcDbXrecord
280
     1
102
RTVSPropertyOp0
 70
     1
102
RTVSPropertyOp1
 70
     1
102
RTVSPropertyOp2
 70
     1
102
RTVSPropertyOp3
 70
     1
102
RTVSPropertyOp4
 70
     1
102
RTVSPropertyOp5
 70
     1
102
RTVSPropertyOp6
 70
     1
102
RTVSPropertyOp7
 70
     1
102
RTVSPropertyOp8
 70
     1
102
RTVSPropertyOp9
 70
     1
102
RTVSPropertyOp10
 70
     1
102
RTVSPropertyOp11
 70
     1
102
RTVSPropertyOp12
 70
     1
102
RTVSPropertyOp13
 70
     1
102
RTVSPropertyOp14
 70
     1
102
RTVSPropertyOp15
 70
     1
102
RTVSPropertyOp16
 70
     1
102
RTVSPropertyOp17
 70
     1
102
RTVSPropertyOp18
 70
     1
102
RTVSPropertyOp19
 70
     1
102
RTVSPropertyOp20
 70
     1
102
RTVSPropertyOp21
 70
     1
102
RTVSPropertyOp22
 70
     1
102
RTVSPropertyOp23
 70
     1
102
RTVSPropertyOp24
 70
     1
102
RTVSPropertyOp25
 70
     1
102
RTVSPropertyOp26
 70
     1
102
RTVSPropertyOp27
 70
     1
102
RTVSPropertyOp28
 70
     1
102
RTVSPropertyOp29
 70
     1
102
RTVSPropertyOp30
 70
     1
102
RTVSPropertyOp31
 70
     1
102
RTVSPropertyOp32
 70
     1
102
RTVSPropertyOp33
 70
     1
102
RTVSPropertyOp34
 70
     1
102
RTVSPropertyOp35
 70
     1
102
RTVSPropertyOp36
 70
     1
102
RTVSPropertyOp37
 70
     1
102
RTVSPropertyOp38
 70
     1
102
RTVSPropertyOp39
 70
     1
102
RTVSPropertyOp40
 70
     1
102
RTVSPropertyOp41
 70
     1
102
RTVSPropertyOp42
 70
     1
102
RTVSPropertyOp43
 70
     1
102
RTVSPropertyOp44
 70
     1
102
RTVSPropertyOp45
 70
     1
102
RTVSPropertyOp46
 70
     1
102
RTVSPropertyOp47
 70
     1
102
RTVSPropertyOp48
 70
     1
102
RTVSPropertyOp49
 70
     1
102
RTVSPropertyOp50
 70
     1
102
RTVSPropertyOp51
 70
     0
102
RTVSPropertyOp52
 70
     0
102
RTVSPropertyOp53
 70
     1
102
RTVSPropertyOp54
 70
     1
102
RTVSPropertyOp55
 70
     1
102
RTVSPropertyOp56
 70
     1
102
RTVSPropertyOp57
 70
     1
102
RTVSPost2010Prop28
280
     0
102
RTVSPost2010PropOp28
 70
     1
102
RTVSPost2010Prop29
280
     1
102
RTVSPost2010PropOp29
 70
     1
102
RTVSPost2010Prop30
280
     1
102
RTVSPost2010PropOp30
 70
     1
102
RTVSPost2010Prop31
280
     0
102
RTVSPost2010PropOp31
 70
     1
102
RTVSPost2010Prop32
280
     0
102
RTVSPost2010PropOp32
 70
     1
102
RTVSPost2010Prop33
280
     0
102
RTVSPost2010PropOp33
 70
     1
102
RTVSPost2010Prop34
280
     0
102
RTVSPost2010PropOp34
 70
     1
102
RTVSPost2010Prop35
280
     0
102
RTVSPost2010PropOp35
 70
     1
102
RTVSPost2010Prop36
280
     0
102
RTVSPost2010PropOp36
 70
     1
102
RTVSPost2010Prop37
 90
       50
102
RTVSPost2010PropOp37
 70
     1
102
RTVSPost2010Prop38
140
0.0
102
RTVSPost2010PropOp38
 70
     1
102
RTVSPost2010Prop39
140
1.0
102
RTVSPost2010PropOp39
 70
     1
102
RTVSPost2010Prop40
 90
        0
102
RTVSPost2010PropOp40
 70
     1
102
RTVSPost2010Prop41ColorIndex
 90
       18
102
RTVSPost2010Prop41ColorRGB
 90
        0
102
RTVSPost2010PropOp41
 70
     1
102
RTVSPost2010Prop42
 90
       50
102
RTVSPost2010PropOp42
 70
     1
102
RTVSPost2010Prop43
 90
        3
102
RTVSPost2010PropOp43
 70
     1
102
RTVSPost2010Prop44ColorIndex
 90
        5
102
RTVSPost2010Prop44ColorRGB
 90
      255
102
RTVSPost2010PropOp44
 70
     1
102
RTVSPost2010Prop45
280
     0
102
RTVSPost2010PropOp45
 70
     1
102
RTVSPost2010Prop46
 90
       50
102
RTVSPost2010PropOp46
 70
     1
102
RTVSPost2010Prop47
 90
       50
102
RTVSPost2010PropOp47
 70
     1
102
RTVSPost2010Prop48
 90
       50
102
RTVSPost2010PropOp48
 70
     1
102
RTVSPost2010Prop49
280
     0
102
RTVSPost2010PropOp49
 70
     1
102
RTVSPost2010Prop50
 90
       50
102
RTVSPost2010PropOp50
 70
     1
102
RTVSPost2010Prop51ColorIndex
 90
      256
102
RTVSPost2010Prop51ColorRGB
 90
-16777216
102
RTVSPost2010PropOp51
 70
     0
102
RTVSPost2010Prop52
140
1.0
102
RTVSPost2010PropOp52
 70
     0
102
RTVSPost2010Prop53
 90
        2
102
RTVSPost2010PropOp53
 70
     1
102
RTVSPost2010Prop54
  1
strokes_ogs.tif
102
RTVSPost2010PropOp54
 70
     1
102
RTVSPost2010Prop55
280
     0
102
RTVSPost2010PropOp55
 70
     1
102
RTVSPost2010Prop56
140
1.0
102
RTVSPost2010PropOp56
 70
     1
102
RTVSPost2010Prop57
140
1.0
102
RTVSPost2010PropOp57
 70
     1
  0
XRECORD
  5
21B
102
{ACAD_REACTORS
330
21A
102
}
330
21A
100
AcDbXrecord
280
     1
102
RTVSPropertyOp0
 70
     1
102
RTVSPropertyOp1
 70
     1
102
RTVSPropertyOp2
 70
     1
102
RTVSPropertyOp3
 70
     1
102
RTVSPropertyOp4
 70
     1
102
RTVSPropertyOp5
 70
     1
102
RTVSPropertyOp6
 70
     1
102
RTVSPropertyOp7
 70
     1
102
RTVSPropertyOp8
 70
     1
102
RTVSPropertyOp9
 70
     1
102
RTVSPropertyOp10
 70
     1
102
RTVSPropertyOp11
 70
     1
102
RTVSPropertyOp12
 70
     1
102
RTVSPropertyOp13
 70
     1
102
RTVSPropertyOp14
 70
     1
102
RTVSPropertyOp15
 70
     1
102
RTVSPropertyOp16
 70
     1
102
RTVSPropertyOp17
 70
     1
102
RTVSPropertyOp18
 70
     1
102
RTVSPropertyOp19
 70
     1
102
RTVSPropertyOp20
 70
     1
102
RTVSPropertyOp21
 70
     1
102
RTVSPropertyOp22
 70
     1
102
RTVSPropertyOp23
 70
     1
102
RTVSPropertyOp24
 70
     1
102
RTVSPropertyOp25
 70
     1
102
RTVSPropertyOp26
 70
     1
102
RTVSPropertyOp27
 70
     1
102
RTVSPropertyOp28
 70
     1
102
RTVSPropertyOp29
 70
     1
102
RTVSPropertyOp30
 70
     1
102
RTVSPropertyOp31
 70
     1
102
RTVSPropertyOp32
 70
     1
102
RTVSPropertyOp33
 70
     1
102
RTVSPropertyOp34
 70
     1
102
RTVSPropertyOp35
 70
     1
102
RTVSPropertyOp36
 70
     1
102
RTVSPropertyOp37
 70
     1
102
RTVSPropertyOp38
 70
     1
102
RTVSPropertyOp39
 70
     1
102
RTVSPropertyOp40
 70
     1
102
RTVSPropertyOp41
 70
     1
102
RTVSPropertyOp42
 70
     1
102
RTVSPropertyOp43
 70
     1
102
RTVSPropertyOp44
 70
     1
102
RTVSPropertyOp45
 70
     1
102
RTVSPropertyOp46
 70
     1
102
RTVSPropertyOp47
 70
     1
102
RTVSPropertyOp48
 70
     1
102
RTVSPropertyOp49
 70
     1
102
RTVSPropertyOp50
 70
     1
102
RTVSPropertyOp51
 70
     0
102
RTVSPropertyOp52
 70
     0
102
RTVSPropertyOp53
 70
     1
102
RTVSPropertyOp54
 70
     1
102
RTVSPropertyOp55
 70
     1
102
RTVSPropertyOp56
 70
     1
102
RTVSPropertyOp57
 70
     1
102
RTVSPost2010Prop28
280
     0
102
RTVSPost2010PropOp28
 70
     1
102
RTVSPost2010Prop29
280
     1
102
RTVSPost2010PropOp29
 70
     1
102
RTVSPost2010Prop30
280
     1
102
RTVSPost2010PropOp30
 70
     1
102
RTVSPost2010Prop31
280
     0
102
RTVSPost2010PropOp31
 70
     1
102
RTVSPost2010Prop32
280
     0
102
RTVSPost2010PropOp32
 70
     1
102
RTVSPost2010Prop33
280
     0
102
RTVSPost2010PropOp33
 70
     1
102
RTVSPost2010Prop34
280
     0
102
RTVSPost2010PropOp34
 70
     1
102
RTVSPost2010Prop35
280
     0
102
RTVSPost2010PropOp35
 70
     1
102
RTVSPost2010Prop36
280
     0
102
RTVSPost2010PropOp36
 70
     1
102
RTVSPost2010Prop37
 90
       50
102
RTVSPost2010PropOp37
 70
     1
102
RTVSPost2010Prop38
140
0.0
102
RTVSPost2010PropOp38
 70
     1
102
RTVSPost2010Prop39
140
1.0
102
RTVSPost2010PropOp39
 70
     1
102
RTVSPost2010Prop40
 90
        0
102
RTVSPost2010PropOp40
 70
     1
102
RTVSPost2010Prop41ColorIndex
 90
       18
102
RTVSPost2010Prop41ColorRGB
 90
        0
102
RTVSPost2010PropOp41
 70
     1
102
RTVSPost2010Prop42
 90
       50
102
RTVSPost2010PropOp42
 70
     1
102
RTVSPost2010Prop43
 90
        3
102
RTVSPost2010PropOp43
 70
     1
102
RTVSPost2010Prop44ColorIndex
 90
        5
102
RTVSPost2010Prop44ColorRGB
 90
      255
102
RTVSPost2010PropOp44
 70
     1
102
RTVSPost2010Prop45
280
     0
102
RTVSPost2010PropOp45
 70
     1
102
RTVSPost2010Prop46
 90
       50
102
RTVSPost2010PropOp46
 70
     1
102
RTVSPost2010Prop47
 90
       50
102
RTVSPost2010PropOp47
 70
     1
102
RTVSPost2010Prop48
 90
       50
102
RTVSPost2010PropOp48
 70
     1
102
RTVSPost2010Prop49
280
     0
102
RTVSPost2010PropOp49
 70
     1
102
RTVSPost2010Prop50
 90
       50
102
RTVSPost2010PropOp50
 70
     1
102
RTVSPost2010Prop51ColorIndex
 90
      256
102
RTVSPost2010Prop51ColorRGB
 90
-16777216
102
RTVSPost2010PropOp51
 70
     0
102
RTVSPost2010Prop52
140
1.0
102
RTVSPost2010PropOp52
 70
     0
102
RTVSPost2010Prop53
 90
        2
102
RTVSPost2010PropOp53
 70
     1
102
RTVSPost2010Prop54
  1
strokes_ogs.tif
102
RTVSPost2010PropOp54
 70
     1
102
RTVSPost2010Prop55
280
     0
102
RTVSPost2010PropOp55
 70
     1
102
RTVSPost2010Prop56
140
1.0
102
RTVSPost2010PropOp56
 70
     1
102
RTVSPost2010Prop57
140
1.0
102
RTVSPost2010PropOp57
 70
     1
  0
XRECORD
  5
20B
102
{ACAD_REACTORS
330
20A
102
}
330
20A
100
AcDbXrecord
280
     1
102
RTVSPropertyOp0
 70
     1
102
RTVSPropertyOp1
 70
     1
102
RTVSPropertyOp2
 70
     1
102
RTVSPropertyOp3
 70
     1
102
RTVSPropertyOp4
 70
     1
102
RTVSPropertyOp5
 70
     1
102
RTVSPropertyOp6
 70
     1
102
RTVSPropertyOp7
 70
     1
102
RTVSPropertyOp8
 70
     1
102
RTVSPropertyOp9
 70
     1
102
RTVSPropertyOp10
 70
     1
102
RTVSPropertyOp11
 70
     1
102
RTVSPropertyOp12
 70
     1
102
RTVSPropertyOp13
 70
     1
102
RTVSPropertyOp14
 70
     1
102
RTVSPropertyOp15
 70
     1
102
RTVSPropertyOp16
 70
     1
102
RTVSPropertyOp17
 70
     1
102
RTVSPropertyOp18
 70
     1
102
RTVSPropertyOp19
 70
     1
102
RTVSPropertyOp20
 70
     1
102
RTVSPropertyOp21
 70
     1
102
RTVSPropertyOp22
 70
     1
102
RTVSPropertyOp23
 70
     1
102
RTVSPropertyOp24
 70
     1
102
RTVSPropertyOp25
 70
     1
102
RTVSPropertyOp26
 70
     1
102
RTVSPropertyOp27
 70
     1
102
RTVSPropertyOp28
 70
     1
102
RTVSPropertyOp29
 70
     1
102
RTVSPropertyOp30
 70
     1
102
RTVSPropertyOp31
 70
     1
102
RTVSPropertyOp32
 70
     1
102
RTVSPropertyOp33
 70
     1
102
RTVSPropertyOp34
 70
     1
102
RTVSPropertyOp35
 70
     1
102
RTVSPropertyOp36
 70
     1
102
RTVSPropertyOp37
 70
     1
102
RTVSPropertyOp38
 70
     1
102
RTVSPropertyOp39
 70
     1
102
RTVSPropertyOp40
 70
     1
102
RTVSPropertyOp41
 70
     1
102
RTVSPropertyOp42
 70
     1
102
RTVSPropertyOp43
 70
     1
102
RTVSPropertyOp44
 70
     1
102
RTVSPropertyOp45
 70
     1
102
RTVSPropertyOp46
 70
     1
102
RTVSPropertyOp47
 70
     1
102
RTVSPropertyOp48
 70
     1
102
RTVSPropertyOp49
 70
     1
102
RTVSPropertyOp50
 70
     1
102
RTVSPropertyOp51
 70
     0
102
RTVSPropertyOp52
 70
     0
102
RTVSPropertyOp53
 70
     1
102
RTVSPropertyOp54
 70
     1
102
RTVSPropertyOp55
 70
     1
102
RTVSPropertyOp56
 70
     1
102
RTVSPropertyOp57
 70
     1
102
RTVSPost2010Prop28
280
     0
102
RTVSPost2010PropOp28
 70
     1
102
RTVSPost2010Prop29
280
     1
102
RTVSPost2010PropOp29
 70
     1
102
RTVSPost2010Prop30
280
     1
102
RTVSPost2010PropOp30
 70
     1
102
RTVSPost2010Prop31
280
     0
102
RTVSPost2010PropOp31
 70
     1
102
RTVSPost2010Prop32
280
     0
102
RTVSPost2010PropOp32
 70
     1
102
RTVSPost2010Prop33
280
     0
102
RTVSPost2010PropOp33
 70
     1
102
RTVSPost2010Prop34
280
     0
102
RTVSPost2010PropOp34
 70
     1
102
RTVSPost2010Prop35
280
     0
102
RTVSPost2010PropOp35
 70
     1
102
RTVSPost2010Prop36
280
     0
102
RTVSPost2010PropOp36
 70
     1
102
RTVSPost2010Prop37
 90
       50
102
RTVSPost2010PropOp37
 70
     1
102
RTVSPost2010Prop38
140
0.0
102
RTVSPost2010PropOp38
 70
     1
102
RTVSPost2010Prop39
140
1.0
102
RTVSPost2010PropOp39
 70
     1
102
RTVSPost2010Prop40
 90
        0
102
RTVSPost2010PropOp40
 70
     1
102
RTVSPost2010Prop41ColorIndex
 90
       18
102
RTVSPost2010Prop41ColorRGB
 90
        0
102
RTVSPost2010PropOp41
 70
     1
102
RTVSPost2010Prop42
 90
       50
102
RTVSPost2010PropOp42
 70
     1
102
RTVSPost2010Prop43
 90
        3
102
RTVSPost2010PropOp43
 70
     1
102
RTVSPost2010Prop44ColorIndex
 90
        5
102
RTVSPost2010Prop44ColorRGB
 90
      255
102
RTVSPost2010PropOp44
 70
     1
102
RTVSPost2010Prop45
280
     0
102
RTVSPost2010PropOp45
 70
     1
102
RTVSPost2010Prop46
 90
       50
102
RTVSPost2010PropOp46
 70
     1
102
RTVSPost2010Prop47
 90
       50
102
RTVSPost2010PropOp47
 70
     1
102
RTVSPost2010Prop48
 90
       50
102
RTVSPost2010PropOp48
 70
     1
102
RTVSPost2010Prop49
280
     0
102
RTVSPost2010PropOp49
 70
     1
102
RTVSPost2010Prop50
 90
       50
102
RTVSPost2010PropOp50
 70
     1
102
RTVSPost2010Prop51ColorIndex
 90
      256
102
RTVSPost2010Prop51ColorRGB
 90
-16777216
102
RTVSPost2010PropOp51
 70
     0
102
RTVSPost2010Prop52
140
1.0
102
RTVSPost2010PropOp52
 70
     0
102
RTVSPost2010Prop53
 90
        2
102
RTVSPost2010PropOp53
 70
     1
102
RTVSPost2010Prop54
  1
strokes_ogs.tif
102
RTVSPost2010PropOp54
 70
     1
102
RTVSPost2010Prop55
280
     0
102
RTVSPost2010PropOp55
 70
     1
102
RTVSPost2010Prop56
140
1.0
102
RTVSPost2010PropOp56
 70
     1
102
RTVSPost2010Prop57
140
1.0
102
RTVSPost2010PropOp57
 70
     1
  0
XRECORD
  5
1FD
102
{ACAD_REACTORS
330
1FC
102
}
330
1FC
100
AcDbXrecord
280
     1
102
RTVSPropertyOp0
 70
     1
102
RTVSPropertyOp1
 70
     1
102
RTVSPropertyOp2
 70
     1
102
RTVSPropertyOp3
 70
     1
102
RTVSPropertyOp4
 70
     1
102
RTVSPropertyOp5
 70
     1
102
RTVSPropertyOp6
 70
     1
102
RTVSPropertyOp7
 70
     1
102
RTVSPropertyOp8
 70
     1
102
RTVSPropertyOp9
 70
     1
102
RTVSPropertyOp10
 70
     1
102
RTVSPropertyOp11
 70
     1
102
RTVSPropertyOp12
 70
     1
102
RTVSPropertyOp13
 70
     1
102
RTVSPropertyOp14
 70
     1
102
RTVSPropertyOp15
 70
     1
102
RTVSPropertyOp16
 70
     1
102
RTVSPropertyOp17
 70
     1
102
RTVSPropertyOp18
 70
     1
102
RTVSPropertyOp19
 70
     1
102
RTVSPropertyOp20
 70
     1
102
RTVSPropertyOp21
 70
     1
102
RTVSPropertyOp22
 70
     1
102
RTVSPropertyOp23
 70
     1
102
RTVSPropertyOp24
 70
     1
102
RTVSPropertyOp25
 70
     1
102
RTVSPropertyOp26
 70
     1
102
RTVSPropertyOp27
 70
     1
102
RTVSPropertyOp28
 70
     1
102
RTVSPropertyOp29
 70
     1
102
RTVSPropertyOp30
 70
     1
102
RTVSPropertyOp31
 70
     1
102
RTVSPropertyOp32
 70
     1
102
RTVSPropertyOp33
 70
     1
102
RTVSPropertyOp34
 70
     1
102
RTVSPropertyOp35
 70
     1
102
RTVSPropertyOp36
 70
     1
102
RTVSPropertyOp37
 70
     1
102
RTVSPropertyOp38
 70
     1
102
RTVSPropertyOp39
 70
     1
102
RTVSPropertyOp40
 70
     1
102
RTVSPropertyOp41
 70
     1
102
RTVSPropertyOp42
 70
     1
102
RTVSPropertyOp43
 70
     1
102
RTVSPropertyOp44
 70
     1
102
RTVSPropertyOp45
 70
     1
102
RTVSPropertyOp46
 70
     1
102
RTVSPropertyOp47
 70
     1
102
RTVSPropertyOp48
 70
     1
102
RTVSPropertyOp49
 70
     1
102
RTVSPropertyOp50
 70
     1
102
RTVSPropertyOp51
 70
     0
102
RTVSPropertyOp52
 70
     0
102
RTVSPropertyOp53
 70
     1
102
RTVSPropertyOp54
 70
     1
102
RTVSPropertyOp55
 70
     1
102
RTVSPropertyOp56
 70
     1
102
RTVSPropertyOp57
 70
     1
102
RTVSPost2010Prop28
280
     0
102
RTVSPost2010PropOp28
 70
     1
102
RTVSPost2010Prop29
280
     1
102
RTVSPost2010PropOp29
 70
     1
102
RTVSPost2010Prop30
280
     1
102
RTVSPost2010PropOp30
 70
     1
102
RTVSPost2010Prop31
280
     0
102
RTVSPost2010PropOp31
 70
     1
102
RTVSPost2010Prop32
280
     0
102
RTVSPost2010PropOp32
 70
     1
102
RTVSPost2010Prop33
280
     0
102
RTVSPost2010PropOp33
 70
     1
102
RTVSPost2010Prop34
280
     0
102
RTVSPost2010PropOp34
 70
     1
102
RTVSPost2010Prop35
280
     0
102
RTVSPost2010PropOp35
 70
     1
102
RTVSPost2010Prop36
280
     0
102
RTVSPost2010PropOp36
 70
     1
102
RTVSPost2010Prop37
 90
       50
102
RTVSPost2010PropOp37
 70
     1
102
RTVSPost2010Prop38
140
0.0
102
RTVSPost2010PropOp38
 70
     1
102
RTVSPost2010Prop39
140
1.0
102
RTVSPost2010PropOp39
 70
     1
102
RTVSPost2010Prop40
 90
        0
102
RTVSPost2010PropOp40
 70
     1
102
RTVSPost2010Prop41ColorIndex
 90
       18
102
RTVSPost2010Prop41ColorRGB
 90
        0
102
RTVSPost2010PropOp41
 70
     1
102
RTVSPost2010Prop42
 90
       50
102
RTVSPost2010PropOp42
 70
     1
102
RTVSPost2010Prop43
 90
        3
102
RTVSPost2010PropOp43
 70
     1
102
RTVSPost2010Prop44ColorIndex
 90
        5
102
RTVSPost2010Prop44ColorRGB
 90
      255
102
RTVSPost2010PropOp44
 70
     1
102
RTVSPost2010Prop45
280
     0
102
RTVSPost2010PropOp45
 70
     1
102
RTVSPost2010Prop46
 90
       50
102
RTVSPost2010PropOp46
 70
     1
102
RTVSPost2010Prop47
 90
       50
102
RTVSPost2010PropOp47
 70
     1
102
RTVSPost2010Prop48
 90
       50
102
RTVSPost2010PropOp48
 70
     1
102
RTVSPost2010Prop49
280
     0
102
RTVSPost2010PropOp49
 70
     1
102
RTVSPost2010Prop50
 90
       50
102
RTVSPost2010PropOp50
 70
     1
102
RTVSPost2010Prop51ColorIndex
 90
      256
102
RTVSPost2010Prop51ColorRGB
 90
-16777216
102
RTVSPost2010PropOp51
 70
     0
102
RTVSPost2010Prop52
140
1.0
102
RTVSPost2010PropOp52
 70
     0
102
RTVSPost2010Prop53
 90
        2
102
RTVSPost2010PropOp53
 70
     1
102
RTVSPost2010Prop54
  1
strokes_ogs.tif
102
RTVSPost2010PropOp54
 70
     1
102
RTVSPost2010Prop55
280
     0
102
RTVSPost2010PropOp55
 70
     1
102
RTVSPost2010Prop56
140
1.0
102
RTVSPost2010PropOp56
 70
     1
102
RTVSPost2010Prop57
140
1.0
102
RTVSPost2010PropOp57
 70
     1
  0
XRECORD
  5
21D
102
{ACAD_REACTORS
330
21C
102
}
330
21C
100
AcDbXrecord
280
     1
102
RTVSPropertyOp0
 70
     1
102
RTVSPropertyOp1
 70
     1
102
RTVSPropertyOp2
 70
     1
102
RTVSPropertyOp3
 70
     1
102
RTVSPropertyOp4
 70
     1
102
RTVSPropertyOp5
 70
     1
102
RTVSPropertyOp6
 70
     1
102
RTVSPropertyOp7
 70
     1
102
RTVSPropertyOp8
 70
     1
102
RTVSPropertyOp9
 70
     1
102
RTVSPropertyOp10
 70
     1
102
RTVSPropertyOp11
 70
     1
102
RTVSPropertyOp12
 70
     1
102
RTVSPropertyOp13
 70
     1
102
RTVSPropertyOp14
 70
     1
102
RTVSPropertyOp15
 70
     1
102
RTVSPropertyOp16
 70
     1
102
RTVSPropertyOp17
 70
     1
102
RTVSPropertyOp18
 70
     1
102
RTVSPropertyOp19
 70
     1
102
RTVSPropertyOp20
 70
     1
102
RTVSPropertyOp21
 70
     1
102
RTVSPropertyOp22
 70
     1
102
RTVSPropertyOp23
 70
     1
102
RTVSPropertyOp24
 70
     1
102
RTVSPropertyOp25
 70
     1
102
RTVSPropertyOp26
 70
     1
102
RTVSPropertyOp27
 70
     1
102
RTVSPropertyOp28
 70
     1
102
RTVSPropertyOp29
 70
     1
102
RTVSPropertyOp30
 70
     1
102
RTVSPropertyOp31
 70
     1
102
RTVSPropertyOp32
 70
     1
102
RTVSPropertyOp33
 70
     1
102
RTVSPropertyOp34
 70
     1
102
RTVSPropertyOp35
 70
     1
102
RTVSPropertyOp36
 70
     1
102
RTVSPropertyOp37
 70
     1
102
RTVSPropertyOp38
 70
     1
102
RTVSPropertyOp39
 70
     1
102
RTVSPropertyOp40
 70
     1
102
RTVSPropertyOp41
 70
     1
102
RTVSPropertyOp42
 70
     1
102
RTVSPropertyOp43
 70
     1
102
RTVSPropertyOp44
 70
     1
102
RTVSPropertyOp45
 70
     1
102
RTVSPropertyOp46
 70
     1
102
RTVSPropertyOp47
 70
     1
102
RTVSPropertyOp48
 70
     1
102
RTVSPropertyOp49
 70
     1
102
RTVSPropertyOp50
 70
     1
102
RTVSPropertyOp51
 70
     0
102
RTVSPropertyOp52
 70
     0
102
RTVSPropertyOp53
 70
     1
102
RTVSPropertyOp54
 70
     1
102
RTVSPropertyOp55
 70
     1
102
RTVSPropertyOp56
 70
     1
102
RTVSPropertyOp57
 70
     1
102
RTVSPost2010Prop28
280
     0
102
RTVSPost2010PropOp28
 70
     1
102
RTVSPost2010Prop29
280
     1
102
RTVSPost2010PropOp29
 70
     1
102
RTVSPost2010Prop30
280
     1
102
RTVSPost2010PropOp30
 70
     1
102
RTVSPost2010Prop31
280
     0
102
RTVSPost2010PropOp31
 70
     1
102
RTVSPost2010Prop32
280
     0
102
RTVSPost2010PropOp32
 70
     1
102
RTVSPost2010Prop33
280
     0
102
RTVSPost2010PropOp33
 70
     1
102
RTVSPost2010Prop34
280
     0
102
RTVSPost2010PropOp34
 70
     1
102
RTVSPost2010Prop35
280
     0
102
RTVSPost2010PropOp35
 70
     1
102
RTVSPost2010Prop36
280
     0
102
RTVSPost2010PropOp36
 70
     1
102
RTVSPost2010Prop37
 90
       50
102
RTVSPost2010PropOp37
 70
     1
102
RTVSPost2010Prop38
140
0.0
102
RTVSPost2010PropOp38
 70
     1
102
RTVSPost2010Prop39
140
1.0
102
RTVSPost2010PropOp39
 70
     1
102
RTVSPost2010Prop40
 90
        0
102
RTVSPost2010PropOp40
 70
     1
102
RTVSPost2010Prop41ColorIndex
 90
       18
102
RTVSPost2010Prop41ColorRGB
 90
        0
102
RTVSPost2010PropOp41
 70
     1
102
RTVSPost2010Prop42
 90
       50
102
RTVSPost2010PropOp42
 70
     1
102
RTVSPost2010Prop43
 90
        3
102
RTVSPost2010PropOp43
 70
     1
102
RTVSPost2010Prop44ColorIndex
 90
        5
102
RTVSPost2010Prop44ColorRGB
 90
      255
102
RTVSPost2010PropOp44
 70
     1
102
RTVSPost2010Prop45
280
     0
102
RTVSPost2010PropOp45
 70
     1
102
RTVSPost2010Prop46
 90
       50
102
RTVSPost2010PropOp46
 70
     1
102
RTVSPost2010Prop47
 90
       50
102
RTVSPost2010PropOp47
 70
     1
102
RTVSPost2010Prop48
 90
       50
102
RTVSPost2010PropOp48
 70
     1
102
RTVSPost2010Prop49
280
     0
102
RTVSPost2010PropOp49
 70
     1
102
RTVSPost2010Prop50
 90
       50
102
RTVSPost2010PropOp50
 70
     1
102
RTVSPost2010Prop51ColorIndex
 90
      256
102
RTVSPost2010Prop51ColorRGB
 90
-16777216
102
RTVSPost2010PropOp51
 70
     0
102
RTVSPost2010Prop52
140
1.0
102
RTVSPost2010PropOp52
 70
     0
102
RTVSPost2010Prop53
 90
        2
102
RTVSPost2010PropOp53
 70
     1
102
RTVSPost2010Prop54
  1
strokes_ogs.tif
102
RTVSPost2010PropOp54
 70
     1
102
RTVSPost2010Prop55
280
     0
102
RTVSPost2010PropOp55
 70
     1
102
RTVSPost2010Prop56
140
1.0
102
RTVSPost2010PropOp56
 70
     1
102
RTVSPost2010Prop57
140
1.0
102
RTVSPost2010PropOp57
 70
     1
  0
ENDSEC
  0
EOF
