  0
SECTION
  2
HEADER
  9
$ACADVER
  1
AC1015
  9
$ACADMAINTVER
 70
     6
  9
$DWGCODEPAGE
  3
ANSI_1252
  9
$INSBASE
 10
0.0
 20
0.0
 30
0.0
  9
$EXTMIN
 10
224.519172122751
 20
-107.811731833
 30
0.0
  9
$EXTMAX
 10
634.1538774439791
 20
282.054338444205
 30
0.0
  9
$LIMMIN
 10
0.0
 20
0.0
  9
$LIMMAX
 10
12.0
 20
9.0
  9
$ORTHOMODE
 70
     0
  9
$REGENMODE
 70
     1
  9
$FILLMODE
 70
     1
  9
$QTEXTMODE
 70
     0
  9
$MIRRTEXT
 70
     1
  9
$LTSCALE
 40
1.0
  9
$ATTMODE
 70
     1
  9
$TEXTSIZE
 40
0.2
  9
$TRACEWID
 40
0.05
  9
$TEXTSTYLE
  7
Standard
  9
$CLAYER
  8
0
  9
$CELTYPE
  6
ByLayer
  9
$CECOLOR
 62
   256
  9
$CELTSCALE
 40
1.0
  9
$DISPSILH
 70
     0
  9
$DIMSCALE
 40
1.0
  9
$DIMASZ
 40
0.18
  9
$DIMEXO
 40
0.0625
  9
$DIMDLI
 40
0.38
  9
$DIMRND
 40
0.0
  9
$DIMDLE
 40
0.0
  9
$DIMEXE
 40
0.18
  9
$DIMTP
 40
0.0
  9
$DIMTM
 40
0.0
  9
$DIMTXT
 40
0.18
  9
$DIMCEN
 40
0.09
  9
$DIMTSZ
 40
0.0
  9
$DIMTOL
 70
     0
  9
$DIMLIM
 70
     0
  9
$DIMTIH
 70
     1
  9
$DIMTOH
 70
     1
  9
$DIMSE1
 70
     0
  9
$DIMSE2
 70
     0
  9
$DIMTAD
 70
     0
  9
$DIMZIN
 70
     0
  9
$DIMBLK
  1

  9
$DIMASO
 70
     1
  9
$DIMSHO
 70
     1
  9
$DIMPOST
  1

  9
$DIMAPOST
  1

  9
$DIMALT
 70
     0
  9
$DIMALTD
 70
     2
  9
$DIMALTF
 40
25.4
  9
$DIMLFAC
 40
1.0
  9
$DIMTOFL
 70
     0
  9
$DIMTVP
 40
0.0
  9
$DIMTIX
 70
     0
  9
$DIMSOXD
 70
     0
  9
$DIMSAH
 70
     0
  9
$DIMBLK1
  1

  9
$DIMBLK2
  1

  9
$DIMSTYLE
  2
Standard
  9
$DIMCLRD
 70
     0
  9
$DIMCLRE
 70
     0
  9
$DIMCLRT
 70
     0
  9
$DIMTFAC
 40
1.0
  9
$DIMGAP
 40
0.09
  9
$DIMJUST
 70
     0
  9
$DIMSD1
 70
     0
  9
$DIMSD2
 70
     0
  9
$DIMTOLJ
 70
     1
  9
$DIMTZIN
 70
     0
  9
$DIMALTZ
 70
     0
  9
$DIMALTTZ
 70
     0
  9
$DIMUPT
 70
     0
  9
$DIMDEC
 70
     4
  9
$DIMTDEC
 70
     4
  9
$DIMALTU
 70
     2
  9
$DIMALTTD
 70
     2
  9
$DIMTXSTY
  7
Standard
  9
$DIMAUNIT
 70
     0
  9
$DIMADEC
 70
     0
  9
$DIMALTRND
 40
0.0
  9
$DIMAZIN
 70
     0
  9
$DIMDSEP
 70
    46
  9
$DIMATFIT
 70
     3
  9
$DIMFRAC
 70
     0
  9
$DIMLDRBLK
  1

  9
$DIMLUNIT
 70
     2
  9
$DIMLWD
 70
    -2
  9
$DIMLWE
 70
    -2
  9
$DIMTMOVE
 70
     0
  9
$LUNITS
 70
     2
  9
$LUPREC
 70
     4
  9
$SKETCHINC
 40
0.1
  9
$FILLETRAD
 40
0.5
  9
$AUNITS
 70
     0
  9
$AUPREC
 70
     0
  9
$MENU
  1
.
  9
$ELEVATION
 40
0.0
  9
$PELEVATION
 40
0.0
  9
$THICKNESS
 40
0.0
  9
$LIMCHECK
 70
     0
  9
$CHAMFERA
 40
0.5
  9
$CHAMFERB
 40
0.5
  9
$CHAMFERC
 40
1.0
  9
$CHAMFERD
 40
0.0
  9
$SKPOLY
 70
     0
  9
$TDCREATE
 40
2455386.305366539
  9
$TDUCREATE
 40
2455386.222033206
  9
$TDUPDATE
 40
2455386.305366551
  9
$TDUUPDATE
 40
2455386.222033218
  9
$TDINDWG
 40
0.0000000116
  9
$TDUSRTIMER
 40
0.0000000116
  9
$USRTIMER
 70
     1
  9
$ANGBASE
 50
0.0
  9
$ANGDIR
 70
     0
  9
$PDMODE
 70
     0
  9
$PDSIZE
 40
0.0
  9
$PLINEWID
 40
0.0
  9
$SPLFRAME
 70
     0
  9
$SPLINETYPE
 70
     6
  9
$SPLINESEGS
 70
     8
  9
$HANDSEED
  5
296
  9
$SURFTAB1
 70
     6
  9
$SURFTAB2
 70
     6
  9
$SURFTYPE
 70
     6
  9
$SURFU
 70
     6
  9
$SURFV
 70
     6
  9
$UCSBASE
  2

  9
$UCSNAME
  2

  9
$UCSORG
 10
0.0
 20
0.0
 30
0.0
  9
$UCSXDIR
 10
1.0
 20
0.0
 30
0.0
  9
$UCSYDIR
 10
0.0
 20
1.0
 30
0.0
  9
$UCSORTHOREF
  2

  9
$UCSORTHOVIEW
 70
     0
  9
$UCSORGTOP
 10
0.0
 20
0.0
 30
0.0
  9
$UCSORGBOTTOM
 10
0.0
 20
0.0
 30
0.0
  9
$UCSORGLEFT
 10
0.0
 20
0.0
 30
0.0
  9
$UCSORGRIGHT
 10
0.0
 20
0.0
 30
0.0
  9
$UCSORGFRONT
 10
0.0
 20
0.0
 30
0.0
  9
$UCSORGBACK
 10
0.0
 20
0.0
 30
0.0
  9
$PUCSBASE
  2

  9
$PUCSNAME
  2

  9
$PUCSORG
 10
0.0
 20
0.0
 30
0.0
  9
$PUCSXDIR
 10
1.0
 20
0.0
 30
0.0
  9
$PUCSYDIR
 10
0.0
 20
1.0
 30
0.0
  9
$PUCSORTHOREF
  2

  9
$PUCSORTHOVIEW
 70
     0
  9
$PUCSORGTOP
 10
0.0
 20
0.0
 30
0.0
  9
$PUCSORGBOTTOM
 10
0.0
 20
0.0
 30
0.0
  9
$PUCSORGLEFT
 10
0.0
 20
0.0
 30
0.0
  9
$PUCSORGRIGHT
 10
0.0
 20
0.0
 30
0.0
  9
$PUCSORGFRONT
 10
0.0
 20
0.0
 30
0.0
  9
$PUCSORGBACK
 10
0.0
 20
0.0
 30
0.0
  9
$USERI1
 70
     0
  9
$USERI2
 70
     0
  9
$USERI3
 70
     0
  9
$USERI4
 70
     0
  9
$USERI5
 70
     0
  9
$USERR1
 40
16.5
  9
$USERR2
 40
0.0
  9
$USERR3
 40
0.0
  9
$USERR4
 40
0.0
  9
$USERR5
 40
0.0
  9
$WORLDVIEW
 70
     1
  9
$SHADEDGE
 70
     3
  9
$SHADEDIF
 70
    70
  9
$TILEMODE
 70
     1
  9
$MAXACTVP
 70
    64
  9
$PINSBASE
 10
0.0
 20
0.0
 30
0.0
  9
$PLIMCHECK
 70
     0
  9
$PEXTMIN
 10
1.00000000000000E+20
 20
1.00000000000000E+20
 30
1.00000000000000E+20
  9
$PEXTMAX
 10
-1.00000000000000E+20
 20
-1.00000000000000E+20
 30
-1.00000000000000E+20
  9
$PLIMMIN
 10
0.0
 20
0.0
  9
$PLIMMAX
 10
12.0
 20
9.0
  9
$UNITMODE
 70
     0
  9
$VISRETAIN
 70
     1
  9
$PLINEGEN
 70
     0
  9
$PSLTSCALE
 70
     1
  9
$TREEDEPTH
 70
  3020
  9
$CMLSTYLE
  2
Standard
  9
$CMLJUST
 70
     0
  9
$CMLSCALE
 40
1.0
  9
$PROXYGRAPHICS
 70
     1
  9
$MEASUREMENT
 70
     1
  9
$CELWEIGHT
370
    -1
  9
$ENDCAPS
280
     0
  9
$JOINSTYLE
280
     0
  9
$LWDISPLAY
290
     0
  9
$INSUNITS
 70
     1
  9
$HYPERLINKBASE
  1

  9
$STYLESHEET
  1

  9
$XEDIT
290
     1
  9
$CEPSNTYPE
380
     0
  9
$PSTYLEMODE
290
     1
  9
$FINGERPRINTGUID
  2
{061D2694-59DA-496F-983D-99E5C624C02D}
  9
$VERSIONGUID
  2
{FAEB1C32-E019-11D5-929B-00C0DF256EC4}
  9
$EXTNAMES
290
     1
  9
$PSVPSCALE
 40
0.0
  9
$OLESTARTUP
290
     0
  0
ENDSEC
  0
SECTION
  2
CLASSES
  0
CLASS
  1
ACDBDICTIONARYWDFLT
  2
AcDbDictionaryWithDefault
  3
ObjectDBX Classes
 90
        0
280
     0
281
     0
  0
CLASS
  1
VISUALSTYLE
  2
AcDbVisualStyle
  3
ObjectDBX Classes
 90
     4095
280
     0
281
     0
  0
CLASS
  1
SCALE
  2
AcDbScale
  3
ObjectDBX Classes
 90
     1153
280
     0
281
     0
  0
CLASS
  1

  2
exOdDbPolyline
  3

 90
        0
280
     0
281
     1
  0
CLASS
  1

  2
exOdDbSpline
  3

 90
        0
280
     0
281
     1
  0
CLASS
  1
DICTIONARYVAR
  2
AcDbDictionaryVar
  3
ObjectDBX Classes
 90
        0
280
     0
281
     0
  0
CLASS
  1
ACDBPLACEHOLDER
  2
AcDbPlaceHolder
  3
ObjectDBX Classes
 90
        0
280
     0
281
     0
  0
CLASS
  1
LAYOUT
  2
AcDbLayout
  3
ObjectDBX Classes
 90
        0
280
     0
281
     0
  0
ENDSEC
  0
SECTION
  2
TABLES
  0
TABLE
  2
VPORT
  5
8
330
0
100
AcDbSymbolTable
 70
     1
  0
VPORT
  5
29
330
8
100
AcDbSymbolTableRecord
100
AcDbViewportTableRecord
  2
*Active
 70
     0
 10
0.0
 20
0.0
 11
1.0
 21
1.0
 12
429.3365247833651
 22
87.12130330560248
 13
0.0
 23
0.0
 14
0.5
 24
0.5
 15
0.5
 25
0.5
 16
0.0
 26
0.0
 36
1.0
 17
0.0
 27
0.0
 37
0.0
 40
428.8526773049255
 41
1.60267857142857
 42
50.0
 43
0.0
 44
0.0
 50
0.0
 51
0.0
 71
     0
 72
   100
 73
     1
 74
     3
 75
     0
 76
     0
 77
     0
 78
     0
281
     0
 65
     1
110
0.0
120
0.0
130
0.0
111
1.0
121
0.0
131
0.0
112
0.0
122
1.0
132
0.0
 79
     0
146
0.0
  0
ENDTAB
  0
TABLE
  2
LTYPE
  5
5
330
0
100
AcDbSymbolTable
 70
     9
  0
LTYPE
  5
14
330
5
100
AcDbSymbolTableRecord
100
AcDbLinetypeTableRecord
  2
ByBlock
 70
     0
  3

 72
    65
 73
     0
 40
0.0
  0
LTYPE
  5
15
330
5
100
AcDbSymbolTableRecord
100
AcDbLinetypeTableRecord
  2
ByLayer
 70
     0
  3

 72
    65
 73
     0
 40
0.0
  0
LTYPE
  5
16
330
5
100
AcDbSymbolTableRecord
100
AcDbLinetypeTableRecord
  2
Continuous
 70
     0
  3
Solid line
 72
    65
 73
     0
 40
0.0
  0
LTYPE
  5
3B
330
5
100
AcDbSymbolTableRecord
100
AcDbLinetypeTableRecord
  2
DASHED
 70
     0
  3
Dashed
 72
    65
 73
     2
 40
15.0
 49
7.0
 74
     0
 49
-8.0
 74
     0
  0
LTYPE
  5
3C
330
5
100
AcDbSymbolTableRecord
100
AcDbLinetypeTableRecord
  2
DOTTED
 70
     0
  3
Dotted
 72
    65
 73
     2
 40
1.0
 49
0.0
 74
     0
 49
-1.0
 74
     0
  0
LTYPE
  5
3D
330
5
100
AcDbSymbolTableRecord
100
AcDbLinetypeTableRecord
  2
DOT_CENTER
 70
     0
  3
Dot_Center
 72
    65
 73
     4
 40
14.0
 49
12.0
 74
     0
 49
-1.0
 74
     0
 49
0.0
 74
     0
 49
-1.0
 74
     0
  0
LTYPE
  5
3E
330
5
100
AcDbSymbolTableRecord
100
AcDbLinetypeTableRecord
  2
LONG_DASHED
 70
     0
  3
Long_Dashed
 72
    65
 73
     2
 40
15.0
 49
10.0
 74
     0
 49
-5.0
 74
     0
  0
LTYPE
  5
3F
330
5
100
AcDbSymbolTableRecord
100
AcDbLinetypeTableRecord
  2
DASH_CENTER
 70
     0
  3
Dash_Center
 72
    65
 73
     4
 40
14.0
 49
11.0
 74
     0
 49
-1.0
 74
     0
 49
1.0
 74
     0
 49
-1.0
 74
     0
  0
LTYPE
  5
40
330
5
100
AcDbSymbolTableRecord
100
AcDbLinetypeTableRecord
  2
PHANTOM
 70
     0
  3
Phantom
 72
    65
 73
     6
 40
13.0
 49
10.0
 74
     0
 49
-1.0
 74
     0
 49
0.0
 74
     0
 49
-1.0
 74
     0
 49
0.0
 74
     0
 49
-1.0
 74
     0
  0
LTYPE
  5
41
330
5
100
AcDbSymbolTableRecord
100
AcDbLinetypeTableRecord
  2
CENTER_DASH_DASH
 70
     0
  3
Center_Dash_Dash
 72
    65
 73
     6
 40
14.0
 49
9.0
 74
     0
 49
-1.0
 74
     0
 49
1.0
 74
     0
 49
-1.0
 74
     0
 49
1.0
 74
     0
 49
-1.0
 74
     0
  0
LTYPE
  5
42
330
5
100
AcDbSymbolTableRecord
100
AcDbLinetypeTableRecord
  2
CENTERX2
 70
     0
  3
CENTERX2
 72
    65
 73
     4
 40
22.0
 49
13.0
 74
     0
 49
-3.0
 74
     0
 49
3.0
 74
     0
 49
-3.0
 74
     0
  0
ENDTAB
  0
TABLE
  2
LAYER
  5
2
330
0
100
AcDbSymbolTable
 70
     2
  0
LAYER
  5
10
330
2
100
AcDbSymbolTableRecord
100
AcDbLayerTableRecord
  2
0
 70
     0
 62
     7
  6
Continuous
370
    -3
390
F
  0
LAYER
  5
43
330
2
100
AcDbSymbolTableRecord
100
AcDbLayerTableRecord
  2
1
 70
     0
 62
     7
  6
Continuous
370
    -3
390
F
  0
ENDTAB
  0
TABLE
  2
STYLE
  5
3
330
0
100
AcDbSymbolTable
 70
     2
  0
STYLE
  5
11
330
3
100
AcDbSymbolTableRecord
100
AcDbTextStyleTableRecord
  2
Standard
 70
     0
 40
0.0
 41
1.0
 50
0.0
 71
     0
 42
0.2
  3
txt
  4

  0
STYLE
  5
253
330
3
100
AcDbSymbolTableRecord
100
AcDbTextStyleTableRecord
  2
CONVERTER_11
 70
     0
 40
0.0
 41
0.9
 50
0.0
 71
     0
 42
0.2
  3
txt.shx
  4

  0
ENDTAB
  0
TABLE
  2
VIEW
  5
6
330
0
100
AcDbSymbolTable
 70
     0
  0
ENDTAB
  0
TABLE
  2
UCS
  5
7
330
0
100
AcDbSymbolTable
 70
     0
  0
ENDTAB
  0
TABLE
  2
APPID
  5
9
330
0
100
AcDbSymbolTable
 70
     1
  0
APPID
  5
12
330
9
100
AcDbSymbolTableRecord
100
AcDbRegAppTableRecord
  2
ACAD
 70
     0
  0
ENDTAB
  0
TABLE
  2
DIMSTYLE
  5
A
330
0
100
AcDbSymbolTable
 70
     6
100
AcDbDimStyleTable
  0
DIMSTYLE
105
27
330
A
100
AcDbSymbolTableRecord
100
AcDbDimStyleTableRecord
  2
Standard
 70
     0
340
11
  0
DIMSTYLE
105
257
102
{ACAD_REACTORS
330
258
102
}
330
A
100
AcDbSymbolTableRecord
100
AcDbDimStyleTableRecord
  2
ME10_DIM_10
 70
     0
  3
Ø<>
 41
10.0
 42
0.0
 44
2.0
 73
     0
 74
     0
 77
     1
 78
     8
140
10.0
147
2.0
172
     1
173
     1
176
     4
177
     4
178
     1
271
     2
340
253
  0
DIMSTYLE
105
262
102
{ACAD_REACTORS
330
263
102
}
330
A
100
AcDbSymbolTableRecord
100
AcDbDimStyleTableRecord
  2
ME10_DIM_11
 70
     0
  3
DN<>
 41
10.0
 42
0.0
 44
2.0
 73
     0
 74
     0
 77
     1
 78
     8
140
10.0
147
2.0
172
     1
173
     1
176
     4
177
     4
178
     1
271
     2
340
253
  0
DIMSTYLE
105
26D
102
{ACAD_REACTORS
330
26E
102
}
330
A
100
AcDbSymbolTableRecord
100
AcDbDimStyleTableRecord
  2
ME10_DIM_12
 70
     0
  3
Ø<>
 41
10.0
 42
0.0
 44
2.0
 73
     0
 74
     0
 77
     1
 78
     8
140
10.0
147
2.0
172
     1
173
     1
176
     4
177
     4
178
     1
271
     0
340
253
  0
DIMSTYLE
105
278
102
{ACAD_REACTORS
330
279
102
}
330
A
100
AcDbSymbolTableRecord
100
AcDbDimStyleTableRecord
  2
ME10_DIM_13
 70
     0
 41
10.0
 42
0.0
 44
2.0
 73
     0
 74
     0
 77
     1
 78
     8
140
10.0
147
2.0
172
     1
173
     1
176
     4
177
     4
178
     1
271
     2
340
253
  0
DIMSTYLE
105
283
102
{ACAD_REACTORS
330
284
102
}
330
A
100
AcDbSymbolTableRecord
100
AcDbDimStyleTableRecord
  2
ME10_DIM_14
 70
     0
 41
10.0
 42
0.0
 44
2.0
 73
     0
 74
     0
 77
     1
 78
     8
140
10.0
147
2.0
172
     1
173
     1
176
     4
177
     4
178
     1
271
     2
340
253
  0
ENDTAB
  0
TABLE
  2
BLOCK_RECORD
  5
1
330
0
100
AcDbSymbolTable
 70
     8
  0
BLOCK_RECORD
  5
1F
330
1
100
AcDbSymbolTableRecord
100
AcDbBlockTableRecord
  2
*Model_Space
340
22
  0
BLOCK_RECORD
  5
1B
330
1
100
AcDbSymbolTableRecord
100
AcDbBlockTableRecord
  2
*Paper_Space
340
1E
  0
BLOCK_RECORD
  5
23
330
1
100
AcDbSymbolTableRecord
100
AcDbBlockTableRecord
  2
*Paper_Space0
340
26
  0
BLOCK_RECORD
  5
44
330
1
100
AcDbSymbolTableRecord
100
AcDbBlockTableRecord
  2
HL62_1P_7
340
0
102
{BLKREFS
331
6A
102
}
  0
BLOCK_RECORD
  5
47
330
1
100
AcDbSymbolTableRecord
100
AcDbBlockTableRecord
  2
HL_62_1P_7_DN75_Dachablauf
340
0
102
{BLKREFS
331
6D
102
}
  0
BLOCK_RECORD
  5
24D
330
1
100
AcDbSymbolTableRecord
100
AcDbBlockTableRecord
  2
*D3
340
0
  0
BLOCK_RECORD
  5
259
330
1
100
AcDbSymbolTableRecord
100
AcDbBlockTableRecord
  2
*D4
340
0
  0
BLOCK_RECORD
  5
264
330
1
100
AcDbSymbolTableRecord
100
AcDbBlockTableRecord
  2
*D5
340
0
  0
BLOCK_RECORD
  5
26F
330
1
100
AcDbSymbolTableRecord
100
AcDbBlockTableRecord
  2
*D6
340
0
  0
BLOCK_RECORD
  5
27A
330
1
100
AcDbSymbolTableRecord
100
AcDbBlockTableRecord
  2
*D7
340
0
  0
ENDTAB
  0
ENDSEC
  0
SECTION
  2
BLOCKS
  0
BLOCK
  5
20
330
1F
100
AcDbEntity
  8
0
100
AcDbBlockBegin
  2
*Model_Space
 70
     0
 10
0.0
 20
0.0
 30
0.0
  3
*Model_Space
  1

  0
ENDBLK
  5
21
330
1F
100
AcDbEntity
  8
0
100
AcDbBlockEnd
  0
BLOCK
  5
1C
330
1B
100
AcDbEntity
 67
     1
  8
0
100
AcDbBlockBegin
  2
*Paper_Space
 70
     0
 10
0.0
 20
0.0
 30
0.0
  3
*Paper_Space
  1

  0
ENDBLK
  5
1D
330
1B
100
AcDbEntity
 67
     1
  8
0
100
AcDbBlockEnd
  0
BLOCK
  5
24
330
23
100
AcDbEntity
  8
0
100
AcDbBlockBegin
  2
*Paper_Space0
 70
     0
 10
0.0
 20
0.0
 30
0.0
  3
*Paper_Space0
  1

  0
ENDBLK
  5
25
330
23
100
AcDbEntity
  8
0
100
AcDbBlockEnd
  0
BLOCK
  5
45
330
44
100
AcDbEntity
  8
0
100
AcDbBlockBegin
  2
HL62_1P_7
 70
     0
 10
429.3365247833651
 20
87.12130330560248
 30
0.0
  3
HL62_1P_7
  1

  0
POINT
  5
6E
330
44
100
AcDbEntity
  8
0
 62
     7
100
AcDbPoint
 10
410.594081250379
 20
234.9999247343
 30
0.0
  0
POINT
  5
6F
330
44
100
AcDbEntity
  8
0
 62
     7
100
AcDbPoint
 10
374.328880441579
 20
159.9999201133001
 30
0.0
  0
POINT
  5
70
330
44
100
AcDbEntity
  8
0
 62
     7
100
AcDbPoint
 10
274.078877443979
 20
156.49999
 30
0.0
  0
POINT
  5
71
330
44
100
AcDbEntity
  8
0
 62
     7
100
AcDbPoint
 10
634.0788774439791
 20
156.49999
 30
0.0
  0
POINT
  5
72
330
44
100
AcDbEntity
  8
0
 62
     7
100
AcDbPoint
 10
416.578877443979
 20
5.0
 30
0.0
  0
POINT
  5
73
330
44
100
AcDbEntity
  8
0
 62
     7
100
AcDbPoint
 10
491.578877443979
 20
5.0
 30
0.0
  0
POINT
  5
74
330
44
100
AcDbEntity
  8
0
 62
     7
100
AcDbPoint
 10
373.978877443979
 20
74.00000200000002
 30
0.0
  0
POINT
  5
75
330
44
100
AcDbEntity
  8
0
 62
     7
100
AcDbPoint
 10
534.178877443979
 20
74.00000200000002
 30
0.0
  0
POINT
  5
76
330
44
100
AcDbEntity
  8
0
 62
     7
100
AcDbPoint
 10
292.078877443979
 20
159.9999201133001
 30
0.0
  0
POINT
  5
77
330
44
100
AcDbEntity
  8
0
 62
     7
100
AcDbPoint
 10
417.918623406179
 20
0.0
 30
0.0
  0
LWPOLYLINE
  5
78
330
44
100
AcDbEntity
  8
0
  6
Continuous
 62
     7
100
AcDbPolyline
 90
        2
 70
     0
 43
0.15
 10
412.428877443979
 20
66.50000200000002
 10
412.428877443979
 20
69.00000200000002
  0
LWPOLYLINE
  5
79
330
44
100
AcDbEntity
  8
0
  6
Continuous
 62
     7
100
AcDbPolyline
 90
        2
 70
     0
 43
0.15
 10
399.728877443979
 20
69.00000200000002
 10
399.728877443979
 20
66.50000200000002
  0
LWPOLYLINE
  5
7A
330
44
100
AcDbEntity
  8
0
  6
Continuous
 62
     7
100
AcDbPolyline
 90
        2
 70
     0
 43
0.15
 10
410.328877443979
 20
44.00000200000002
 10
410.328877443979
 20
66.50000200000002
  0
LWPOLYLINE
  5
7B
330
44
100
AcDbEntity
  8
0
  6
Continuous
 62
     7
100
AcDbPolyline
 90
        2
 70
     0
 43
0.15
 10
401.828877443979
 20
66.50000200000002
 10
401.828877443979
 20
44.00000200000002
  0
LWPOLYLINE
  5
7C
330
44
100
AcDbEntity
  8
0
  6
Continuous
 62
     7
100
AcDbPolyline
 90
        2
 70
     0
 43
0.15
 10
409.628877443979
 20
69.00000200000002
 10
409.628877443979
 20
44.00000200000002
  0
LWPOLYLINE
  5
7D
330
44
100
AcDbEntity
  8
0
  6
Continuous
 62
     7
100
AcDbPolyline
 90
        2
 70
     0
 43
0.15
 10
402.528877443979
 20
44.00000200000002
 10
402.528877443979
 20
69.00000200000002
  0
LWPOLYLINE
  5
7E
330
44
100
AcDbEntity
  8
0
  6
Continuous
 62
     7
100
AcDbPolyline
 90
        2
 70
     0
 43
0.15
 10
409.628877443979
 20
44.00000200000002
 10
409.078877443979
 20
44.00000200000002
  0
LWPOLYLINE
  5
7F
330
44
100
AcDbEntity
  8
0
  6
Continuous
 62
     7
100
AcDbPolyline
 90
        2
 70
     0
 43
0.15
 10
403.078877443979
 20
44.00000200000002
 10
402.528877443979
 20
44.00000200000002
  0
LWPOLYLINE
  5
80
330
44
100
AcDbEntity
  8
0
  6
Continuous
 62
     7
100
AcDbPolyline
 90
        2
 70
     0
 43
0.15
 10
409.628877443979
 20
69.00000200000002
 10
408.141054115779
 20
69.00000200000002
  0
LWPOLYLINE
  5
81
330
44
100
AcDbEntity
  8
0
  6
Continuous
 62
     7
100
AcDbPolyline
 90
        2
 70
     0
 43
0.15
 10
409.628877443979
 20
44.00000200000002
 10
410.328877443979
 20
44.00000200000002
  0
LWPOLYLINE
  5
82
330
44
100
AcDbEntity
  8
0
  6
Continuous
 62
     7
100
AcDbPolyline
 90
        2
 70
     0
 43
0.15
 10
412.428877443979
 20
69.00000200000002
 10
409.628877443979
 20
69.00000200000002
  0
LWPOLYLINE
  5
83
330
44
100
AcDbEntity
  8
0
  6
Continuous
 62
     7
100
AcDbPolyline
 90
        2
 70
     0
 43
0.15
 10
410.328877443979
 20
66.50000200000002
 10
412.428877443979
 20
66.50000200000002
  0
LWPOLYLINE
  5
84
330
44
100
AcDbEntity
  8
0
  6
Continuous
 62
     7
100
AcDbPolyline
 90
        2
 70
     0
 43
0.15
 10
401.828877443979
 20
44.00000200000002
 10
402.528877443979
 20
44.00000200000002
  0
LWPOLYLINE
  5
85
330
44
100
AcDbEntity
  8
0
  6
Continuous
 62
     7
100
AcDbPolyline
 90
        2
 70
     0
 43
0.15
 10
402.528877443979
 20
69.00000200000002
 10
399.728877443979
 20
69.00000200000002
  0
LWPOLYLINE
  5
86
330
44
100
AcDbEntity
  8
0
  6
Continuous
 62
     7
100
AcDbPolyline
 90
        2
 70
     0
 43
0.15
 10
399.728877443979
 20
66.50000200000002
 10
401.828877443979
 20
66.50000200000002
  0
LWPOLYLINE
  5
87
330
44
100
AcDbEntity
  8
0
  6
Continuous
 62
     7
100
AcDbPolyline
 90
        2
 70
     0
 43
0.15
 10
386.078877443979
 20
82.49999999999997
 10
386.078877443979
 20
73.49999999999997
  0
LWPOLYLINE
  5
88
330
44
100
AcDbEntity
  8
0
  6
Continuous
 62
     7
100
AcDbPolyline
 90
        2
 70
     0
 43
0.15
 10
380.078877443979
 20
73.49999999999997
 10
380.078877443979
 20
82.49999999999997
  0
LWPOLYLINE
  5
89
330
44
100
AcDbEntity
  8
0
  6
Continuous
 62
     7
100
AcDbPolyline
 90
        2
 70
     0
 43
0.15
 10
523.0788774439791
 20
82.49999999999997
 10
527.0788774439791
 20
82.49999999999997
  0
LWPOLYLINE
  5
8A
330
44
100
AcDbEntity
  8
0
  6
Continuous
 62
     7
100
AcDbPolyline
 90
        2
 70
     0
 43
0.15
 10
521.0788774439791
 20
92.49999999999997
 10
521.0788774439791
 20
84.49999999999997
  0
LWPOLYLINE
  5
8B
330
44
100
AcDbEntity
  8
0
  6
Continuous
 62
     7
100
AcDbPolyline
 90
        2
 70
     0
 43
0.15
 10
527.0788774439791
 20
94.49999999999997
 10
523.0788774439791
 20
94.49999999999997
  0
LWPOLYLINE
  5
8C
330
44
100
AcDbEntity
  8
0
  6
Continuous
 62
     7
100
AcDbPolyline
 90
        2
 70
     0
 43
0.15
 10
529.0788774439791
 20
84.49999999999997
 10
529.0788774439791
 20
92.49999999999997
  0
LWPOLYLINE
  5
8D
330
44
100
AcDbEntity
  8
0
  6
Continuous
 62
     7
100
AcDbPolyline
 90
        2
 70
     0
 43
0.15
 10
403.078877443979
 20
65.49999999999997
 10
403.078877443979
 20
-107.736731833
  0
LWPOLYLINE
  5
8E
330
44
100
AcDbEntity
  8
0
  6
Continuous
 62
     7
100
AcDbPolyline
 90
        2
 70
     0
 43
0.15
 10
409.078877443979
 20
-107.736731833
 10
409.078877443979
 20
65.49999999999997
  0
LWPOLYLINE
  5
8F
330
44
100
AcDbEntity
  8
0
  6
Continuous
 62
     7
100
AcDbPolyline
 90
        2
 70
     0
 43
0.15
 10
387.078877443979
 20
66.49999999999997
 10
402.078877443979
 20
66.49999999999997
  0
LWPOLYLINE
  5
90
330
44
100
AcDbEntity
  8
0
  6
Continuous
 62
     7
100
AcDbPolyline
 90
        2
 70
     0
 43
0.15
 10
402.078877443979
 20
72.49999999999997
 10
387.078877443979
 20
72.49999999999997
  0
LWPOLYLINE
  5
91
330
44
100
AcDbEntity
  8
0
  6
Continuous
 62
     7
100
AcDbPolyline
 90
        2
 70
     0
 43
0.15
 10
379.078877443979
 20
84.49999999999997
 10
379.078877443979
 20
92.49999999999997
  0
LWPOLYLINE
  5
92
330
44
100
AcDbEntity
  8
0
  6
Continuous
 62
     7
100
AcDbPolyline
 90
        2
 70
     0
 43
0.15
 10
385.078877443979
 20
94.49999999999997
 10
381.078877443979
 20
94.49999999999997
  0
LWPOLYLINE
  5
93
330
44
100
AcDbEntity
  8
0
  6
Continuous
 62
     7
100
AcDbPolyline
 90
        2
 70
     0
 43
0.15
 10
387.078877443979
 20
92.49999999999997
 10
387.078877443979
 20
84.49999999999997
  0
LWPOLYLINE
  5
94
330
44
100
AcDbEntity
  8
0
  6
Continuous
 62
     7
100
AcDbPolyline
 90
        2
 70
     0
 43
0.15
 10
385.078877443979
 20
82.49999999999997
 10
386.078877443979
 20
82.49999999999997
  0
LWPOLYLINE
  5
95
330
44
100
AcDbEntity
  8
0
  6
Continuous
 62
     7
100
AcDbPolyline
 90
        2
 70
     0
 43
0.15
 10
403.078877443979
 20
-107.736731833
 10
409.078877443979
 20
-107.736731833
  0
LWPOLYLINE
  5
96
330
44
100
AcDbEntity
  8
0
  6
Continuous
 62
     7
100
AcDbPolyline
 90
        2
 70
     0
 43
0.15
 10
380.078877443979
 20
82.49999999999997
 10
381.078877443979
 20
82.49999999999997
  0
LWPOLYLINE
  5
97
330
44
100
AcDbEntity
  8
0
  6
Continuous
 62
     7
100
AcDbPolyline
 90
        2
 70
     0
 43
0.15
 10
523.0788774439791
 20
94.49999999999997
 10
521.0788774439791
 20
94.49999999999997
  0
LWPOLYLINE
  5
98
330
44
100
AcDbEntity
  8
0
  6
Continuous
 62
     7
100
AcDbPolyline
 90
        2
 70
     0
 43
0.15
 10
387.078877443979
 20
94.49999999999997
 10
385.078877443979
 20
94.49999999999997
  0
LWPOLYLINE
  5
99
330
44
100
AcDbEntity
  8
0
  6
Continuous
 62
     7
100
AcDbPolyline
 90
        2
 70
     0
 43
0.15
 10
523.0788774439791
 20
82.49999999999997
 10
521.0788774439791
 20
82.49999999999997
  0
LWPOLYLINE
  5
9A
330
44
100
AcDbEntity
  8
0
  6
Continuous
 62
     7
100
AcDbPolyline
 90
        2
 70
     0
 43
0.15
 10
387.078877443979
 20
82.49999999999997
 10
386.078877443979
 20
82.49999999999997
  0
LWPOLYLINE
  5
9B
330
44
100
AcDbEntity
  8
0
  6
Continuous
 62
     7
100
AcDbPolyline
 90
        2
 70
     0
 43
0.15
 10
476.272041035479
 20
235.0999261132999
 10
476.272041035479
 20
234.9999261133
  0
LWPOLYLINE
  5
9C
330
44
100
AcDbEntity
  8
0
  6
Continuous
 62
     7
100
AcDbPolyline
 90
        2
 70
     0
 43
0.15
 10
476.272041035479
 20
235.0999261132999
 10
476.272041337979
 20
235.0999261132999
  0
LWPOLYLINE
  5
9D
330
44
100
AcDbEntity
  8
0
  6
Continuous
 62
     7
100
AcDbPolyline
 90
        2
 70
     0
 43
0.15
 10
476.2720415354791
 20
234.9999261133
 10
476.272041337979
 20
235.0999261132999
  0
LWPOLYLINE
  5
9E
330
44
100
AcDbEntity
  8
0
  6
Continuous
 62
     7
100
AcDbPolyline
 90
        2
 70
     0
 43
0.15
 10
483.532628787179
 20
235.0999261132999
 10
483.532628787179
 20
234.9999261133
  0
LWPOLYLINE
  5
9F
330
44
100
AcDbEntity
  8
0
  6
Continuous
 62
     7
100
AcDbPolyline
 90
        2
 70
     0
 43
0.15
 10
483.507959486279
 20
235.0999261132999
 10
483.507959486279
 20
234.9999261133
  0
LWPOLYLINE
  5
A0
330
44
100
AcDbEntity
  8
0
  6
Continuous
 62
     7
100
AcDbPolyline
 90
        2
 70
     0
 43
0.15
 10
483.507959486279
 20
235.0999261132999
 10
483.532628787179
 20
235.0999261132999
  0
LWPOLYLINE
  5
A1
330
44
100
AcDbEntity
  8
0
  6
Continuous
 62
     7
100
AcDbPolyline
 90
        2
 70
     0
 43
0.15
 10
502.527459347779
 20
220.584683641
 10
502.527459347779
 20
220.1999261133
  0
LWPOLYLINE
  5
A2
330
44
100
AcDbEntity
  8
0
  6
Continuous
 62
     7
100
AcDbPolyline
 90
        2
 70
     0
 43
0.15
 10
502.527459347779
 20
220.1999261133
 10
405.630295540279
 20
220.1999261133
  0
LWPOLYLINE
  5
A3
330
44
100
AcDbEntity
  8
0
  6
Continuous
 62
     7
100
AcDbPolyline
 90
        2
 70
     0
 43
0.15
 10
397.878877443979
 20
199.2878330131
 10
397.878877443979
 20
194.5999856133
  0
LWPOLYLINE
  5
A4
330
44
100
AcDbEntity
  8
0
  6
Continuous
 62
     7
100
AcDbPolyline
 90
        2
 70
     0
 43
0.15
 10
397.878877443979
 20
194.5999856133
 10
396.172640883379
 20
194.5999856133
  0
LWPOLYLINE
  5
A5
330
44
100
AcDbEntity
  8
0
  6
Continuous
 62
     7
100
AcDbPolyline
 90
        2
 70
     0
 43
0.15
 10
383.579249215779
 20
159.9999201133001
 10
383.578877443979
 20
159.9999201133001
  0
LWPOLYLINE
  5
A6
330
44
100
AcDbEntity
  8
0
  6
Continuous
 62
     7
100
AcDbPolyline
 90
        2
 70
     0
 43
0.15
 10
383.578877443979
 20
152.2999201133
 10
383.578877443979
 20
159.9999201133001
  0
LWPOLYLINE
  5
A7
330
44
100
AcDbEntity
  8
0
  6
Continuous
 62
     7
100
AcDbPolyline
 90
        2
 70
     0
 43
0.15
 10
383.078877443979
 20
152.2999201133
 10
383.578877443979
 20
152.2999201133
  0
LWPOLYLINE
  5
A8
330
44
100
AcDbEntity
  8
0
  6
Continuous
 62
     7
100
AcDbPolyline
 90
        2
 70
     0
 43
0.15
 10
383.078877443979
 20
130.9999201133
 10
383.078877443979
 20
152.2999201133
  0
LWPOLYLINE
  5
A9
330
44
100
AcDbEntity
  8
0
  6
Continuous
 62
     7
100
AcDbPolyline
 90
        2
 70
     0
 43
0.15
 10
379.678877443979
 20
130.9999201133
 10
383.078877443979
 20
130.9999201133
  0
LWPOLYLINE
  5
AA
330
44
100
AcDbEntity
  8
0
  6
Continuous
 62
     7
100
AcDbPolyline
 90
        2
 70
     0
 43
0.15
 10
379.678877443979
 20
132.9999201133
 10
380.178877443979
 20
132.9999201133
  0
LWPOLYLINE
  5
AB
330
44
100
AcDbEntity
  8
0
  6
Continuous
 62
     7
100
AcDbPolyline
 90
        2
 70
     0
 43
0.15
 10
380.178877443979
 20
132.9999201133
 10
380.178877443979
 20
159.9999201133001
  0
LWPOLYLINE
  5
AC
330
44
100
AcDbEntity
  8
0
  6
Continuous
 62
     7
100
AcDbPolyline
 90
        2
 70
     0
 43
0.15
 10
380.178877443979
 20
159.9999201133001
 10
371.685979626179
 20
159.9999201133001
  0
LWPOLYLINE
  5
AD
330
44
100
AcDbEntity
  8
0
  6
Continuous
 62
     7
100
AcDbPolyline
 90
        2
 70
     0
 43
0.15
 10
368.493412626179
 20
161.8242441133
 10
371.685979626179
 20
159.9999201133001
  0
LWPOLYLINE
  5
AE
330
44
100
AcDbEntity
  8
0
  6
Continuous
 62
     7
100
AcDbPolyline
 90
        2
 70
     0
 43
0.15
 10
391.534906208579
 20
225.1302282083
 10
368.493412626179
 20
161.8242441133
  0
LWPOLYLINE
  5
AF
330
44
100
AcDbEntity
  8
0
  6
Continuous
 62
     7
100
AcDbPolyline
 90
        2
 70
     0
 43
0.15
 10
465.881142035479
 20
234.9999261133
 10
465.881142035479
 20
235.0999261132999
  0
LWPOLYLINE
  5
B0
330
44
100
AcDbEntity
  8
0
  6
Continuous
 62
     7
100
AcDbPolyline
 90
        2
 70
     0
 43
0.15
 10
466.707196035479
 20
235.0999261132999
 10
465.881142035479
 20
235.0999261132999
  0
LWPOLYLINE
  5
B1
330
44
100
AcDbEntity
  8
0
  6
Continuous
 62
     7
100
AcDbPolyline
 90
        2
 70
     0
 43
0.15
 10
466.707196035479
 20
234.9999261133
 10
466.707196035479
 20
235.0999261132999
  0
LWPOLYLINE
  5
B2
330
44
100
AcDbEntity
  8
0
  6
Continuous
 62
     7
100
AcDbPolyline
 90
        2
 70
     0
 43
0.15
 10
468.023920035479
 20
235.0999261132999
 10
467.284818535479
 20
235.0999261132999
  0
LWPOLYLINE
  5
B3
330
44
100
AcDbEntity
  8
0
  6
Continuous
 62
     7
100
AcDbPolyline
 90
        2
 70
     0
 43
0.15
 10
468.023920035479
 20
235.0999261132999
 10
468.023920035479
 20
234.9999261133
  0
LWPOLYLINE
  5
B4
330
44
100
AcDbEntity
  8
0
  6
Continuous
 62
     7
100
AcDbPolyline
 90
        2
 70
     0
 43
0.15
 10
468.4027830354791
 20
234.9999261133
 10
468.4027830354791
 20
235.0999261132999
  0
LWPOLYLINE
  5
B5
330
44
100
AcDbEntity
  8
0
  6
Continuous
 62
     7
100
AcDbPolyline
 90
        2
 70
     0
 43
0.15
 10
470.7505165354791
 20
235.0999261132999
 10
468.4027830354791
 20
235.0999261132999
  0
LWPOLYLINE
  5
B6
330
44
100
AcDbEntity
  8
0
  6
Continuous
 62
     7
100
AcDbPolyline
 90
        2
 70
     0
 43
0.15
 10
470.7505165354791
 20
235.0999261132999
 10
470.7505165354791
 20
234.9999261133
  0
LWPOLYLINE
  5
B7
330
44
100
AcDbEntity
  8
0
  6
Continuous
 62
     7
100
AcDbPolyline
 90
        2
 70
     0
 43
0.15
 10
473.054775035479
 20
234.9999261133
 10
473.054775035479
 20
235.0999261132999
  0
LWPOLYLINE
  5
B8
330
44
100
AcDbEntity
  8
0
  6
Continuous
 62
     7
100
AcDbPolyline
 90
        2
 70
     0
 43
0.15
 10
474.924268035479
 20
234.9999261133
 10
474.924268035479
 20
235.0999261132999
  0
LWPOLYLINE
  5
B9
330
44
100
AcDbEntity
  8
0
  6
Continuous
 62
     7
100
AcDbPolyline
 90
        2
 70
     0
 43
0.15
 10
475.706846035479
 20
235.0999261132999
 10
475.706846035479
 20
234.9999261133
  0
LWPOLYLINE
  5
BA
330
44
100
AcDbEntity
  8
0
  6
Continuous
 62
     7
100
AcDbPolyline
 90
        2
 70
     0
 43
0.15
 10
475.706846035479
 20
234.9999261133
 10
476.2720415354791
 20
234.9999261133
  0
LWPOLYLINE
  5
BB
330
44
100
AcDbEntity
  8
0
  6
Continuous
 62
     7
100
AcDbPolyline
 90
        2
 70
     0
 43
0.15
 10
477.098096035479
 20
235.0999261132999
 10
477.098096035479
 20
234.9999261133
  0
LWPOLYLINE
  5
BC
330
44
100
AcDbEntity
  8
0
  6
Continuous
 62
     7
100
AcDbPolyline
 90
        2
 70
     0
 43
0.15
 10
477.098096035479
 20
234.9999261133
 10
477.663291535479
 20
234.9999261133
  0
LWPOLYLINE
  5
BD
330
44
100
AcDbEntity
  8
0
  6
Continuous
 62
     7
100
AcDbPolyline
 90
        2
 70
     0
 43
0.15
 10
477.663291535479
 20
234.9999261133
 10
477.663291535479
 20
235.0999261132999
  0
LWPOLYLINE
  5
BE
330
44
100
AcDbEntity
  8
0
  6
Continuous
 62
     7
100
AcDbPolyline
 90
        2
 70
     0
 43
0.15
 10
478.445869229179
 20
235.0999261132999
 10
478.445869229179
 20
234.9999261133
  0
LWPOLYLINE
  5
BF
330
44
100
AcDbEntity
  8
0
  6
Continuous
 62
     7
100
AcDbPolyline
 90
        2
 70
     0
 43
0.15
 10
478.793683035479
 20
234.9999261133
 10
478.793683035479
 20
235.0999261132999
  0
LWPOLYLINE
  5
C0
330
44
100
AcDbEntity
  8
0
  6
Continuous
 62
     7
100
AcDbPolyline
 90
        2
 70
     0
 43
0.15
 10
478.793683035479
 20
235.0999261132999
 10
480.706652035479
 20
235.0999261132999
  0
LWPOLYLINE
  5
C1
330
44
100
AcDbEntity
  8
0
  6
Continuous
 62
     7
100
AcDbPolyline
 90
        2
 70
     0
 43
0.15
 10
480.706652035479
 20
235.0999261132999
 10
480.706652035479
 20
234.9999261133
  0
LWPOLYLINE
  5
C2
330
44
100
AcDbEntity
  8
0
  6
Continuous
 62
     7
100
AcDbPolyline
 90
        2
 70
     0
 43
0.15
 10
481.184892967479
 20
234.9999261133
 10
481.184892967479
 20
235.0999261132999
  0
LWPOLYLINE
  5
C3
330
44
100
AcDbEntity
  8
0
  6
Continuous
 62
     7
100
AcDbPolyline
 90
        2
 70
     0
 43
0.15
 10
539.664342261879
 20
161.8242441133
 10
516.622848679544
 20
225.1302282083
  0
LWPOLYLINE
  5
C4
330
44
100
AcDbEntity
  8
0
  6
Continuous
 62
     7
100
AcDbPolyline
 90
        2
 70
     0
 43
0.15
 10
536.471775261879
 20
159.9999201133001
 10
539.664342261879
 20
161.8242441133
  0
LWPOLYLINE
  5
C5
330
44
100
AcDbEntity
  8
0
  6
Continuous
 62
     7
100
AcDbPolyline
 90
        2
 70
     0
 43
0.15
 10
536.471775261879
 20
159.9999201133001
 10
527.978877443979
 20
159.9999201133001
  0
LWPOLYLINE
  5
C6
330
44
100
AcDbEntity
  8
0
  6
Continuous
 62
     7
100
AcDbPolyline
 90
        2
 70
     0
 43
0.15
 10
527.978877443979
 20
159.9999201133001
 10
527.978877443979
 20
132.9999201133
  0
LWPOLYLINE
  5
C7
330
44
100
AcDbEntity
  8
0
  6
Continuous
 62
     7
100
AcDbPolyline
 90
        2
 70
     0
 43
0.15
 10
525.0788774439791
 20
152.2999201133
 10
525.0788774439791
 20
130.9999201133
  0
LWPOLYLINE
  5
C8
330
44
100
AcDbEntity
  8
0
  6
Continuous
 62
     7
100
AcDbPolyline
 90
        2
 70
     0
 43
0.15
 10
524.5788774439791
 20
152.2999201133
 10
525.0788774439791
 20
152.2999201133
  0
LWPOLYLINE
  5
C9
330
44
100
AcDbEntity
  8
0
  6
Continuous
 62
     7
100
AcDbPolyline
 90
        2
 70
     0
 43
0.15
 10
524.5788774439791
 20
159.9999201133001
 10
524.5788774439791
 20
152.2999201133
  0
LWPOLYLINE
  5
CA
330
44
100
AcDbEntity
  8
0
  6
Continuous
 62
     7
100
AcDbPolyline
 90
        2
 70
     0
 43
0.15
 10
524.5788774439791
 20
159.9999201133001
 10
524.578505672279
 20
159.9999201133001
  0
LWPOLYLINE
  5
CB
330
44
100
AcDbEntity
  8
0
  6
Continuous
 62
     7
100
AcDbPolyline
 90
        2
 70
     0
 43
0.15
 10
511.985114004679
 20
194.5999856133
 10
510.278877443979
 20
194.5999856133
  0
LWPOLYLINE
  5
CC
330
44
100
AcDbEntity
  8
0
  6
Continuous
 62
     7
100
AcDbPolyline
 90
        2
 70
     0
 43
0.15
 10
510.278877443979
 20
194.5999856133
 10
510.278877443979
 20
199.2878330131
  0
LWPOLYLINE
  5
CD
330
44
100
AcDbEntity
  8
0
  6
Continuous
 62
     7
100
AcDbPolyline
 90
        2
 70
     0
 43
0.15
 10
473.054775035479
 20
235.0999261132999
 10
473.8373540354791
 20
235.0999261132999
  0
LWPOLYLINE
  5
CE
330
44
100
AcDbEntity
  8
0
  6
Continuous
 62
     7
100
AcDbPolyline
 90
        2
 70
     0
 43
0.15
 10
473.8373540354791
 20
235.0999261132999
 10
473.8373540354791
 20
234.9999261133
  0
LWPOLYLINE
  5
CF
330
44
100
AcDbEntity
  8
0
  6
Continuous
 62
     7
100
AcDbPolyline
 90
        2
 70
     0
 43
0.15
 10
527.978877443979
 20
132.9999201133
 10
528.478877443979
 20
132.9999201133
  0
LWPOLYLINE
  5
D0
330
44
100
AcDbEntity
  8
0
  6
Continuous
 62
     7
100
AcDbPolyline
 90
        2
 70
     0
 43
0.15
 10
525.0788774439791
 20
130.9999201133
 10
528.478877443979
 20
130.9999201133
  0
LWPOLYLINE
  5
D1
330
44
100
AcDbEntity
  8
0
  6
Continuous
 62
     7
100
AcDbPolyline
 90
        2
 70
     0
 43
0.15
 10
471.185283035479
 20
235.0999261132999
 10
471.967861035479
 20
235.0999261132999
  0
LWPOLYLINE
  5
D2
330
44
100
AcDbEntity
  8
0
  6
Continuous
 62
     7
100
AcDbPolyline
 90
        2
 70
     0
 43
0.15
 10
471.967861035479
 20
235.0999261132999
 10
471.967861035479
 20
234.9999261133
  0
LWPOLYLINE
  5
D3
330
44
100
AcDbEntity
  8
0
  6
Continuous
 62
     7
100
AcDbPolyline
 90
        2
 70
     0
 43
0.15
 10
471.185283035479
 20
234.9999261133
 10
471.185283035479
 20
235.0999261132999
  0
LWPOLYLINE
  5
D4
330
44
100
AcDbEntity
  8
0
  6
Continuous
 62
     7
100
AcDbPolyline
 90
        2
 70
     0
 43
0.15
 10
466.707196035479
 20
234.9999261133
 10
467.284818535479
 20
234.9999261133
  0
LWPOLYLINE
  5
D5
330
44
100
AcDbEntity
  8
0
  6
Continuous
 62
     7
100
AcDbPolyline
 90
        2
 70
     0
 43
0.15
 10
467.284818535479
 20
235.0999261132999
 10
467.284818535479
 20
234.9999261133
  0
LWPOLYLINE
  5
D6
330
44
100
AcDbEntity
  8
0
  6
Continuous
 62
     7
100
AcDbPolyline
 90
        2
 70
     0
 43
0.15
 10
510.278877443979
 20
199.2878330131
 10
502.527459347779
 20
220.584683641
  0
LWPOLYLINE
  5
D7
330
44
100
AcDbEntity
  8
0
  6
Continuous
 62
     7
100
AcDbPolyline
 90
        2
 70
     0
 43
0.15
 10
524.578505672279
 20
159.9999201133001
 10
511.985114004679
 20
194.5999856133
  0
LWPOLYLINE
  5
D8
330
44
100
AcDbEntity
  8
0
  6
Continuous
 62
     7
100
AcDbPolyline
 90
        2
 70
     0
 43
0.15
 10
396.172640883379
 20
194.5999856133
 10
383.579249215779
 20
159.9999201133001
  0
LWPOLYLINE
  5
D9
330
44
100
AcDbEntity
  8
0
  6
Continuous
 62
     7
100
AcDbPolyline
 90
        2
 70
     0
 43
0.15
 10
483.507959486279
 20
234.9999261133
 10
502.527459347779
 20
234.9999261133
  0
LWPOLYLINE
  5
DA
330
44
100
AcDbEntity
  8
0
  6
Continuous
 62
     7
100
AcDbPolyline
 90
        2
 70
     0
 43
0.15
 10
480.706652035479
 20
234.9999261133
 10
481.184892967479
 20
234.9999261133
  0
LWPOLYLINE
  5
DB
330
44
100
AcDbEntity
  8
0
  6
Continuous
 62
     7
100
AcDbPolyline
 90
        2
 70
     0
 43
0.15
 10
478.445869229179
 20
234.9999261133
 10
478.793683035479
 20
234.9999261133
  0
LWPOLYLINE
  5
DC
330
44
100
AcDbEntity
  8
0
  6
Continuous
 62
     7
100
AcDbPolyline
 90
        2
 70
     0
 43
0.15
 10
473.8373540354791
 20
234.9999261133
 10
474.924268035479
 20
234.9999261133
  0
LWPOLYLINE
  5
DD
330
44
100
AcDbEntity
  8
0
  6
Continuous
 62
     7
100
AcDbPolyline
 90
        2
 70
     0
 43
0.15
 10
471.967861035479
 20
234.9999261133
 10
473.054775035479
 20
234.9999261133
  0
LWPOLYLINE
  5
DE
330
44
100
AcDbEntity
  8
0
  6
Continuous
 62
     7
100
AcDbPolyline
 90
        2
 70
     0
 43
0.15
 10
470.7505165354791
 20
234.9999261133
 10
471.185283035479
 20
234.9999261133
  0
LWPOLYLINE
  5
DF
330
44
100
AcDbEntity
  8
0
  6
Continuous
 62
     7
100
AcDbPolyline
 90
        2
 70
     0
 43
0.15
 10
468.023920035479
 20
234.9999261133
 10
468.4027830354791
 20
234.9999261133
  0
LWPOLYLINE
  5
E0
330
44
100
AcDbEntity
  8
0
  6
Continuous
 62
     7
100
AcDbPolyline
 90
        2
 70
     0
 43
0.15
 10
405.630295540279
 20
234.9999261133
 10
465.881142035479
 20
234.9999261133
  0
LWPOLYLINE
  5
E1
330
44
100
AcDbEntity
  8
0
  6
Continuous
 62
     7
100
AcDbPolyline
 90
        2
 70
     0
 43
0.15
 10
483.507959486279
 20
235.0999261132999
 10
481.184892967479
 20
235.0999261132999
  0
LWPOLYLINE
  5
E2
330
44
100
AcDbEntity
  8
0
  6
Continuous
 62
     7
100
AcDbPolyline
 90
        2
 70
     0
 43
0.15
 10
405.630295540279
 20
220.1999261133
 10
405.630295540279
 20
220.584683641
  0
LWPOLYLINE
  5
E3
330
44
100
AcDbEntity
  8
0
  6
Continuous
 62
     7
100
AcDbPolyline
 90
        2
 70
     0
 43
0.15
 10
405.630295540279
 20
220.584683641
 10
397.878877443979
 20
199.2878330131
  0
LWPOLYLINE
  5
E4
330
44
100
AcDbEntity
  8
0
  6
Continuous
 62
     7
100
AcDbPolyline
 90
        2
 70
     0
 43
0.15
 10
477.098096035479
 20
235.0999261132999
 10
476.272041337979
 20
235.0999261132999
  0
LWPOLYLINE
  5
E5
330
44
100
AcDbEntity
  8
0
  6
Continuous
 62
     7
100
AcDbPolyline
 90
        2
 70
     0
 43
0.15
 10
475.706846035479
 20
235.0999261132999
 10
474.924268035479
 20
235.0999261132999
  0
LWPOLYLINE
  5
E6
330
44
100
AcDbEntity
  8
0
  6
Continuous
 62
     7
100
AcDbPolyline
 90
        2
 70
     0
 43
0.15
 10
478.445869229179
 20
235.0999261132999
 10
477.663291535479
 20
235.0999261132999
  0
LWPOLYLINE
  5
E7
330
44
100
AcDbEntity
  8
0
  6
Continuous
 62
     7
100
AcDbPolyline
 90
        2
 70
     0
 43
0.15
 10
399.507570391679
 20
199.9066920374
 10
398.104123661079
 20
199.9066920374
  0
LWPOLYLINE
  5
E8
330
44
100
AcDbEntity
  8
0
  6
Continuous
 62
     7
100
AcDbPolyline
 90
        2
 70
     0
 43
0.15
 10
399.507570391679
 20
199.9066920374
 10
399.507570391679
 20
199.3201632629
  0
LWPOLYLINE
  5
E9
330
44
100
AcDbEntity
  8
0
  6
Continuous
 62
     7
100
AcDbPolyline
 90
        2
 70
     0
 43
0.15
 10
404.8434404854791
 20
199.9066920374
 10
400.309059046779
 20
199.9066920374
  0
LWPOLYLINE
  5
EA
330
44
100
AcDbEntity
  8
0
  6
Continuous
 62
     7
100
AcDbPolyline
 90
        2
 70
     0
 43
0.15
 10
404.8434404854791
 20
199.9066920374
 10
404.8434404854791
 20
199.3201632629
  0
LWPOLYLINE
  5
EB
330
44
100
AcDbEntity
  8
0
  6
Continuous
 62
     7
100
AcDbPolyline
 90
        2
 70
     0
 43
0.15
 10
413.534624242479
 20
199.9066920374
 10
406.178318697479
 20
199.9066920374
  0
LWPOLYLINE
  5
EC
330
44
100
AcDbEntity
  8
0
  6
Continuous
 62
     7
100
AcDbPolyline
 90
        2
 70
     0
 43
0.15
 10
413.534624242479
 20
199.9066920374
 10
413.534624242479
 20
199.3201632629
  0
LWPOLYLINE
  5
ED
330
44
100
AcDbEntity
  8
0
  6
Continuous
 62
     7
100
AcDbPolyline
 90
        2
 70
     0
 43
0.15
 10
424.988831852779
 20
199.9066920374
 10
415.311922267279
 20
199.9066920374
  0
LWPOLYLINE
  5
EE
330
44
100
AcDbEntity
  8
0
  6
Continuous
 62
     7
100
AcDbPolyline
 90
        2
 70
     0
 43
0.15
 10
424.988831852779
 20
199.9066920374
 10
424.988831852779
 20
199.3201632629
  0
LWPOLYLINE
  5
EF
330
44
100
AcDbEntity
  8
0
  6
Continuous
 62
     7
100
AcDbPolyline
 90
        2
 70
     0
 43
0.15
 10
438.425477996479
 20
199.9066920374
 10
426.980690281479
 20
199.9066920374
  0
LWPOLYLINE
  5
F0
330
44
100
AcDbEntity
  8
0
  6
Continuous
 62
     7
100
AcDbPolyline
 90
        2
 70
     0
 43
0.15
 10
438.425477996479
 20
199.9066920374
 10
438.425477996479
 20
199.3201632629
  0
LWPOLYLINE
  5
F1
330
44
100
AcDbEntity
  8
0
  6
Continuous
 62
     7
100
AcDbPolyline
 90
        2
 70
     0
 43
0.15
 10
452.928877443979
 20
199.9066920374
 10
440.6471073968791
 20
199.9066920374
  0
LWPOLYLINE
  5
F2
330
44
100
AcDbEntity
  8
0
  6
Continuous
 62
     7
100
AcDbPolyline
 90
        2
 70
     0
 43
0.15
 10
467.510647491179
 20
199.9066920374
 10
455.228877443979
 20
199.9066920374
  0
LWPOLYLINE
  5
F3
330
44
100
AcDbEntity
  8
0
  6
Continuous
 62
     7
100
AcDbPolyline
 90
        2
 70
     0
 43
0.15
 10
469.732276891579
 20
199.9066920374
 10
469.732276891618
 20
199.320163262943
  0
LWPOLYLINE
  5
F4
330
44
100
AcDbEntity
  8
0
  6
Continuous
 62
     7
100
AcDbPolyline
 90
        2
 70
     0
 43
0.15
 10
481.1770646065791
 20
199.9066920374
 10
469.732276891579
 20
199.9066920374
  0
LWPOLYLINE
  5
F5
330
44
100
AcDbEntity
  8
0
  6
Continuous
 62
     7
100
AcDbPolyline
 90
        2
 70
     0
 43
0.15
 10
483.168923035279
 20
199.9066920374
 10
483.168923035226
 20
199.320163262931
  0
LWPOLYLINE
  5
F6
330
44
100
AcDbEntity
  8
0
  6
Continuous
 62
     7
100
AcDbPolyline
 90
        2
 70
     0
 43
0.15
 10
492.845832620779
 20
199.9066920374
 10
483.168923035279
 20
199.9066920374
  0
LWPOLYLINE
  5
F7
330
44
100
AcDbEntity
  8
0
  6
Continuous
 62
     7
100
AcDbPolyline
 90
        2
 70
     0
 43
0.15
 10
494.623130645479
 20
199.9066920374
 10
494.623130645284
 20
199.320163262885
  0
LWPOLYLINE
  5
F8
330
44
100
AcDbEntity
  8
0
  6
Continuous
 62
     7
100
AcDbPolyline
 90
        2
 70
     0
 43
0.15
 10
501.979436190579
 20
199.9066920374
 10
494.623130645479
 20
199.9066920374
  0
LWPOLYLINE
  5
F9
330
44
100
AcDbEntity
  8
0
  6
Continuous
 62
     7
100
AcDbPolyline
 90
        2
 70
     0
 43
0.15
 10
503.314314402579
 20
199.9066920374
 10
503.314314402745
 20
199.320163262997
  0
LWPOLYLINE
  5
FA
330
44
100
AcDbEntity
  8
0
  6
Continuous
 62
     7
100
AcDbPolyline
 90
        2
 70
     0
 43
0.15
 10
507.848695841179
 20
199.9066920374
 10
503.314314402579
 20
199.9066920374
  0
LWPOLYLINE
  5
FB
330
44
100
AcDbEntity
  8
0
  6
Continuous
 62
     7
100
AcDbPolyline
 90
        2
 70
     0
 43
0.15
 10
508.650184496379
 20
199.9066920374
 10
508.650184496311
 20
199.3201632629321
  0
LWPOLYLINE
  5
FC
330
44
100
AcDbEntity
  8
0
  6
Continuous
 62
     7
100
AcDbPolyline
 90
        2
 70
     0
 43
0.15
 10
510.053631226879
 20
199.9066920374
 10
508.650184496379
 20
199.9066920374
  0
LWPOLYLINE
  5
FD
330
44
100
AcDbEntity
  8
0
  6
Continuous
 62
     7
100
AcDbPolyline
 90
        2
 70
     0
 43
0.15
 10
510.278877443979
 20
194.5999856133
 10
397.878877443979
 20
194.5999856133
  0
LWPOLYLINE
  5
FE
330
44
100
AcDbEntity
  8
0
  6
Continuous
 62
     7
100
AcDbPolyline
 90
        2
 70
     0
 43
0.15
 10
384.066323482379
 20
151.2999201133
 10
384.066323482379
 20
130.9999201133
  0
LWPOLYLINE
  5
FF
330
44
100
AcDbEntity
  8
0
  6
Continuous
 62
     7
100
AcDbPolyline
 90
        2
 70
     0
 43
0.15
 10
383.078877443979
 20
130.9999201133
 10
384.066323482379
 20
130.9999201133
  0
LWPOLYLINE
  5
100
330
44
100
AcDbEntity
  8
0
  6
Continuous
 62
     7
100
AcDbPolyline
 90
        2
 70
     0
 43
0.15
 10
524.0914506953791
 20
130.9999201133
 10
524.0914506953791
 20
151.2999201133
  0
LWPOLYLINE
  5
101
330
44
100
AcDbEntity
  8
0
  6
Continuous
 62
     7
100
AcDbPolyline
 90
        2
 70
     0
 43
0.15
 10
524.0914506953791
 20
130.9999201133
 10
525.0788774439791
 20
130.9999201133
  0
LWPOLYLINE
  5
102
330
44
100
AcDbEntity
  8
0
  6
Continuous
 62
     7
100
AcDbPolyline
 90
        2
 70
     0
 43
0.15
 10
383.579249215779
 20
159.9999201133001
 10
385.922208282379
 20
159.9999201133001
  0
LWPOLYLINE
  5
103
330
44
100
AcDbEntity
  8
0
  6
Continuous
 62
     7
100
AcDbPolyline
 90
        2
 70
     0
 43
0.15
 10
386.040723306779
 20
159.9999201133001
 10
392.909931718079
 20
159.9999201133001
  0
LWPOLYLINE
  5
104
330
44
100
AcDbEntity
  8
0
  6
Continuous
 62
     7
100
AcDbPolyline
 90
        2
 70
     0
 43
0.15
 10
393.138885163879
 20
159.9999201133001
 10
404.066217718579
 20
159.9999201133001
  0
LWPOLYLINE
  5
105
330
44
100
AcDbEntity
  8
0
  6
Continuous
 62
     7
100
AcDbPolyline
 90
        2
 70
     0
 43
0.15
 10
404.390006786779
 20
159.9999201133001
 10
418.630783829579
 20
159.9999201133001
  0
LWPOLYLINE
  5
106
330
44
100
AcDbEntity
  8
0
  6
Continuous
 62
     7
100
AcDbPolyline
 90
        2
 70
     0
 43
0.15
 10
419.027342830279
 20
159.9999201133001
 10
435.611078939579
 20
159.9999201133001
  0
LWPOLYLINE
  5
107
330
44
100
AcDbEntity
  8
0
  6
Continuous
 62
     7
100
AcDbPolyline
 90
        2
 70
     0
 43
0.15
 10
436.053383032279
 20
159.9999201133001
 10
453.849923998179
 20
159.9999201133001
  0
LWPOLYLINE
  5
108
330
44
100
AcDbEntity
  8
0
  6
Continuous
 62
     7
100
AcDbPolyline
 90
        2
 70
     0
 43
0.15
 10
454.307830889879
 20
159.9999201133001
 10
472.1043718557791
 20
159.9999201133001
  0
LWPOLYLINE
  5
109
330
44
100
AcDbEntity
  8
0
  6
Continuous
 62
     7
100
AcDbPolyline
 90
        2
 70
     0
 43
0.15
 10
472.546675948479
 20
159.9999201133001
 10
489.130412057779
 20
159.9999201133001
  0
LWPOLYLINE
  5
10A
330
44
100
AcDbEntity
  8
0
  6
Continuous
 62
     7
100
AcDbPolyline
 90
        2
 70
     0
 43
0.15
 10
489.526971058479
 20
159.9999201133001
 10
503.767748101179
 20
159.9999201133001
  0
LWPOLYLINE
  5
10B
330
44
100
AcDbEntity
  8
0
  6
Continuous
 62
     7
100
AcDbPolyline
 90
        2
 70
     0
 43
0.15
 10
504.091537169479
 20
159.9999201133001
 10
515.018869724079
 20
159.9999201133001
  0
LWPOLYLINE
  5
10C
330
44
100
AcDbEntity
  8
0
  6
Continuous
 62
     7
100
AcDbPolyline
 90
        2
 70
     0
 43
0.15
 10
515.247823169979
 20
159.9999201133001
 10
522.117031581279
 20
159.9999201133001
  0
LWPOLYLINE
  5
10D
330
44
100
AcDbEntity
  8
0
  6
Continuous
 62
     7
100
AcDbPolyline
 90
        2
 70
     0
 43
0.15
 10
522.235546605679
 20
159.9999201133001
 10
524.578505672279
 20
159.9999201133001
  0
LWPOLYLINE
  5
10E
330
44
100
AcDbEntity
  8
0
  6
Continuous
 62
     7
100
AcDbPolyline
 90
        2
 70
     0
 43
0.15
 10
383.578877443979
 20
152.2999201133
 10
524.5788774439791
 20
152.2999201133
  0
LWPOLYLINE
  5
10F
330
44
100
AcDbEntity
  8
0
  6
Continuous
 62
     7
100
AcDbPolyline
 90
        2
 70
     0
 43
0.15
 10
467.154389035479
 20
235.0999261132999
 10
467.154389035479
 20
234.9999261133
  0
LWPOLYLINE
  5
110
330
44
100
AcDbEntity
  8
0
  6
Continuous
 62
     7
100
AcDbPolyline
 90
        2
 70
     0
 43
0.15
 10
467.284818535479
 20
235.0999261132999
 10
467.154389035479
 20
235.0999261132999
  0
LWPOLYLINE
  5
111
330
44
100
AcDbEntity
  8
0
  6
Continuous
 62
     7
100
AcDbPolyline
 90
        2
 70
     0
 43
0.15
 10
477.185049535479
 20
235.0999261132999
 10
477.185049535479
 20
234.9999261133
  0
LWPOLYLINE
  5
112
330
44
100
AcDbEntity
  8
0
  6
Continuous
 62
     7
100
AcDbPolyline
 90
        2
 70
     0
 43
0.15
 10
477.098096035479
 20
235.0999261132999
 10
477.185049535479
 20
235.0999261132999
  0
LWPOLYLINE
  5
113
330
44
100
AcDbEntity
  8
0
  6
Continuous
 62
     7
100
AcDbPolyline
 90
        2
 70
     0
 43
0.15
 10
476.185088035479
 20
235.0999261132999
 10
476.185088035479
 20
234.9999261133
  0
LWPOLYLINE
  5
114
330
44
100
AcDbEntity
  8
0
  6
Continuous
 62
     7
100
AcDbPolyline
 90
        2
 70
     0
 43
0.15
 10
476.185088035479
 20
235.0999261132999
 10
476.272041035479
 20
235.0999261132999
  0
LWPOLYLINE
  5
115
330
44
100
AcDbEntity
  8
0
  6
Continuous
 62
     7
100
AcDbPolyline
 90
        2
 70
     0
 43
0.15
 10
475.793799035479
 20
235.0999261132999
 10
475.793799035479
 20
234.9999261133
  0
LWPOLYLINE
  5
116
330
44
100
AcDbEntity
  8
0
  6
Continuous
 62
     7
100
AcDbPolyline
 90
        2
 70
     0
 43
0.15
 10
475.706846035479
 20
235.0999261132999
 10
475.793799035479
 20
235.0999261132999
  0
LWPOLYLINE
  5
117
330
44
100
AcDbEntity
  8
0
  6
Continuous
 62
     7
100
AcDbPolyline
 90
        2
 70
     0
 43
0.15
 10
477.576338535479
 20
235.0999261132999
 10
477.576338535479
 20
234.9999261133
  0
LWPOLYLINE
  5
118
330
44
100
AcDbEntity
  8
0
  6
Continuous
 62
     7
100
AcDbPolyline
 90
        2
 70
     0
 43
0.15
 10
477.576338535479
 20
235.0999261132999
 10
477.663291535479
 20
235.0999261132999
  0
LWPOLYLINE
  5
119
330
44
100
AcDbEntity
  8
0
  6
Continuous
 62
     7
100
AcDbPolyline
 90
        2
 70
     0
 43
0.15
 10
467.154389035479
 20
235.0999261132999
 10
466.707196035479
 20
235.0999261132999
  0
LWPOLYLINE
  5
11A
330
44
100
AcDbEntity
  8
0
  6
Continuous
 62
     7
100
AcDbPolyline
 90
        2
 70
     0
 43
0.15
 10
475.793799035479
 20
235.0999261132999
 10
476.185088035479
 20
235.0999261132999
  0
LWPOLYLINE
  5
11B
330
44
100
AcDbEntity
  8
0
  6
Continuous
 62
     7
100
AcDbPolyline
 90
        2
 70
     0
 43
0.15
 10
477.185049535479
 20
235.0999261132999
 10
477.576338535479
 20
235.0999261132999
  0
LWPOLYLINE
  5
11C
330
44
100
AcDbEntity
  8
0
  6
Continuous
 62
     7
100
AcDbPolyline
 90
        2
 70
     0
 43
0.15
 10
494.623130645284
 20
199.320163262885
 10
489.249394461679
 20
220.1999261133
  0
LWPOLYLINE
  5
11D
330
44
100
AcDbEntity
  8
0
  6
Continuous
 62
     7
100
AcDbPolyline
 90
        2
 70
     0
 43
0.15
 10
513.152627010979
 20
159.9999201133001
 10
514.272966496279
 20
160.9052911387
  0
LWPOLYLINE
  5
11E
330
44
100
AcDbEntity
  8
0
  6
Continuous
 62
     7
100
AcDbPolyline
 90
        2
 70
     0
 43
0.15
 10
504.742815433679
 20
159.9999191593
 10
495.837942787379
 20
194.5999856133
  0
LWPOLYLINE
  5
11F
330
44
100
AcDbEntity
  8
0
  6
Continuous
 62
     7
100
AcDbPolyline
 90
        2
 70
     0
 43
0.15
 10
395.005127877079
 20
159.9999201133001
 10
393.884788391779
 20
160.9052911387
  0
LWPOLYLINE
  5
120
330
44
100
AcDbEntity
  8
0
  6
Continuous
 62
     7
100
AcDbPolyline
 90
        2
 70
     0
 43
0.15
 10
413.534624242479
 20
199.3201632629
 10
418.908360426379
 20
220.1999261133
  0
LWPOLYLINE
  5
121
330
44
100
AcDbEntity
  8
0
  6
Continuous
 62
     7
100
AcDbPolyline
 90
        2
 70
     0
 43
0.15
 10
403.414939454379
 20
159.9999191593
 10
412.319812100679
 20
194.5999856133
  0
LWPOLYLINE
  5
122
330
44
100
AcDbEntity
  8
0
  6
Continuous
 62
     7
100
AcDbPolyline
 90
        2
 70
     0
 43
0.15
 10
380.178877443979
 20
143.2999201133
 10
378.060798118379
 20
143.2999201133
  0
LWPOLYLINE
  5
123
330
44
100
AcDbEntity
  8
0
  6
Continuous
 62
     7
100
AcDbPolyline
 90
        2
 70
     0
 43
0.15
 10
378.060798118379
 20
143.2999201133
 10
378.060798118379
 20
159.9999201133001
  0
LWPOLYLINE
  5
124
330
44
100
AcDbEntity
  8
0
  6
Continuous
 62
     7
100
AcDbPolyline
 90
        2
 70
     0
 43
0.15
 10
399.507570391679
 20
199.3201632629
 10
406.848230532079
 20
220.1999261133
  0
LWPOLYLINE
  5
125
330
44
100
AcDbEntity
  8
0
  6
Continuous
 62
     7
100
AcDbPolyline
 90
        2
 70
     0
 43
0.15
 10
385.683823892679
 20
159.9999191593
 10
397.848106145079
 20
194.5999856133
  0
LWPOLYLINE
  5
126
330
44
100
AcDbEntity
  8
0
  6
Continuous
 62
     7
100
AcDbPolyline
 90
        2
 70
     0
 43
0.15
 10
508.650184496311
 20
199.3201632629321
 10
501.309524355979
 20
220.1999261133
  0
LWPOLYLINE
  5
127
330
44
100
AcDbEntity
  8
0
  6
Continuous
 62
     7
100
AcDbPolyline
 90
        2
 70
     0
 43
0.15
 10
530.0969567696791
 20
143.2999201133
 10
530.0969567696791
 20
159.9999201133001
  0
LWPOLYLINE
  5
128
330
44
100
AcDbEntity
  8
0
  6
Continuous
 62
     7
100
AcDbPolyline
 90
        2
 70
     0
 43
0.15
 10
530.0969567696791
 20
143.2999201133
 10
527.978877443979
 20
143.2999201133
  0
LWPOLYLINE
  5
129
330
44
100
AcDbEntity
  8
0
  6
Continuous
 62
     7
100
AcDbPolyline
 90
        2
 70
     0
 43
0.15
 10
522.473930995279
 20
159.9999191593
 10
510.309648742979
 20
194.5999856133
  0
LWPOLYLINE
  5
12A
330
44
100
AcDbEntity
  8
0
  6
Continuous
 62
     7
100
AcDbPolyline
 90
        2
 70
     0
 43
0.15
 10
508.054900692514
 20
199.32016326291
 10
500.714240552279
 20
220.1999261133
  0
LWPOLYLINE
  5
12B
330
44
100
AcDbEntity
  8
0
  6
Continuous
 62
     7
100
AcDbPolyline
 90
        2
 70
     0
 43
0.15
 10
400.102854195447
 20
199.320163262911
 10
407.443514335779
 20
220.1999261133
  0
LWPOLYLINE
  5
12C
330
44
100
AcDbEntity
  8
0
  6
Continuous
 62
     7
100
AcDbPolyline
 90
        2
 70
     0
 43
0.15
 10
440.278894955879
 20
151.2999201133
 10
440.278894955879
 20
143.2999201133
  0
LWPOLYLINE
  5
12D
330
44
100
AcDbEntity
  8
0
  6
Continuous
 62
     7
100
AcDbPolyline
 90
        2
 70
     0
 43
0.15
 10
384.432934816479
 20
143.2999201133
 10
440.278894955879
 20
143.2999201133
  0
LWPOLYLINE
  5
12E
330
44
100
AcDbEntity
  8
0
  6
Continuous
 62
     7
100
AcDbPolyline
 90
        2
 70
     0
 43
0.15
 10
384.432934816479
 20
143.2999201133
 10
384.432934816479
 20
151.2999201133
  0
LWPOLYLINE
  5
12F
330
44
100
AcDbEntity
  8
0
  6
Continuous
 62
     7
100
AcDbPolyline
 90
        2
 70
     0
 43
0.15
 10
523.724842749479
 20
151.2999201133
 10
523.724842749479
 20
143.2999201133
  0
LWPOLYLINE
  5
130
330
44
100
AcDbEntity
  8
0
  6
Continuous
 62
     7
100
AcDbPolyline
 90
        2
 70
     0
 43
0.15
 10
467.878974383079
 20
143.2999201133
 10
523.724842749479
 20
143.2999201133
  0
LWPOLYLINE
  5
131
330
44
100
AcDbEntity
  8
0
  6
Continuous
 62
     7
100
AcDbPolyline
 90
        2
 70
     0
 43
0.15
 10
467.878974383079
 20
143.2999201133
 10
467.878974383079
 20
151.2999201133
  0
LWPOLYLINE
  5
132
330
44
100
AcDbEntity
  8
0
  6
Continuous
 62
     7
100
AcDbPolyline
 90
        2
 70
     0
 43
0.15
 10
523.724842749479
 20
143.2999201133
 10
524.0914506953791
 20
143.2999201133
  0
LWPOLYLINE
  5
133
330
44
100
AcDbEntity
  8
0
  6
Continuous
 62
     7
100
AcDbPolyline
 90
        2
 70
     0
 43
0.15
 10
384.066323482379
 20
143.2999201133
 10
384.432934816479
 20
143.2999201133
  0
LWPOLYLINE
  5
134
330
44
100
AcDbEntity
  8
0
  6
Continuous
 62
     7
100
AcDbPolyline
 90
        2
 70
     0
 43
0.15
 10
522.117031581279
 20
159.9999201133001
 10
522.235546605679
 20
159.9999201133001
  0
LWPOLYLINE
  5
135
330
44
100
AcDbEntity
  8
0
  6
Continuous
 62
     7
100
AcDbPolyline
 90
        2
 70
     0
 43
0.15
 10
521.878647191579
 20
159.9999191593
 10
509.714364939279
 20
194.5999856133
  0
LWPOLYLINE
  5
136
330
44
100
AcDbEntity
  8
0
  6
Continuous
 62
     7
100
AcDbPolyline
 90
        2
 70
     0
 43
0.15
 10
385.922208282379
 20
159.9999201133001
 10
386.040723306779
 20
159.9999201133001
  0
LWPOLYLINE
  5
137
330
44
100
AcDbEntity
  8
0
  6
Continuous
 62
     7
100
AcDbPolyline
 90
        2
 70
     0
 43
0.15
 10
386.279107696479
 20
159.9999191593
 10
398.443389948779
 20
194.5999856133
  0
LWPOLYLINE
  5
138
330
44
100
AcDbEntity
  8
0
  6
Continuous
 62
     7
100
AcDbPolyline
 90
        2
 70
     0
 43
0.15
 10
503.314314402745
 20
199.320163262997
 10
496.732858571179
 20
220.1999261133
  0
LWPOLYLINE
  5
139
330
44
100
AcDbEntity
  8
0
  6
Continuous
 62
     7
100
AcDbPolyline
 90
        2
 70
     0
 43
0.15
 10
515.7083464470791
 20
159.9999191593
 10
504.802149343079
 20
194.5999856133
  0
LWPOLYLINE
  5
13A
330
44
100
AcDbEntity
  8
0
  6
Continuous
 62
     7
100
AcDbPolyline
 90
        2
 70
     0
 43
0.15
 10
404.8434404854791
 20
199.3201632629
 10
411.424896316779
 20
220.1999261133
  0
LWPOLYLINE
  5
13B
330
44
100
AcDbEntity
  8
0
  6
Continuous
 62
     7
100
AcDbPolyline
 90
        2
 70
     0
 43
0.15
 10
392.449408440979
 20
159.9999191593
 10
403.355605544979
 20
194.5999856133
  0
LWPOLYLINE
  5
13C
330
44
100
AcDbEntity
  8
0
  6
Continuous
 62
     7
100
AcDbPolyline
 90
        2
 70
     0
 43
0.15
 10
502.164314402972
 20
199.320163263071
 10
495.582858571179
 20
220.1999261133
  0
LWPOLYLINE
  5
13D
330
44
100
AcDbEntity
  8
0
  6
Continuous
 62
     7
100
AcDbPolyline
 90
        2
 70
     0
 43
0.15
 10
405.993440484989
 20
199.320163263071
 10
412.574896316779
 20
220.1999261133
  0
LWPOLYLINE
  5
13E
330
44
100
AcDbEntity
  8
0
  6
Continuous
 62
     7
100
AcDbPolyline
 90
        2
 70
     0
 43
0.15
 10
515.018869724079
 20
159.9999201133001
 10
515.247823169979
 20
159.9999201133001
  0
LWPOLYLINE
  5
13F
330
44
100
AcDbEntity
  8
0
  6
Continuous
 62
     7
100
AcDbPolyline
 90
        2
 70
     0
 43
0.15
 10
514.558346447079
 20
159.9999191593
 10
503.652149343079
 20
194.5999856133
  0
LWPOLYLINE
  5
140
330
44
100
AcDbEntity
  8
0
  6
Continuous
 62
     7
100
AcDbPolyline
 90
        2
 70
     0
 43
0.15
 10
392.909931718079
 20
159.9999201133001
 10
393.138885163879
 20
159.9999201133001
  0
LWPOLYLINE
  5
141
330
44
100
AcDbEntity
  8
0
  6
Continuous
 62
     7
100
AcDbPolyline
 90
        2
 70
     0
 43
0.15
 10
393.599408440979
 20
159.9999191593
 10
404.505605544979
 20
194.5999856133
  0
LWPOLYLINE
  5
142
330
44
100
AcDbEntity
  8
0
  6
Continuous
 62
     7
100
AcDbPolyline
 90
        2
 70
     0
 43
0.15
 10
492.996785048385
 20
199.320163262838
 10
487.623048864979
 20
220.1999261133
  0
LWPOLYLINE
  5
143
330
44
100
AcDbEntity
  8
0
  6
Continuous
 62
     7
100
AcDbPolyline
 90
        2
 70
     0
 43
0.15
 10
415.160969839576
 20
199.320163262838
 10
420.534706023079
 20
220.1999261133
  0
LWPOLYLINE
  5
144
330
44
100
AcDbEntity
  8
0
  6
Continuous
 62
     7
100
AcDbPolyline
 90
        2
 70
     0
 43
0.15
 10
483.168923035226
 20
199.320163262931
 10
479.369117739379
 20
220.1999261133
  0
LWPOLYLINE
  5
145
330
44
100
AcDbEntity
  8
0
  6
Continuous
 62
     7
100
AcDbPolyline
 90
        2
 70
     0
 43
0.15
 10
497.867539067279
 20
161.8242441133
 10
491.902841983579
 20
194.5999856133
  0
LWPOLYLINE
  5
146
330
44
100
AcDbEntity
  8
0
  6
Continuous
 62
     7
100
AcDbPolyline
 90
        2
 70
     0
 43
0.15
 10
490.937100405079
 20
199.9066920374
 10
487.244033869479
 20
220.1999261133
  0
LWPOLYLINE
  5
147
330
44
100
AcDbEntity
  8
0
  6
Continuous
 62
     7
100
AcDbPolyline
 90
        2
 70
     0
 43
0.15
 10
496.271255567279
 20
159.9999201133001
 10
497.867539067279
 20
161.8242441133
  0
LWPOLYLINE
  5
148
330
44
100
AcDbEntity
  8
0
  6
Continuous
 62
     7
100
AcDbPolyline
 90
        2
 70
     0
 43
0.15
 10
490.324620772479
 20
159.9999191593
 10
484.027924938679
 20
194.5999856133
  0
LWPOLYLINE
  5
149
330
44
100
AcDbEntity
  8
0
  6
Continuous
 62
     7
100
AcDbPolyline
 90
        2
 70
     0
 43
0.15
 10
411.886499320779
 20
159.9999201133001
 10
410.290215820779
 20
161.8242441133
  0
LWPOLYLINE
  5
14A
330
44
100
AcDbEntity
  8
0
  6
Continuous
 62
     7
100
AcDbPolyline
 90
        2
 70
     0
 43
0.15
 10
410.290215820779
 20
161.8242441133
 10
416.254912904479
 20
194.5999856133
  0
LWPOLYLINE
  5
14B
330
44
100
AcDbEntity
  8
0
  6
Continuous
 62
     7
100
AcDbPolyline
 90
        2
 70
     0
 43
0.15
 10
417.220654482979
 20
199.9066920374
 10
420.913721018579
 20
220.1999261133
  0
LWPOLYLINE
  5
14C
330
44
100
AcDbEntity
  8
0
  6
Continuous
 62
     7
100
AcDbPolyline
 90
        2
 70
     0
 43
0.15
 10
424.988831852779
 20
199.3201632629
 10
428.788637148679
 20
220.1999261133
  0
LWPOLYLINE
  5
14D
330
44
100
AcDbEntity
  8
0
  6
Continuous
 62
     7
100
AcDbPolyline
 90
        2
 70
     0
 43
0.15
 10
417.833134115579
 20
159.9999191593
 10
424.129829949379
 20
194.5999856133
  0
LWPOLYLINE
  5
14E
330
44
100
AcDbEntity
  8
0
  6
Continuous
 62
     7
100
AcDbPolyline
 90
        2
 70
     0
 43
0.15
 10
481.177064606494
 20
199.320163262926
 10
477.3772593106791
 20
220.1999261133
  0
LWPOLYLINE
  5
14F
330
44
100
AcDbEntity
  8
0
  6
Continuous
 62
     7
100
AcDbPolyline
 90
        2
 70
     0
 43
0.15
 10
426.980690281467
 20
199.320163262926
 10
430.780495577379
 20
220.1999261133
  0
LWPOLYLINE
  5
150
330
44
100
AcDbEntity
  8
0
  6
Continuous
 62
     7
100
AcDbPolyline
 90
        2
 70
     0
 43
0.15
 10
503.767748101179
 20
159.9999201133001
 10
504.091537169479
 20
159.9999201133001
  0
LWPOLYLINE
  5
151
330
44
100
AcDbEntity
  8
0
  6
Continuous
 62
     7
100
AcDbPolyline
 90
        2
 70
     0
 43
0.15
 10
503.116469836979
 20
159.9999191593
 10
494.211597190679
 20
194.5999856133
  0
LWPOLYLINE
  5
152
330
44
100
AcDbEntity
  8
0
  6
Continuous
 62
     7
100
AcDbPolyline
 90
        2
 70
     0
 43
0.15
 10
404.066217718579
 20
159.9999201133001
 10
404.390006786779
 20
159.9999201133001
  0
LWPOLYLINE
  5
153
330
44
100
AcDbEntity
  8
0
  6
Continuous
 62
     7
100
AcDbPolyline
 90
        2
 70
     0
 43
0.15
 10
405.041285051079
 20
159.9999191593
 10
413.946157697379
 20
194.5999856133
  0
LWPOLYLINE
  5
154
330
44
100
AcDbEntity
  8
0
  6
Continuous
 62
     7
100
AcDbPolyline
 90
        2
 70
     0
 43
0.15
 10
469.732276891618
 20
199.320163262943
 10
467.765352935079
 20
220.1999261133
  0
LWPOLYLINE
  5
155
330
44
100
AcDbEntity
  8
0
  6
Continuous
 62
     7
100
AcDbPolyline
 90
        2
 70
     0
 43
0.15
 10
477.340840423079
 20
161.8242441133
 10
474.253286015979
 20
194.5999856133
  0
LWPOLYLINE
  5
156
330
44
100
AcDbEntity
  8
0
  6
Continuous
 62
     7
100
AcDbPolyline
 90
        2
 70
     0
 43
0.15
 10
473.753381389679
 20
199.9066920374
 10
471.841709481179
 20
220.1999261133
  0
LWPOLYLINE
  5
157
330
44
100
AcDbEntity
  8
0
  6
Continuous
 62
     7
100
AcDbPolyline
 90
        2
 70
     0
 43
0.15
 10
476.5145432806791
 20
159.9999201133001
 10
477.340840423079
 20
161.8242441133
  0
LWPOLYLINE
  5
158
330
44
100
AcDbEntity
  8
0
  6
Continuous
 62
     7
100
AcDbPolyline
 90
        2
 70
     0
 43
0.15
 10
473.436338602379
 20
159.9999191593
 10
470.1769289963791
 20
194.5999856133
  0
LWPOLYLINE
  5
159
330
44
100
AcDbEntity
  8
0
  6
Continuous
 62
     7
100
AcDbPolyline
 90
        2
 70
     0
 43
0.15
 10
431.643211607379
 20
159.9999201133001
 10
430.8169144649791
 20
161.8242441133
  0
LWPOLYLINE
  5
15A
330
44
100
AcDbEntity
  8
0
  6
Continuous
 62
     7
100
AcDbPolyline
 90
        2
 70
     0
 43
0.15
 10
430.8169144649791
 20
161.8242441133
 10
433.904468872079
 20
194.5999856133
  0
LWPOLYLINE
  5
15B
330
44
100
AcDbEntity
  8
0
  6
Continuous
 62
     7
100
AcDbPolyline
 90
        2
 70
     0
 43
0.15
 10
434.404373498379
 20
199.9066920374
 10
436.316045406879
 20
220.1999261133
  0
LWPOLYLINE
  5
15C
330
44
100
AcDbEntity
  8
0
  6
Continuous
 62
     7
100
AcDbPolyline
 90
        2
 70
     0
 43
0.15
 10
438.425477996479
 20
199.3201632629
 10
440.392401952979
 20
220.1999261133
  0
LWPOLYLINE
  5
15D
330
44
100
AcDbEntity
  8
0
  6
Continuous
 62
     7
100
AcDbPolyline
 90
        2
 70
     0
 43
0.15
 10
434.721416285679
 20
159.9999191593
 10
437.9808258916791
 20
194.5999856133
  0
LWPOLYLINE
  5
15E
330
44
100
AcDbEntity
  8
0
  6
Continuous
 62
     7
100
AcDbPolyline
 90
        2
 70
     0
 43
0.15
 10
467.510647491293
 20
199.320163262958
 10
465.543723534579
 20
220.1999261133
  0
LWPOLYLINE
  5
15F
330
44
100
AcDbEntity
  8
0
  6
Continuous
 62
     7
100
AcDbPolyline
 90
        2
 70
     0
 43
0.15
 10
440.647107396667
 20
199.320163262959
 10
442.614031353379
 20
220.1999261133
  0
LWPOLYLINE
  5
160
330
44
100
AcDbEntity
  8
0
  6
Continuous
 62
     7
100
AcDbPolyline
 90
        2
 70
     0
 43
0.15
 10
452.928877443951
 20
199.3201632629369
 10
452.928877443979
 20
220.1999261133
  0
LWPOLYLINE
  5
161
330
44
100
AcDbEntity
  8
0
  6
Continuous
 62
     7
100
AcDbPolyline
 90
        2
 70
     0
 43
0.15
 10
455.22887744401
 20
199.3201632629369
 10
455.228877443979
 20
220.1999261133
  0
LWPOLYLINE
  5
162
330
44
100
AcDbEntity
  8
0
  6
Continuous
 62
     7
100
AcDbPolyline
 90
        2
 70
     0
 43
0.15
 10
489.130412057779
 20
159.9999201133001
 10
489.526971058479
 20
159.9999201133001
  0
LWPOLYLINE
  5
163
330
44
100
AcDbEntity
  8
0
  6
Continuous
 62
     7
100
AcDbPolyline
 90
        2
 70
     0
 43
0.15
 10
488.332762343779
 20
159.9999191593
 10
482.036066509979
 20
194.5999856133
  0
LWPOLYLINE
  5
164
330
44
100
AcDbEntity
  8
0
  6
Continuous
 62
     7
100
AcDbPolyline
 90
        2
 70
     0
 43
0.15
 10
418.630783829579
 20
159.9999201133001
 10
419.027342830279
 20
159.9999201133001
  0
LWPOLYLINE
  5
165
330
44
100
AcDbEntity
  8
0
  6
Continuous
 62
     7
100
AcDbPolyline
 90
        2
 70
     0
 43
0.15
 10
419.824992544279
 20
159.9999191593
 10
426.121688378079
 20
194.5999856133
  0
LWPOLYLINE
  5
166
330
44
100
AcDbEntity
  8
0
  6
Continuous
 62
     7
100
AcDbPolyline
 90
        2
 70
     0
 43
0.15
 10
472.1043718557791
 20
159.9999201133001
 10
472.546675948479
 20
159.9999201133001
  0
LWPOLYLINE
  5
167
330
44
100
AcDbEntity
  8
0
  6
Continuous
 62
     7
100
AcDbPolyline
 90
        2
 70
     0
 43
0.15
 10
471.214709201879
 20
159.9999191593
 10
467.955299595879
 20
194.5999856133
  0
LWPOLYLINE
  5
168
330
44
100
AcDbEntity
  8
0
  6
Continuous
 62
     7
100
AcDbPolyline
 90
        2
 70
     0
 43
0.15
 10
435.611078939579
 20
159.9999201133001
 10
436.053383032279
 20
159.9999201133001
  0
LWPOLYLINE
  5
169
330
44
100
AcDbEntity
  8
0
  6
Continuous
 62
     7
100
AcDbPolyline
 90
        2
 70
     0
 43
0.15
 10
436.943045686179
 20
159.9999191593
 10
440.202455292179
 20
194.5999856133
  0
LWPOLYLINE
  5
16A
330
44
100
AcDbEntity
  8
0
  6
Continuous
 62
     7
100
AcDbPolyline
 90
        2
 70
     0
 43
0.15
 10
453.849923998179
 20
159.9999201133001
 10
454.307830889879
 20
159.9999201133001
  0
LWPOLYLINE
  5
16B
330
44
100
AcDbEntity
  8
0
  6
Continuous
 62
     7
100
AcDbPolyline
 90
        2
 70
     0
 43
0.15
 10
452.928877443979
 20
159.9999191593
 10
452.928877443979
 20
194.5999856133
  0
LWPOLYLINE
  5
16C
330
44
100
AcDbEntity
  8
0
  6
Continuous
 62
     7
100
AcDbPolyline
 90
        2
 70
     0
 43
0.15
 10
455.228877443979
 20
159.9999191593
 10
455.228877443979
 20
194.5999856133
  0
LWPOLYLINE
  5
16D
330
44
100
AcDbEntity
  8
0
  6
Continuous
 62
     7
100
AcDbPolyline
 90
        2
 70
     0
 43
0.15
 10
465.878974383079
 20
151.2999201133
 10
465.878974383079
 20
130.9999201133
  0
LWPOLYLINE
  5
16E
330
44
100
AcDbEntity
  8
0
  6
Continuous
 62
     7
100
AcDbPolyline
 90
        2
 70
     0
 43
0.15
 10
442.278894955879
 20
130.9999201133
 10
465.878974383079
 20
130.9999201133
  0
LWPOLYLINE
  5
16F
330
44
100
AcDbEntity
  8
0
  6
Continuous
 62
     7
100
AcDbPolyline
 90
        2
 70
     0
 43
0.15
 10
442.278894955879
 20
130.9999201133
 10
442.278894955879
 20
151.2999201133
  0
LWPOLYLINE
  5
170
330
44
100
AcDbEntity
  8
0
  6
Continuous
 62
     7
100
AcDbPolyline
 90
        2
 70
     0
 43
0.15
 10
374.078877443979
 20
74.00000200000002
 10
374.078877443979
 20
72.00000200000002
  0
LWPOLYLINE
  5
171
330
44
100
AcDbEntity
  8
0
  6
Continuous
 62
     7
100
AcDbPolyline
 90
        2
 70
     0
 43
0.15
 10
534.0788774439791
 20
72.00000200000002
 10
534.0788774439791
 20
74.00000200000002
  0
LWPOLYLINE
  5
172
330
44
100
AcDbEntity
  8
0
  6
Continuous
 62
     7
100
AcDbPolyline
 90
        2
 70
     0
 43
0.15
 10
377.078877443979
 20
78.00000200000002
 10
377.078877443979
 20
74.00000200000002
  0
LWPOLYLINE
  5
173
330
44
100
AcDbEntity
  8
0
  6
Continuous
 62
     7
100
AcDbPolyline
 90
        2
 70
     0
 43
0.15
 10
531.0788774439791
 20
74.00000200000002
 10
531.0788774439791
 20
78.00000200000002
  0
LWPOLYLINE
  5
174
330
44
100
AcDbEntity
  8
0
  6
Continuous
 62
     7
100
AcDbPolyline
 90
        2
 70
     0
 43
0.15
 10
377.8068179125791
 20
80.00000200000002
 10
377.078877443979
 20
78.00000200000002
  0
LWPOLYLINE
  5
175
330
44
100
AcDbEntity
  8
0
  6
Continuous
 62
     7
100
AcDbPolyline
 90
        2
 70
     0
 43
0.15
 10
531.0788774439791
 20
78.00000200000002
 10
530.350936975479
 20
80.00000200000002
  0
LWPOLYLINE
  5
176
330
44
100
AcDbEntity
  8
0
  6
Continuous
 62
     7
100
AcDbPolyline
 90
        2
 70
     0
 43
0.15
 10
379.078877443979
 20
69.00000200000002
 10
379.078877443979
 20
80.00000200000002
  0
LWPOLYLINE
  5
177
330
44
100
AcDbEntity
  8
0
  6
Continuous
 62
     7
100
AcDbPolyline
 90
        2
 70
     0
 43
0.15
 10
529.0788774439791
 20
80.00000200000002
 10
529.0788774439791
 20
69.00000200000002
  0
LWPOLYLINE
  5
178
330
44
100
AcDbEntity
  8
0
  6
Continuous
 62
     7
100
AcDbPolyline
 90
        2
 70
     0
 43
0.15
 10
379.078877443979
 20
80.00000200000002
 10
380.078877443979
 20
80.00000200000002
  0
LWPOLYLINE
  5
179
330
44
100
AcDbEntity
  8
0
  6
Continuous
 62
     7
100
AcDbPolyline
 90
        2
 70
     0
 43
0.15
 10
386.078877443979
 20
80.00000200000002
 10
387.078877443979
 20
80.00000200000002
  0
LWPOLYLINE
  5
17A
330
44
100
AcDbEntity
  8
0
  6
Continuous
 62
     7
100
AcDbPolyline
 90
        2
 70
     0
 43
0.15
 10
521.0788774439791
 20
80.00000200000002
 10
529.0788774439791
 20
80.00000200000002
  0
LWPOLYLINE
  5
17B
330
44
100
AcDbEntity
  8
0
  6
Continuous
 62
     7
100
AcDbPolyline
 90
        2
 70
     0
 43
0.15
 10
524.8288774439791
 20
61.50000200000002
 10
524.8288774439791
 20
64.00000200000002
  0
LWPOLYLINE
  5
17C
330
44
100
AcDbEntity
  8
0
  6
Continuous
 62
     7
100
AcDbPolyline
 90
        2
 70
     0
 43
0.15
 10
524.8288774439791
 20
61.50000200000002
 10
510.828877443979
 20
61.50000200000002
  0
LWPOLYLINE
  5
17D
330
44
100
AcDbEntity
  8
0
  6
Continuous
 62
     7
100
AcDbPolyline
 90
        2
 70
     0
 43
0.15
 10
510.828877443979
 20
64.00000200000002
 10
510.828877443979
 20
61.50000200000002
  0
LWPOLYLINE
  5
17E
330
44
100
AcDbEntity
  8
0
  6
Continuous
 62
     7
100
AcDbPolyline
 90
        2
 70
     0
 43
0.15
 10
492.078877443979
 20
66.50000200000002
 10
492.078877443979
 20
64.00000200000002
  0
LWPOLYLINE
  5
17F
330
44
100
AcDbEntity
  8
0
  6
Continuous
 62
     7
100
AcDbPolyline
 90
        2
 70
     0
 43
0.15
 10
492.078877443979
 20
64.00000200000002
 10
510.828877443979
 20
64.00000200000002
  0
LWPOLYLINE
  5
180
330
44
100
AcDbEntity
  8
0
  6
Continuous
 62
     7
100
AcDbPolyline
 90
        2
 70
     0
 43
0.15
 10
524.8288774439791
 20
64.00000200000002
 10
526.0788774439791
 20
64.00000200000002
  0
LWPOLYLINE
  5
181
330
44
100
AcDbEntity
  8
0
  6
Continuous
 62
     7
100
AcDbPolyline
 90
        2
 70
     0
 43
0.15
 10
526.5788774439791
 20
66.50000200000002
 10
492.078877443979
 20
66.50000200000002
  0
LWPOLYLINE
  5
182
330
44
100
AcDbEntity
  8
0
  6
Continuous
 62
     7
100
AcDbPolyline
 90
        2
 70
     0
 43
0.15
 10
530.350936975479
 20
80.00000200000002
 10
529.0788774439791
 20
80.00000200000002
  0
LWPOLYLINE
  5
183
330
44
100
AcDbEntity
  8
0
  6
Continuous
 62
     7
100
AcDbPolyline
 90
        2
 70
     0
 43
0.15
 10
534.0788774439791
 20
74.00000200000002
 10
531.0788774439791
 20
74.00000200000002
  0
LWPOLYLINE
  5
184
330
44
100
AcDbEntity
  8
0
  6
Continuous
 62
     7
100
AcDbPolyline
 90
        2
 70
     0
 43
0.15
 10
416.078877443979
 20
64.00000200000002
 10
416.078877443979
 20
66.50000200000002
  0
LWPOLYLINE
  5
185
330
44
100
AcDbEntity
  8
0
  6
Continuous
 62
     7
100
AcDbPolyline
 90
        2
 70
     0
 43
0.15
 10
416.078877443979
 20
64.00000200000002
 10
416.578877443979
 20
64.00000200000002
  0
LWPOLYLINE
  5
186
330
44
100
AcDbEntity
  8
0
  6
Continuous
 62
     7
100
AcDbPolyline
 90
        2
 70
     0
 43
0.15
 10
491.578877443979
 20
64.00000200000002
 10
492.078877443979
 20
64.00000200000002
  0
LWPOLYLINE
  5
187
330
44
100
AcDbEntity
  8
0
  6
Continuous
 62
     7
100
AcDbPolyline
 90
        2
 70
     0
 43
0.15
 10
416.078877443979
 20
66.50000200000002
 10
416.578877443979
 20
66.50000200000002
  0
LWPOLYLINE
  5
188
330
44
100
AcDbEntity
  8
0
  6
Continuous
 62
     7
100
AcDbPolyline
 90
        2
 70
     0
 43
0.15
 10
491.578877443979
 20
66.50000200000002
 10
492.078877443979
 20
66.50000200000002
  0
LWPOLYLINE
  5
189
330
44
100
AcDbEntity
  8
0
  6
Continuous
 62
     7
100
AcDbPolyline
 90
        2
 70
     0
 43
0.15
 10
397.328877443979
 20
61.50000200000002
 10
383.328877443979
 20
61.50000200000002
  0
LWPOLYLINE
  5
18A
330
44
100
AcDbEntity
  8
0
  6
Continuous
 62
     7
100
AcDbPolyline
 90
        2
 70
     0
 43
0.15
 10
383.328877443979
 20
61.50000200000002
 10
383.328877443979
 20
64.00000200000002
  0
LWPOLYLINE
  5
18B
330
44
100
AcDbEntity
  8
0
  6
Continuous
 62
     7
100
AcDbPolyline
 90
        2
 70
     0
 43
0.15
 10
397.328877443979
 20
61.50000200000002
 10
397.328877443979
 20
64.00000200000002
  0
LWPOLYLINE
  5
18C
330
44
100
AcDbEntity
  8
0
  6
Continuous
 62
     7
100
AcDbPolyline
 90
        2
 70
     0
 43
0.15
 10
397.328877443979
 20
64.00000200000002
 10
416.078877443979
 20
64.00000200000002
  0
LWPOLYLINE
  5
18D
330
44
100
AcDbEntity
  8
0
  6
Continuous
 62
     7
100
AcDbPolyline
 90
        2
 70
     0
 43
0.15
 10
382.078877443979
 20
64.00000200000002
 10
383.328877443979
 20
64.00000200000002
  0
LWPOLYLINE
  5
18E
330
44
100
AcDbEntity
  8
0
  6
Continuous
 62
     7
100
AcDbPolyline
 90
        2
 70
     0
 43
0.15
 10
416.078877443979
 20
66.50000200000002
 10
381.578877443979
 20
66.50000200000002
  0
LWPOLYLINE
  5
18F
330
44
100
AcDbEntity
  8
0
  6
Continuous
 62
     7
100
AcDbPolyline
 90
        2
 70
     0
 43
0.15
 10
379.078877443979
 20
80.00000200000002
 10
377.8068179125791
 20
80.00000200000002
  0
LWPOLYLINE
  5
190
330
44
100
AcDbEntity
  8
0
  6
Continuous
 62
     7
100
AcDbPolyline
 90
        2
 70
     0
 43
0.15
 10
377.078877443979
 20
74.00000200000002
 10
374.078877443979
 20
74.00000200000002
  0
LWPOLYLINE
  5
191
330
44
100
AcDbEntity
  8
0
  6
Continuous
 62
     7
100
AcDbPolyline
 90
        2
 70
     0
 43
0.15
 10
387.328877443979
 20
129.7014908716
 10
520.8288774439791
 20
129.7014908716
  0
LWPOLYLINE
  5
192
330
44
100
AcDbEntity
  8
0
  6
Continuous
 62
     7
100
AcDbPolyline
 90
        2
 70
     0
 43
0.15
 10
389.328877443979
 20
127.7014908716
 10
518.8288774439791
 20
127.7014908716
  0
LWPOLYLINE
  5
193
330
44
100
AcDbEntity
  8
0
  6
Continuous
 62
     7
100
AcDbPolyline
 90
        2
 70
     0
 43
0.15
 10
376.828877443979
 20
127.2014908716
 10
376.828877443979
 20
129.7014908716
  0
LWPOLYLINE
  5
194
330
44
100
AcDbEntity
  8
0
  6
Continuous
 62
     7
100
AcDbPolyline
 90
        2
 70
     0
 43
0.15
 10
531.3288774439791
 20
129.7014908716
 10
531.3288774439791
 20
127.2014908716
  0
LWPOLYLINE
  5
195
330
44
100
AcDbEntity
  8
0
  6
Continuous
 62
     7
100
AcDbPolyline
 90
        2
 70
     0
 43
0.15
 10
389.328877443979
 20
127.7014908716
 10
389.328877443979
 20
127.2014908716
  0
LWPOLYLINE
  5
196
330
44
100
AcDbEntity
  8
0
  6
Continuous
 62
     7
100
AcDbPolyline
 90
        2
 70
     0
 43
0.15
 10
518.8288774439791
 20
127.2014908716
 10
518.8288774439791
 20
127.7014908716
  0
LWPOLYLINE
  5
197
330
44
100
AcDbEntity
  8
0
  6
Continuous
 62
     7
100
AcDbPolyline
 90
        2
 70
     0
 43
0.15
 10
389.328877443979
 20
127.2014908716
 10
518.8288774439791
 20
127.2014908716
  0
LWPOLYLINE
  5
198
330
44
100
AcDbEntity
  8
0
  6
Continuous
 62
     7
100
AcDbPolyline
 90
        2
 70
     0
 43
0.15
 10
531.3288774439791
 20
127.2014908716
 10
530.174177443979
 20
125.2014908716
  0
LWPOLYLINE
  5
199
330
44
100
AcDbEntity
  8
0
  6
Continuous
 62
     7
100
AcDbPolyline
 90
        2
 70
     0
 43
0.15
 10
530.174177443979
 20
125.2014908716
 10
523.3288774439791
 20
125.2014908716
  0
LWPOLYLINE
  5
19A
330
44
100
AcDbEntity
  8
0
  6
Continuous
 62
     7
100
AcDbPolyline
 90
        2
 70
     0
 43
0.15
 10
520.8288774439791
 20
129.7014908716
 10
531.3288774439791
 20
129.7014908716
  0
LWPOLYLINE
  5
19B
330
44
100
AcDbEntity
  8
0
  6
Continuous
 62
     7
100
AcDbPolyline
 90
        2
 70
     0
 43
0.15
 10
521.3288774439791
 20
127.2014908716
 10
518.8288774439791
 20
127.2014908716
  0
LWPOLYLINE
  5
19C
330
44
100
AcDbEntity
  8
0
  6
Continuous
 62
     7
100
AcDbPolyline
 90
        2
 70
     0
 43
0.15
 10
377.983577443979
 20
125.2014908716
 10
376.828877443979
 20
127.2014908716
  0
LWPOLYLINE
  5
19D
330
44
100
AcDbEntity
  8
0
  6
Continuous
 62
     7
100
AcDbPolyline
 90
        2
 70
     0
 43
0.15
 10
384.828877443979
 20
125.2014908716
 10
377.983577443979
 20
125.2014908716
  0
LWPOLYLINE
  5
19E
330
44
100
AcDbEntity
  8
0
  6
Continuous
 62
     7
100
AcDbPolyline
 90
        2
 70
     0
 43
0.15
 10
376.828877443979
 20
129.7014908716
 10
387.328877443979
 20
129.7014908716
  0
LWPOLYLINE
  5
19F
330
44
100
AcDbEntity
  8
0
  6
Continuous
 62
     7
100
AcDbPolyline
 90
        2
 70
     0
 43
0.15
 10
389.328877443979
 20
127.2014908716
 10
386.828877443979
 20
127.2014908716
  0
LWPOLYLINE
  5
1A0
330
44
100
AcDbEntity
  8
0
  6
Continuous
 62
     7
100
AcDbPolyline
 90
        2
 70
     0
 43
0.15
 10
384.828877443979
 20
125.2014908716
 10
523.3288774439791
 20
125.2014908716
  0
LWPOLYLINE
  5
1A1
330
44
100
AcDbEntity
  8
0
  6
Continuous
 62
     7
100
AcDbPolyline
 90
        2
 70
     0
 43
0.15
 10
526.978877443979
 20
115.0
 10
526.978877443979
 20
121.701942
  0
LWPOLYLINE
  5
1A2
330
44
100
AcDbEntity
  8
0
  6
Continuous
 62
     7
100
AcDbPolyline
 90
        2
 70
     0
 43
0.15
 10
381.178877443979
 20
121.701942
 10
381.178877443979
 20
115.0
  0
LWPOLYLINE
  5
1A3
330
44
100
AcDbEntity
  8
0
  6
Continuous
 62
     7
100
AcDbPolyline
 90
        2
 70
     0
 43
0.15
 10
521.0788774439791
 20
73.00000200000002
 10
521.0788774439791
 20
112.5
  0
LWPOLYLINE
  5
1A4
330
44
100
AcDbEntity
  8
0
  6
Continuous
 62
     7
100
AcDbPolyline
 90
        2
 70
     0
 43
0.15
 10
387.078877443979
 20
112.5
 10
387.078877443979
 20
73.00000200000002
  0
LWPOLYLINE
  5
1A5
330
44
100
AcDbEntity
  8
0
  6
Continuous
 62
     7
100
AcDbPolyline
 90
        2
 70
     0
 43
0.15
 10
491.578877443979
 20
72.74999999999997
 10
494.497564084179
 20
73.00000200000002
  0
LWPOLYLINE
  5
1A6
330
44
100
AcDbEntity
  8
0
  6
Continuous
 62
     7
100
AcDbPolyline
 90
        2
 70
     0
 43
0.15
 10
413.660190803879
 20
73.00000200000002
 10
416.578877443979
 20
72.74999999999997
  0
LWPOLYLINE
  5
1A7
330
44
100
AcDbEntity
  8
0
  6
Continuous
 62
     7
100
AcDbPolyline
 90
        2
 70
     0
 43
0.15
 10
491.578877443979
 20
5.0
 10
491.578877443979
 20
72.74999999999997
  0
LWPOLYLINE
  5
1A8
330
44
100
AcDbEntity
  8
0
  6
Continuous
 62
     7
100
AcDbPolyline
 90
        2
 70
     0
 43
0.15
 10
416.578877443979
 20
72.74999999999997
 10
416.578877443979
 20
5.0
  0
LWPOLYLINE
  5
1A9
330
44
100
AcDbEntity
  8
0
  6
Continuous
 62
     7
100
AcDbPolyline
 90
        2
 70
     0
 43
0.15
 10
523.478877443979
 20
124.2014908716
 10
384.678877443979
 20
124.2014908716
  0
LWPOLYLINE
  5
1AA
330
44
100
AcDbEntity
  8
0
  6
Continuous
 62
     7
100
AcDbPolyline
 90
        2
 70
     0
 43
0.15
 10
389.578877443979
 20
116.0
 10
518.5788774439791
 20
116.0
  0
LWPOLYLINE
  5
1AB
330
44
100
AcDbEntity
  8
0
  6
Continuous
 62
     7
100
AcDbPolyline
 90
        2
 70
     0
 43
0.15
 10
517.5788774439791
 20
115.0
 10
390.578877443979
 20
115.0
  0
LWPOLYLINE
  5
1AC
330
44
100
AcDbEntity
  8
0
  6
Continuous
 62
     7
100
AcDbPolyline
 90
        2
 70
     0
 43
0.15
 10
490.239131481879
 20
0.0
 10
491.578877443979
 20
5.0
  0
LWPOLYLINE
  5
1AD
330
44
100
AcDbEntity
  8
0
  6
Continuous
 62
     7
100
AcDbPolyline
 90
        2
 70
     0
 43
0.15
 10
416.578877443979
 20
5.0
 10
417.918623406179
 20
0.0
  0
LWPOLYLINE
  5
1AE
330
44
100
AcDbEntity
  8
0
  6
Continuous
 62
     7
100
AcDbPolyline
 90
        2
 70
     0
 43
0.15
 10
286.078877443979
 20
157.9999201133
 10
286.078877443979
 20
156.49999
  0
LWPOLYLINE
  5
1AF
330
44
100
AcDbEntity
  8
0
  6
Continuous
 62
     7
100
AcDbPolyline
 90
        2
 70
     0
 43
0.15
 10
290.078877443979
 20
157.9999201133
 10
286.078877443979
 20
157.9999201133
  0
LWPOLYLINE
  5
1B0
330
44
100
AcDbEntity
  8
0
  6
Continuous
 62
     7
100
AcDbPolyline
 90
        2
 70
     0
 43
0.15
 10
290.078877443979
 20
156.49999
 10
290.078877443979
 20
157.9999201133
  0
LWPOLYLINE
  5
1B1
330
44
100
AcDbEntity
  8
0
  6
Continuous
 62
     7
100
AcDbPolyline
 90
        2
 70
     0
 43
0.15
 10
286.078877443979
 20
156.49999
 10
290.078877443979
 20
156.49999
  0
LWPOLYLINE
  5
1B2
330
44
100
AcDbEntity
  8
0
  6
Continuous
 62
     7
100
AcDbPolyline
 90
        2
 70
     0
 43
0.15
 10
284.078877443979
 20
159.9999201133001
 10
292.078877443979
 20
159.9999201133001
  0
LWPOLYLINE
  5
1B3
330
44
100
AcDbEntity
  8
0
  6
Continuous
 62
     7
100
AcDbPolyline
 90
        2
 70
     0
 43
0.15
 10
292.078877443979
 20
159.9999201133001
 10
290.078877443979
 20
157.9999201133
  0
LWPOLYLINE
  5
1B4
330
44
100
AcDbEntity
  8
0
  6
Continuous
 62
     7
100
AcDbPolyline
 90
        2
 70
     0
 43
0.15
 10
286.078877443979
 20
157.9999201133
 10
284.078877443979
 20
159.9999201133001
  0
LWPOLYLINE
  5
1B5
330
44
100
AcDbEntity
  8
0
  6
Continuous
 62
     7
100
AcDbPolyline
 90
        2
 70
     0
 43
0.15
 10
616.0788774439791
 20
159.9999201133001
 10
624.0788774439791
 20
159.9999201133001
  0
LWPOLYLINE
  5
1B6
330
44
100
AcDbEntity
  8
0
  6
Continuous
 62
     7
100
AcDbPolyline
 90
        2
 70
     0
 43
0.15
 10
624.0788774439791
 20
159.9999201133001
 10
622.0788774439791
 20
157.9999201133
  0
LWPOLYLINE
  5
1B7
330
44
100
AcDbEntity
  8
0
  6
Continuous
 62
     7
100
AcDbPolyline
 90
        2
 70
     0
 43
0.15
 10
622.0788774439791
 20
157.9999201133
 10
618.0788774439791
 20
157.9999201133
  0
LWPOLYLINE
  5
1B8
330
44
100
AcDbEntity
  8
0
  6
Continuous
 62
     7
100
AcDbPolyline
 90
        2
 70
     0
 43
0.15
 10
618.0788774439791
 20
157.9999201133
 10
616.0788774439791
 20
159.9999201133001
  0
LWPOLYLINE
  5
1B9
330
44
100
AcDbEntity
  8
0
  6
Continuous
 62
     7
100
AcDbPolyline
 90
        2
 70
     0
 43
0.15
 10
384.678877443979
 20
117.0
 10
523.478877443979
 20
117.0
  0
LWPOLYLINE
  5
1BA
330
44
100
AcDbEntity
  8
0
  6
Continuous
 62
     7
100
AcDbPolyline
 90
        2
 70
     0
 43
0.15
 10
618.0788774439791
 20
157.9999201133
 10
618.0788774439791
 20
156.49999
  0
LWPOLYLINE
  5
1BB
330
44
100
AcDbEntity
  8
0
  6
Continuous
 62
     7
100
AcDbPolyline
 90
        2
 70
     0
 43
0.15
 10
622.0788774439791
 20
156.49999
 10
622.0788774439791
 20
157.9999201133
  0
LWPOLYLINE
  5
1BC
330
44
100
AcDbEntity
  8
0
  6
Continuous
 62
     7
100
AcDbPolyline
 90
        2
 70
     0
 43
0.15
 10
618.0788774439791
 20
156.49999
 10
622.0788774439791
 20
156.49999
  0
LWPOLYLINE
  5
1BD
330
44
100
AcDbEntity
  8
0
  6
Continuous
 62
     7
100
AcDbPolyline
 90
        2
 70
     0
 43
0.15
 10
534.178877443979
 20
138.6
 10
536.328858443979
 20
142.4
  0
LWPOLYLINE
  5
1BE
330
44
100
AcDbEntity
  8
0
  6
Continuous
 62
     7
100
AcDbPolyline
 90
        2
 70
     0
 43
0.15
 10
371.828896443979
 20
142.4
 10
373.978877443979
 20
138.6
  0
LWPOLYLINE
  5
1BF
330
44
100
AcDbEntity
  8
0
  6
Continuous
 62
     7
100
AcDbPolyline
 90
        2
 70
     0
 43
0.15
 10
534.178877443979
 20
74.00000200000002
 10
534.178877443979
 20
138.6
  0
LWPOLYLINE
  5
1C0
330
44
100
AcDbEntity
  8
0
  6
Continuous
 62
     7
100
AcDbPolyline
 90
        2
 70
     0
 43
0.15
 10
373.978877443979
 20
138.6
 10
373.978877443979
 20
74.00000200000002
  0
LWPOLYLINE
  5
1C1
330
44
100
AcDbEntity
  8
0
  6
Continuous
 62
     7
100
AcDbPolyline
 90
        2
 70
     0
 43
0.15
 10
532.828827390079
 20
143.3018324332
 10
530.0969567696791
 20
143.3018324332
  0
LWPOLYLINE
  5
1C2
330
44
100
AcDbEntity
  8
0
  6
Continuous
 62
     7
100
AcDbPolyline
 90
        2
 70
     0
 43
0.15
 10
467.878974383079
 20
143.3018324332
 10
465.878974383079
 20
143.3018324332
  0
LWPOLYLINE
  5
1C3
330
44
100
AcDbEntity
  8
0
  6
Continuous
 62
     7
100
AcDbPolyline
 90
        2
 70
     0
 43
0.15
 10
442.278894955879
 20
143.3018324332
 10
440.278894955879
 20
143.3018324332
  0
LWPOLYLINE
  5
1C4
330
44
100
AcDbEntity
  8
0
  6
Continuous
 62
     7
100
AcDbPolyline
 90
        2
 70
     0
 43
0.15
 10
378.060798118379
 20
143.3018324332
 10
375.328927497979
 20
143.3018324332
  0
LWPOLYLINE
  5
1C5
330
44
100
AcDbEntity
  8
0
  6
Continuous
 62
     7
100
AcDbPolyline
 90
        2
 70
     0
 43
0.15
 10
532.828827390079
 20
143.3018324332
 10
528.8289658078791
 20
136.4
  0
LWPOLYLINE
  5
1C6
330
44
100
AcDbEntity
  8
0
  6
Continuous
 62
     7
100
AcDbPolyline
 90
        2
 70
     0
 43
0.15
 10
528.8289658078791
 20
136.4
 10
527.978877443979
 20
136.4
  0
LWPOLYLINE
  5
1C7
330
44
100
AcDbEntity
  8
0
  6
Continuous
 62
     7
100
AcDbPolyline
 90
        2
 70
     0
 43
0.15
 10
524.0914506953791
 20
136.4
 10
465.878974383079
 20
136.4
  0
LWPOLYLINE
  5
1C8
330
44
100
AcDbEntity
  8
0
  6
Continuous
 62
     7
100
AcDbPolyline
 90
        2
 70
     0
 43
0.15
 10
442.278894955879
 20
136.4
 10
384.066323482379
 20
136.4
  0
LWPOLYLINE
  5
1C9
330
44
100
AcDbEntity
  8
0
  6
Continuous
 62
     7
100
AcDbPolyline
 90
        2
 70
     0
 43
0.15
 10
380.178877443979
 20
136.4
 10
379.328789080179
 20
136.4
  0
LWPOLYLINE
  5
1CA
330
44
100
AcDbEntity
  8
0
  6
Continuous
 62
     7
100
AcDbPolyline
 90
        2
 70
     0
 43
0.15
 10
379.328789080179
 20
136.4
 10
375.328927497979
 20
143.3018324332
  0
LWPOLYLINE
  5
1CB
330
44
100
AcDbEntity
  8
0
  6
Continuous
 62
     7
100
AcDbPolyline
 90
        2
 70
     0
 43
0.15
 10
488.078877443979
 20
76.49955044240002
 10
420.078877443979
 20
76.49955044240002
  0
LWPOLYLINE
  5
1CC
330
44
100
AcDbEntity
  8
0
  6
Continuous
 62
     7
100
AcDbPolyline
 90
        2
 70
     0
 43
0.15
 10
488.078877443979
 20
76.49955044240002
 10
488.078877443979
 20
0.0
  0
LWPOLYLINE
  5
1CD
330
44
100
AcDbEntity
  8
0
  6
Continuous
 62
     7
100
AcDbPolyline
 90
        2
 70
     0
 43
0.15
 10
420.078877443979
 20
0.0
 10
420.078877443979
 20
76.49955044240002
  0
LWPOLYLINE
  5
1CE
330
44
100
AcDbEntity
  8
0
  6
Continuous
 62
     7
100
AcDbPolyline
 90
        2
 70
     0
 43
0.15
 10
488.078877443979
 20
0.0
 10
420.078877443979
 20
0.0
  0
LWPOLYLINE
  5
1CF
330
44
100
AcDbEntity
  8
0
  6
Continuous
 62
     7
100
AcDbPolyline
 90
        2
 70
     0
 43
0.15
 10
517.5788774439791
 20
115.0
 10
517.5788774439791
 20
76.49955044240002
  0
LWPOLYLINE
  5
1D0
330
44
100
AcDbEntity
  8
0
  6
Continuous
 62
     7
100
AcDbPolyline
 90
        2
 70
     0
 43
0.15
 10
390.578877443979
 20
76.49955044240002
 10
390.578877443979
 20
115.0
  0
LWPOLYLINE
  5
1D1
330
44
100
AcDbEntity
  8
0
  6
Continuous
 62
     7
100
AcDbPolyline
 90
        2
 70
     0
 43
0.15
 10
536.328858443979
 20
142.4
 10
536.3288774439791
 20
156.49999
  0
LWPOLYLINE
  5
1D2
330
44
100
AcDbEntity
  8
0
  6
Continuous
 62
     7
100
AcDbPolyline
 90
        2
 70
     0
 43
0.15
 10
371.828877443979
 20
156.49999
 10
371.828896443979
 20
142.4
  0
LWPOLYLINE
  5
1D3
330
44
100
AcDbEntity
  8
0
  6
Continuous
 62
     7
100
AcDbPolyline
 90
        2
 70
     0
 43
0.15
 10
523.478877443979
 20
124.2014908716
 10
523.478877443979
 20
117.0
  0
LWPOLYLINE
  5
1D4
330
44
100
AcDbEntity
  8
0
  6
Continuous
 62
     7
100
AcDbPolyline
 90
        2
 70
     0
 43
0.15
 10
384.678877443979
 20
117.0
 10
384.678877443979
 20
124.2014908716
  0
LWPOLYLINE
  5
1D5
330
44
100
AcDbEntity
  8
0
  6
Continuous
 62
     7
100
AcDbPolyline
 90
        2
 70
     0
 43
0.15
 10
531.0788774439791
 20
125.2014908716
 10
524.478877443979
 20
125.2014908716
  0
LWPOLYLINE
  5
1D6
330
44
100
AcDbEntity
  8
0
  6
Continuous
 62
     7
100
AcDbPolyline
 90
        2
 70
     0
 43
0.15
 10
531.0788774439791
 20
129.8
 10
531.0788774439791
 20
125.2014908716
  0
LWPOLYLINE
  5
1D7
330
44
100
AcDbEntity
  8
0
  6
Continuous
 62
     7
100
AcDbPolyline
 90
        2
 70
     0
 43
0.15
 10
529.5788774439791
 20
130.8
 10
531.0788774439791
 20
129.8
  0
LWPOLYLINE
  5
1D8
330
44
100
AcDbEntity
  8
0
  6
Continuous
 62
     7
100
AcDbPolyline
 90
        2
 70
     0
 43
0.15
 10
529.5788774439791
 20
135.0569188716
 10
529.5788774439791
 20
130.8
  0
LWPOLYLINE
  5
1D9
330
44
100
AcDbEntity
  8
0
  6
Continuous
 62
     7
100
AcDbPolyline
 90
        2
 70
     0
 43
0.15
 10
528.8289658078791
 20
135.5
 10
529.5788774439791
 20
135.0569188716
  0
LWPOLYLINE
  5
1DA
330
44
100
AcDbEntity
  8
0
  6
Continuous
 62
     7
100
AcDbPolyline
 90
        2
 70
     0
 43
0.15
 10
528.8289658078791
 20
136.4
 10
528.8289658078791
 20
135.5
  0
LWPOLYLINE
  5
1DB
330
44
100
AcDbEntity
  8
0
  6
Continuous
 62
     7
100
AcDbPolyline
 90
        2
 70
     0
 43
0.15
 10
532.828874446483
 20
158.999923110955
 10
532.828827390079
 20
143.3018324332
  0
LWPOLYLINE
  5
1DC
330
44
100
AcDbEntity
  8
0
  6
Continuous
 62
     7
100
AcDbPolyline
 90
        2
 70
     0
 43
0.15
 10
616.0788774439791
 20
159.9999201133001
 10
533.828874446479
 20
159.9999201133001
  0
LWPOLYLINE
  5
1DD
330
44
100
AcDbEntity
  8
0
  6
Continuous
 62
     7
100
AcDbPolyline
 90
        2
 70
     0
 43
0.15
 10
530.678877443979
 20
121.701942
 10
531.3288774439791
 20
74.00000200000002
  0
LWPOLYLINE
  5
1DE
330
44
100
AcDbEntity
  8
0
  6
Continuous
 62
     7
100
AcDbPolyline
 90
        2
 70
     0
 43
0.15
 10
517.5788774439791
 20
76.49955044240002
 10
488.078877443979
 20
76.49955044240002
  0
LWPOLYLINE
  5
1DF
330
44
100
AcDbEntity
  8
0
  6
Continuous
 62
     7
100
AcDbPolyline
 90
        2
 70
     0
 43
0.15
 10
526.978877443979
 20
121.701942
 10
530.678877443979
 20
121.701942
  0
LWPOLYLINE
  5
1E0
330
44
100
AcDbEntity
  8
0
  6
Continuous
 62
     7
100
AcDbPolyline
 90
        2
 70
     0
 43
0.15
 10
536.3288774439791
 20
156.49999
 10
618.0788774439791
 20
156.49999
  0
LWPOLYLINE
  5
1E1
330
44
100
AcDbEntity
  8
0
  6
Continuous
 62
     7
100
AcDbPolyline
 90
        2
 70
     0
 43
0.15
 10
522.478877443979
 20
116.0
 10
518.5788774439791
 20
116.0
  0
LWPOLYLINE
  5
1E2
330
44
100
AcDbEntity
  8
0
  6
Continuous
 62
     7
100
AcDbPolyline
 90
        2
 70
     0
 43
0.15
 10
488.078877443979
 20
0.0
 10
490.239131481879
 20
0.0
  0
LWPOLYLINE
  5
1E3
330
44
100
AcDbEntity
  8
0
  6
Continuous
 62
     7
100
AcDbPolyline
 90
        2
 70
     0
 43
0.15
 10
494.497564084179
 20
73.00000200000002
 10
521.0788774439791
 20
73.00000200000002
  0
LWPOLYLINE
  5
1E4
330
44
100
AcDbEntity
  8
0
  6
Continuous
 62
     7
100
AcDbPolyline
 90
        2
 70
     0
 43
0.15
 10
521.0788774439791
 20
112.5
 10
524.478877443979
 20
112.5
  0
LWPOLYLINE
  5
1E5
330
44
100
AcDbEntity
  8
0
  6
Continuous
 62
     7
100
AcDbPolyline
 90
        2
 70
     0
 43
0.15
 10
531.3288774439791
 20
74.00000200000002
 10
534.178877443979
 20
74.00000200000002
  0
LWPOLYLINE
  5
1E6
330
44
100
AcDbEntity
  8
0
  6
Continuous
 62
     7
100
AcDbPolyline
 90
        2
 70
     0
 43
0.15
 10
632.0788774439791
 20
159.9999201133001
 10
624.0788774439791
 20
159.9999201133001
  0
LWPOLYLINE
  5
1E7
330
44
100
AcDbEntity
  8
0
  6
Continuous
 62
     7
100
AcDbPolyline
 90
        2
 70
     0
 43
0.15
 10
634.0788774439791
 20
156.49999
 10
634.0788774439791
 20
157.9999201133
  0
LWPOLYLINE
  5
1E8
330
44
100
AcDbEntity
  8
0
  6
Continuous
 62
     7
100
AcDbPolyline
 90
        2
 70
     0
 43
0.15
 10
622.0788774439791
 20
156.49999
 10
634.0788774439791
 20
156.49999
  0
LWPOLYLINE
  5
1E9
330
44
100
AcDbEntity
  8
0
  6
Continuous
 62
     7
100
AcDbPolyline
 90
        2
 70
     0
 43
0.15
 10
274.078877443979
 20
157.9999201133
 10
274.078877443979
 20
156.49999
  0
LWPOLYLINE
  5
1EA
330
44
100
AcDbEntity
  8
0
  6
Continuous
 62
     7
100
AcDbPolyline
 90
        2
 70
     0
 43
0.15
 10
284.078877443979
 20
159.9999201133001
 10
276.078877443979
 20
159.9999201133001
  0
LWPOLYLINE
  5
1EB
330
44
100
AcDbEntity
  8
0
  6
Continuous
 62
     7
100
AcDbPolyline
 90
        2
 70
     0
 43
0.15
 10
274.078877443979
 20
156.49999
 10
286.078877443979
 20
156.49999
  0
LWPOLYLINE
  5
1EC
330
44
100
AcDbEntity
  8
0
  6
Continuous
 62
     7
100
AcDbPolyline
 90
        2
 70
     0
 43
0.15
 10
528.8289658078791
 20
135.5
 10
527.978877443979
 20
135.5
  0
LWPOLYLINE
  5
1ED
330
44
100
AcDbEntity
  8
0
  6
Continuous
 62
     7
100
AcDbPolyline
 90
        2
 70
     0
 43
0.15
 10
524.0914506953791
 20
135.5
 10
465.878974383079
 20
135.5
  0
LWPOLYLINE
  5
1EE
330
44
100
AcDbEntity
  8
0
  6
Continuous
 62
     7
100
AcDbPolyline
 90
        2
 70
     0
 43
0.15
 10
442.278894955879
 20
135.5
 10
384.066323482379
 20
135.5
  0
LWPOLYLINE
  5
1EF
330
44
100
AcDbEntity
  8
0
  6
Continuous
 62
     7
100
AcDbPolyline
 90
        2
 70
     0
 43
0.15
 10
380.178877443979
 20
135.5
 10
379.328789080179
 20
135.5
  0
LWPOLYLINE
  5
1F0
330
44
100
AcDbEntity
  8
0
  6
Continuous
 62
     7
100
AcDbPolyline
 90
        2
 70
     0
 43
0.15
 10
379.328789080179
 20
135.5
 10
379.328789080179
 20
136.4
  0
LWPOLYLINE
  5
1F1
330
44
100
AcDbEntity
  8
0
  6
Continuous
 62
     7
100
AcDbPolyline
 90
        2
 70
     0
 43
0.15
 10
376.828877443979
 20
74.00000200000002
 10
377.478877443979
 20
121.701942
  0
LWPOLYLINE
  5
1F2
330
44
100
AcDbEntity
  8
0
  6
Continuous
 62
     7
100
AcDbPolyline
 90
        2
 70
     0
 43
0.15
 10
529.5788774439791
 20
135.0569188716
 10
527.978877443979
 20
135.0569188716
  0
LWPOLYLINE
  5
1F3
330
44
100
AcDbEntity
  8
0
  6
Continuous
 62
     7
100
AcDbPolyline
 90
        2
 70
     0
 43
0.15
 10
524.0914506953791
 20
135.0569188716
 10
465.878974383079
 20
135.0569188716
  0
LWPOLYLINE
  5
1F4
330
44
100
AcDbEntity
  8
0
  6
Continuous
 62
     7
100
AcDbPolyline
 90
        2
 70
     0
 43
0.15
 10
442.278894955879
 20
135.0569188716
 10
384.066323482379
 20
135.0569188716
  0
LWPOLYLINE
  5
1F5
330
44
100
AcDbEntity
  8
0
  6
Continuous
 62
     7
100
AcDbPolyline
 90
        2
 70
     0
 43
0.15
 10
380.178877443979
 20
135.0569188716
 10
378.578877443979
 20
135.0569188716
  0
LWPOLYLINE
  5
1F6
330
44
100
AcDbEntity
  8
0
  6
Continuous
 62
     7
100
AcDbPolyline
 90
        2
 70
     0
 43
0.15
 10
529.5788774439791
 20
130.8
 10
378.578877443979
 20
130.8
  0
LWPOLYLINE
  5
1F7
330
44
100
AcDbEntity
  8
0
  6
Continuous
 62
     7
100
AcDbPolyline
 90
        2
 70
     0
 43
0.15
 10
378.578877443979
 20
130.8
 10
378.578877443979
 20
135.0569188716
  0
LWPOLYLINE
  5
1F8
330
44
100
AcDbEntity
  8
0
  6
Continuous
 62
     7
100
AcDbPolyline
 90
        2
 70
     0
 43
0.15
 10
378.578877443979
 20
135.0569188716
 10
379.328789080179
 20
135.5
  0
LWPOLYLINE
  5
1F9
330
44
100
AcDbEntity
  8
0
  6
Continuous
 62
     7
100
AcDbPolyline
 90
        2
 70
     0
 43
0.15
 10
374.328880441579
 20
159.9999201133001
 10
292.078877443979
 20
159.9999201133001
  0
LWPOLYLINE
  5
1FA
330
44
100
AcDbEntity
  8
0
  6
Continuous
 62
     7
100
AcDbPolyline
 90
        2
 70
     0
 43
0.15
 10
375.328927497979
 20
143.3018324332
 10
375.3288804415751
 20
158.999923110955
  0
LWPOLYLINE
  5
1FB
330
44
100
AcDbEntity
  8
0
  6
Continuous
 62
     7
100
AcDbPolyline
 90
        2
 70
     0
 43
0.15
 10
377.078877443979
 20
129.8
 10
378.578877443979
 20
130.8
  0
LWPOLYLINE
  5
1FC
330
44
100
AcDbEntity
  8
0
  6
Continuous
 62
     7
100
AcDbPolyline
 90
        2
 70
     0
 43
0.15
 10
377.078877443979
 20
125.2014908716
 10
377.078877443979
 20
129.8
  0
LWPOLYLINE
  5
1FD
330
44
100
AcDbEntity
  8
0
  6
Continuous
 62
     7
100
AcDbPolyline
 90
        2
 70
     0
 43
0.15
 10
383.678877443979
 20
125.2014908716
 10
377.078877443979
 20
125.2014908716
  0
LWPOLYLINE
  5
1FE
330
44
100
AcDbEntity
  8
0
  6
Continuous
 62
     7
100
AcDbPolyline
 90
        2
 70
     0
 43
0.15
 10
420.078877443979
 20
76.49955044240002
 10
390.578877443979
 20
76.49955044240002
  0
LWPOLYLINE
  5
1FF
330
44
100
AcDbEntity
  8
0
  6
Continuous
 62
     7
100
AcDbPolyline
 90
        2
 70
     0
 43
0.15
 10
377.478877443979
 20
121.701942
 10
381.178877443979
 20
121.701942
  0
LWPOLYLINE
  5
200
330
44
100
AcDbEntity
  8
0
  6
Continuous
 62
     7
100
AcDbPolyline
 90
        2
 70
     0
 43
0.15
 10
290.078877443979
 20
156.49999
 10
371.828877443979
 20
156.49999
  0
LWPOLYLINE
  5
201
330
44
100
AcDbEntity
  8
0
  6
Continuous
 62
     7
100
AcDbPolyline
 90
        2
 70
     0
 43
0.15
 10
389.578877443979
 20
116.0
 10
385.678877443979
 20
116.0
  0
LWPOLYLINE
  5
202
330
44
100
AcDbEntity
  8
0
  6
Continuous
 62
     7
100
AcDbPolyline
 90
        2
 70
     0
 43
0.15
 10
417.918623406179
 20
0.0
 10
420.078877443979
 20
0.0
  0
LWPOLYLINE
  5
203
330
44
100
AcDbEntity
  8
0
  6
Continuous
 62
     7
100
AcDbPolyline
 90
        2
 70
     0
 43
0.15
 10
387.078877443979
 20
73.00000200000002
 10
413.660190803879
 20
73.00000200000002
  0
LWPOLYLINE
  5
204
330
44
100
AcDbEntity
  8
0
  6
Continuous
 62
     7
100
AcDbPolyline
 90
        2
 70
     0
 43
0.15
 10
383.678877443979
 20
112.5
 10
387.078877443979
 20
112.5
  0
LWPOLYLINE
  5
205
330
44
100
AcDbEntity
  8
0
  6
Continuous
 62
     7
100
AcDbPolyline
 90
        2
 70
     0
 43
0.15
 10
373.978877443979
 20
74.00000200000002
 10
376.828877443979
 20
74.00000200000002
  0
LWPOLYLINE
  5
206
330
44
100
AcDbEntity
  8
0
  6
Continuous
 62
     7
100
AcDbPolyline
 90
        2
 70
     0
 43
0.15
 10
531.0788774439791
 20
129.8
 10
377.078877443979
 20
129.8
  0
LWPOLYLINE
  5
207
330
44
100
AcDbEntity
  8
0
  6
Continuous
 62
     7
100
AcDbPolyline
 90
        2
 70
     0
 43
0.15
 10
384.432934816479
 20
151.2999201133
 10
384.066323482379
 20
151.2999201133
  0
LWPOLYLINE
  5
208
330
44
100
AcDbEntity
  8
0
  6
Continuous
 62
     7
100
AcDbPolyline
 90
        2
 70
     0
 43
0.15
 10
524.0914506953791
 20
151.2999201133
 10
523.724842749479
 20
151.2999201133
  0
LWPOLYLINE
  5
209
330
44
100
AcDbEntity
  8
0
  6
Continuous
 62
     7
100
AcDbPolyline
 90
        2
 70
     0
 43
0.15
 10
379.078877443979
 20
69.00000200000002
 10
381.716973118179
 20
69.00000200000002
  0
LWPOLYLINE
  5
20A
330
44
100
AcDbEntity
  8
0
  6
Continuous
 62
     7
100
AcDbPolyline
 90
        2
 70
     0
 43
0.15
 10
412.428877443979
 20
69.00000200000002
 10
416.578877443979
 20
69.00000200000002
  0
LWPOLYLINE
  5
20B
330
44
100
AcDbEntity
  8
0
  6
Continuous
 62
     7
100
AcDbPolyline
 90
        2
 70
     0
 43
0.15
 10
491.578877443979
 20
69.00000200000002
 10
529.0788774439791
 20
69.00000200000002
  0
LWPOLYLINE
  5
20C
330
44
100
AcDbEntity
  8
0
  6
Continuous
 62
     7
100
AcDbPolyline
 90
        2
 70
     0
 43
0.15
 10
532.828874446483
 20
158.999923110955
 10
530.0969567696791
 20
158.9999231109
  0
LWPOLYLINE
  5
20D
330
44
100
AcDbEntity
  8
0
  6
Continuous
 62
     7
100
AcDbPolyline
 90
        2
 70
     0
 43
0.15
 10
378.060798118379
 20
158.9999231109
 10
375.3288804415751
 20
158.999923110955
  0
LINE
  5
20E
330
44
100
AcDbEntity
  8
0
  6
CENTERX2
 62
     7
100
AcDbLine
 10
454.078877443979
 20
239.4410873314
 30
0.0
 11
454.078877443979
 21
-2.0
 31
0.0
  0
LWPOLYLINE
  5
20F
330
44
100
AcDbEntity
  8
0
  6
Continuous
 62
     7
100
AcDbPolyline
 90
        2
 70
     0
 43
0.15
 10
527.0788774439791
 20
82.49999999999997
 42
0.4142135623731
 10
529.0788774439791
 20
84.49999999999997
 42
0.4142135623731
  0
LWPOLYLINE
  5
210
330
44
100
AcDbEntity
  8
0
  6
Continuous
 62
     7
100
AcDbPolyline
 90
        2
 70
     0
 43
0.15
 10
521.0788774439791
 20
84.49999999999997
 42
0.4142135623731
 10
523.0788774439791
 20
82.49999999999997
 42
0.4142135623731
  0
LWPOLYLINE
  5
211
330
44
100
AcDbEntity
  8
0
  6
Continuous
 62
     7
100
AcDbPolyline
 90
        2
 70
     0
 43
0.15
 10
523.0788774439791
 20
94.49999999999997
 42
0.4142135623731
 10
521.0788774439791
 20
92.49999999999997
 42
0.4142135623731
  0
LWPOLYLINE
  5
212
330
44
100
AcDbEntity
  8
0
  6
Continuous
 62
     7
100
AcDbPolyline
 90
        2
 70
     0
 43
0.15
 10
529.0788774439791
 20
92.49999999999997
 42
0.4142135623731
 10
527.0788774439791
 20
94.49999999999997
 42
0.4142135623731
  0
LWPOLYLINE
  5
213
330
44
100
AcDbEntity
  8
0
  6
Continuous
 62
     7
100
AcDbPolyline
 90
        2
 70
     0
 43
0.15
 10
403.078877443979
 20
65.49999999999997
 42
0.4142135623731
 10
402.078877443979
 20
66.49999999999997
 42
0.4142135623731
  0
LWPOLYLINE
  5
214
330
44
100
AcDbEntity
  8
0
  6
Continuous
 62
     7
100
AcDbPolyline
 90
        2
 70
     0
 43
0.15
 10
409.078877443979
 20
65.49999999999997
 42
0.4142135623731
 10
402.078877443979
 20
72.49999999999997
 42
0.4142135623731
  0
LWPOLYLINE
  5
215
330
44
100
AcDbEntity
  8
0
  6
Continuous
 62
     7
100
AcDbPolyline
 90
        2
 70
     0
 43
0.15
 10
379.078877443979
 20
84.49999999999997
 42
0.4142135623731
 10
381.078877443979
 20
82.49999999999997
 42
0.4142135623731
  0
LWPOLYLINE
  5
216
330
44
100
AcDbEntity
  8
0
  6
Continuous
 62
     7
100
AcDbPolyline
 90
        2
 70
     0
 43
0.15
 10
381.078877443979
 20
94.49999999999997
 42
0.4142135623731
 10
379.078877443979
 20
92.49999999999997
 42
0.4142135623731
  0
LWPOLYLINE
  5
217
330
44
100
AcDbEntity
  8
0
  6
Continuous
 62
     7
100
AcDbPolyline
 90
        2
 70
     0
 43
0.15
 10
386.078877443979
 20
73.49999999999997
 42
0.4142135623731
 10
387.078877443979
 20
72.49999999999997
 42
0.4142135623731
  0
LWPOLYLINE
  5
218
330
44
100
AcDbEntity
  8
0
  6
Continuous
 62
     7
100
AcDbPolyline
 90
        2
 70
     0
 43
0.15
 10
380.078877443979
 20
73.49999999999997
 42
0.4142135623731
 10
387.078877443979
 20
66.49999999999997
 42
0.4142135623731
  0
LWPOLYLINE
  5
219
330
44
100
AcDbEntity
  8
0
  6
Continuous
 62
     7
100
AcDbPolyline
 90
        2
 70
     0
 43
0.15
 10
387.078877443979
 20
92.49999999999997
 42
0.4142135623731
 10
385.078877443979
 20
94.49999999999997
 42
0.4142135623731
  0
LWPOLYLINE
  5
21A
330
44
100
AcDbEntity
  8
0
  6
Continuous
 62
     7
100
AcDbPolyline
 90
        2
 70
     0
 43
0.15
 10
385.078877443979
 20
82.49999999999997
 42
0.4142135623731
 10
387.078877443979
 20
84.49999999999997
 42
0.4142135623731
  0
LWPOLYLINE
  5
21B
330
44
100
AcDbEntity
  8
0
  6
Continuous
 62
     7
100
AcDbPolyline
 90
        2
 70
     0
 43
0.15
 10
378.678877443979
 20
131.9999201133
 42
0.4142135623731
 10
379.678877443979
 20
130.9999201133
 42
0.4142135623731
  0
LWPOLYLINE
  5
21C
330
44
100
AcDbEntity
  8
0
  6
Continuous
 62
     7
100
AcDbPolyline
 90
        2
 70
     0
 43
0.15
 10
379.678877443979
 20
132.9999201133
 42
0.4142135623731
 10
378.678877443979
 20
131.9999201133
 42
0.4142135623731
  0
LWPOLYLINE
  5
21D
330
44
100
AcDbEntity
  8
0
  6
Continuous
 62
     7
100
AcDbPolyline
 90
        2
 70
     0
 43
0.15
 10
405.630295540279
 20
234.9999261133
 42
0.31529878994881
 10
391.534906208579
 20
225.1302282083
 42
0.31529878994881
  0
LWPOLYLINE
  5
21E
330
44
100
AcDbEntity
  8
0
  6
Continuous
 62
     7
100
AcDbPolyline
 90
        2
 70
     0
 43
0.15
 10
516.622848679544
 20
225.1302282083
 42
0.31529878994921
 10
502.527459347779
 20
234.9999261133
 42
0.31529878994921
  0
LWPOLYLINE
  5
21F
330
44
100
AcDbEntity
  8
0
  6
Continuous
 62
     7
100
AcDbPolyline
 90
        2
 70
     0
 43
0.15
 10
529.478877443979
 20
131.9999201133
 42
0.4142135623731
 10
528.478877443979
 20
132.9999201133
 42
0.4142135623731
  0
LWPOLYLINE
  5
220
330
44
100
AcDbEntity
  8
0
  6
Continuous
 62
     7
100
AcDbPolyline
 90
        2
 70
     0
 43
0.15
 10
528.478877443979
 20
130.9999201133
 42
0.4142135623731
 10
529.478877443979
 20
131.9999201133
 42
0.4142135623731
  0
LWPOLYLINE
  5
221
330
44
100
AcDbEntity
  8
0
  6
Continuous
 62
     7
100
AcDbPolyline
 90
        2
 70
     0
 43
0.15
 10
374.078877443979
 20
72.00000200000002
 42
0.4142135623731
 10
382.078877443979
 20
64.00000200000002
 42
0.4142135623731
  0
LWPOLYLINE
  5
222
330
44
100
AcDbEntity
  8
0
  6
Continuous
 62
     7
100
AcDbPolyline
 90
        2
 70
     0
 43
0.15
 10
526.0788774439791
 20
64.00000200000002
 42
0.4142135623731
 10
534.0788774439791
 20
72.00000200000002
 42
0.4142135623731
  0
LWPOLYLINE
  5
223
330
44
100
AcDbEntity
  8
0
  6
Continuous
 62
     7
100
AcDbPolyline
 90
        2
 70
     0
 43
0.15
 10
379.078877443979
 20
69.00000200000002
 42
0.4142135623731
 10
381.578877443979
 20
66.50000200000002
 42
0.4142135623731
  0
LWPOLYLINE
  5
224
330
44
100
AcDbEntity
  8
0
  6
Continuous
 62
     7
100
AcDbPolyline
 90
        2
 70
     0
 43
0.15
 10
526.5788774439791
 20
66.50000200000002
 42
0.4142135623731
 10
529.0788774439791
 20
69.00000200000002
 42
0.4142135623731
  0
LWPOLYLINE
  5
225
330
44
100
AcDbEntity
  8
0
  6
Continuous
 62
     7
100
AcDbPolyline
 90
        2
 70
     0
 43
0.15
 10
389.328877443979
 20
127.7014908716
 42
0.4142135623731
 10
387.328877443979
 20
129.7014908716
 42
0.4142135623731
  0
LWPOLYLINE
  5
226
330
44
100
AcDbEntity
  8
0
  6
Continuous
 62
     7
100
AcDbPolyline
 90
        2
 70
     0
 43
0.15
 10
520.8288774439791
 20
129.7014908716
 42
0.4142135623731
 10
518.8288774439791
 20
127.7014908716
 42
0.4142135623731
  0
LWPOLYLINE
  5
227
330
44
100
AcDbEntity
  8
0
  6
Continuous
 62
     7
100
AcDbPolyline
 90
        2
 70
     0
 43
0.15
 10
523.3288774439791
 20
125.2014908716
 42
0.4142135623731
 10
521.3288774439791
 20
127.2014908716
 42
0.4142135623731
  0
LWPOLYLINE
  5
228
330
44
100
AcDbEntity
  8
0
  6
Continuous
 62
     7
100
AcDbPolyline
 90
        2
 70
     0
 43
0.15
 10
386.828877443979
 20
127.2014908716
 42
0.4142135623731
 10
384.828877443979
 20
125.2014908716
 42
0.4142135623731
  0
LWPOLYLINE
  5
229
330
44
100
AcDbEntity
  8
0
  6
Continuous
 62
     7
100
AcDbPolyline
 90
        2
 70
     0
 43
0.15
 10
533.828874446479
 20
159.9999201133001
 42
0.41421268438058
 10
532.828874446483
 20
158.999923110955
 42
0.41421268438058
  0
LWPOLYLINE
  5
22A
330
44
100
AcDbEntity
  8
0
  6
Continuous
 62
     7
100
AcDbPolyline
 90
        2
 70
     0
 43
0.15
 10
375.3288804415751
 20
158.999923110955
 42
0.41421268438058
 10
374.328880441579
 20
159.9999201133001
 42
0.41421268438058
  0
LWPOLYLINE
  5
22B
330
44
100
AcDbEntity
  8
0
  6
Continuous
 62
     7
100
AcDbPolyline
 90
        2
 70
     0
 43
0.15
 10
524.478877443979
 20
125.2014908716
 42
0.4142135623731
 10
523.478877443979
 20
124.2014908716
 42
0.4142135623731
  0
LWPOLYLINE
  5
22C
330
44
100
AcDbEntity
  8
0
  6
Continuous
 62
     7
100
AcDbPolyline
 90
        2
 70
     0
 43
0.15
 10
384.678877443979
 20
124.2014908716
 42
0.4142135623731
 10
383.678877443979
 20
125.2014908716
 42
0.4142135623731
  0
LWPOLYLINE
  5
22D
330
44
100
AcDbEntity
  8
0
  6
Continuous
 62
     7
100
AcDbPolyline
 90
        2
 70
     0
 43
0.15
 10
518.5788774439791
 20
116.0
 42
0.4142135623731
 10
517.5788774439791
 20
115.0
 42
0.4142135623731
  0
LWPOLYLINE
  5
22E
330
44
100
AcDbEntity
  8
0
  6
Continuous
 62
     7
100
AcDbPolyline
 90
        2
 70
     0
 43
0.15
 10
390.578877443979
 20
115.0
 42
0.4142135623731
 10
389.578877443979
 20
116.0
 42
0.4142135623731
  0
LWPOLYLINE
  5
22F
330
44
100
AcDbEntity
  8
0
  6
Continuous
 62
     7
100
AcDbPolyline
 90
        2
 70
     0
 43
0.15
 10
381.178877443979
 20
115.0
 42
0.4142135623731
 10
383.678877443979
 20
112.5
 42
0.4142135623731
  0
LWPOLYLINE
  5
230
330
44
100
AcDbEntity
  8
0
  6
Continuous
 62
     7
100
AcDbPolyline
 90
        2
 70
     0
 43
0.15
 10
524.478877443979
 20
112.5
 42
0.4142135623731
 10
526.978877443979
 20
115.0
 42
0.4142135623731
  0
LWPOLYLINE
  5
231
330
44
100
AcDbEntity
  8
0
  6
Continuous
 62
     7
100
AcDbPolyline
 90
        2
 70
     0
 43
0.15
 10
522.478877443979
 20
116.0
 42
0.4142135623731
 10
523.478877443979
 20
117.0
 42
0.4142135623731
  0
LWPOLYLINE
  5
232
330
44
100
AcDbEntity
  8
0
  6
Continuous
 62
     7
100
AcDbPolyline
 90
        2
 70
     0
 43
0.15
 10
384.678877443979
 20
117.0
 42
0.4142135623731
 10
385.678877443979
 20
116.0
 42
0.4142135623731
  0
LWPOLYLINE
  5
233
330
44
100
AcDbEntity
  8
0
  6
Continuous
 62
     7
100
AcDbPolyline
 90
        2
 70
     0
 43
0.15
 10
634.0788774439791
 20
157.9999201133
 42
0.4142135623731
 10
632.0788774439791
 20
159.9999201133001
 42
0.4142135623731
  0
LWPOLYLINE
  5
234
330
44
100
AcDbEntity
  8
0
  6
Continuous
 62
     7
100
AcDbPolyline
 90
        2
 70
     0
 43
0.15
 10
276.078877443979
 20
159.9999201133001
 42
0.4142135623731
 10
274.078877443979
 20
157.9999201133
 42
0.4142135623731
  0
SPLINE
  5
235
330
44
100
AcDbEntity
  8
0
  6
Continuous
 62
     7
100
AcDbSpline
210
0.0
220
0.0
230
1.0
 70
    24
 71
     3
 72
     9
 73
     5
 74
     3
 42
0.0000000001
 43
0.0000000001
 44
0.00000001
 40
0.0
 40
0.0
 40
0.0
 40
0.0
 40
0.2976419018731349
 40
0.595283803767984
 40
0.595283803767984
 40
0.595283803767984
 40
0.595283803767984
 10
399.507570391679
 20
199.3201632629
 30
0.0
 10
399.60678435897
 20
199.3201632629075
 30
0.0
 10
399.8052122935594
 20
199.3201632629225
 30
0.0
 10
400.0036402281487
 20
199.3201632629148
 30
0.0
 10
400.102854195447
 20
199.320163262911
 30
0.0
 11
399.507570391679
 21
199.3201632629
 31
0.0
 11
399.8052122935521
 21
199.3201632629168
 31
0.0
 11
400.102854195447
 21
199.320163262911
 31
0.0
  0
SPLINE
  5
236
330
44
100
AcDbEntity
  8
0
  6
Continuous
 62
     7
100
AcDbSpline
210
0.0
220
0.0
230
1.0
 70
    24
 71
     3
 72
     9
 73
     5
 74
     3
 42
0.0000000001
 43
0.0000000001
 44
0.00000001
 40
0.0
 40
0.0
 40
0.0
 40
0.0
 40
0.5749999996563133
 40
1.149999999509873
 40
1.149999999509873
 40
1.149999999509873
 40
1.149999999509873
 10
404.8434404854791
 20
199.3201632629
 30
0.0
 10
405.0351071520313
 20
199.3201632629467
 30
0.0
 10
405.4184404852012
 20
199.3201632630401
 30
0.0
 10
405.8017738183712
 20
199.3201632630607
 30
0.0
 10
405.993440484989
 20
199.320163263071
 30
0.0
 11
404.8434404854791
 21
199.3201632629
 31
0.0
 11
405.4184404851354
 21
199.3201632630219
 31
0.0
 11
405.993440484989
 21
199.320163263071
 31
0.0
  0
SPLINE
  5
237
330
44
100
AcDbEntity
  8
0
  6
Continuous
 62
     7
100
AcDbSpline
210
0.0
220
0.0
230
1.0
 70
    24
 71
     3
 72
     9
 73
     5
 74
     3
 42
0.0000000001
 43
0.0000000001
 44
0.00000001
 40
0.0
 40
0.0
 40
0.0
 40
0.0
 40
0.8131727986223041
 40
1.626345597096986
 40
1.626345597096986
 40
1.626345597096986
 40
1.626345597096986
 10
413.534624242479
 20
199.3201632629
 30
0.0
 10
413.8056818420198
 20
199.3201632628869
 30
0.0
 10
414.3477970410521
 20
199.3201632628605
 30
0.0
 10
414.8899122400844
 20
199.3201632628455
 30
0.0
 10
415.160969839576
 20
199.320163262838
 30
0.0
 11
413.534624242479
 21
199.3201632629
 31
0.0
 11
414.3477970411013
 21
199.3201632628634
 31
0.0
 11
415.160969839576
 21
199.320163262838
 31
0.0
  0
SPLINE
  5
238
330
44
100
AcDbEntity
  8
0
  6
Continuous
 62
     7
100
AcDbSpline
210
0.0
220
0.0
230
1.0
 70
    24
 71
     3
 72
     9
 73
     5
 74
     3
 42
0.0000000001
 43
0.0000000001
 44
0.00000001
 40
0.0
 40
0.0
 40
0.0
 40
0.0
 40
0.9959292143274752
 40
1.991858428687976
 40
1.991858428687976
 40
1.991858428687976
 40
1.991858428687976
 10
424.988831852779
 20
199.3201632629
 30
0.0
 10
425.3208082575549
 20
199.3201632629103
 30
0.0
 10
425.9847610671176
 20
199.320163262931
 30
0.0
 10
426.6487138766802
 20
199.3201632629276
 30
0.0
 10
426.980690281467
 20
199.320163262926
 30
0.0
 11
424.988831852779
 21
199.3201632629
 31
0.0
 11
425.9847610671065
 21
199.320163262925
 31
0.0
 11
426.980690281467
 21
199.320163262926
 31
0.0
  0
SPLINE
  5
239
330
44
100
AcDbEntity
  8
0
  6
Continuous
 62
     7
100
AcDbSpline
210
0.0
220
0.0
230
1.0
 70
    24
 71
     3
 72
     9
 73
     5
 74
     3
 42
0.0000000001
 43
0.0000000001
 44
0.00000001
 40
0.0
 40
0.0
 40
0.0
 40
0.0
 40
1.110814700042965
 40
2.221629400188021
 40
2.221629400188021
 40
2.221629400188021
 40
2.221629400188021
 10
438.425477996479
 20
199.3201632629
 30
0.0
 10
438.79574956316
 20
199.3201632629177
 30
0.0
 10
439.536292696556
 20
199.3201632629531
 30
0.0
 10
440.276835829952
 20
199.3201632629571
 30
0.0
 10
440.647107396667
 20
199.320163262959
 30
0.0
 11
438.425477996479
 21
199.3201632629
 31
0.0
 11
439.536292696522
 21
199.3201632629452
 31
0.0
 11
440.647107396667
 21
199.320163262959
 31
0.0
  0
SPLINE
  5
23A
330
44
100
AcDbEntity
  8
0
  6
Continuous
 62
     7
100
AcDbSpline
210
0.0
220
0.0
230
1.0
 70
    24
 71
     3
 72
     9
 73
     5
 74
     3
 42
0.0000000001
 43
0.0000000001
 44
0.00000001
 40
0.0
 40
0.0
 40
0.0
 40
0.0
 40
1.150000000029081
 40
2.300000000058958
 40
2.300000000058958
 40
2.300000000058958
 40
2.300000000058958
 10
452.928877443951
 20
199.3201632629369
 30
0.0
 10
453.312210777294
 20
199.3201632629369
 30
0.0
 10
454.0788774439804
 20
199.3201632629369
 30
0.0
 10
454.8455441106667
 20
199.3201632629369
 30
0.0
 10
455.22887744401
 20
199.3201632629369
 30
0.0
 11
452.928877443951
 21
199.3201632629369
 31
0.0
 11
454.0788774439801
 21
199.3201632629369
 31
0.0
 11
455.22887744401
 21
199.3201632629369
 31
0.0
  0
SPLINE
  5
23B
330
44
100
AcDbEntity
  8
0
  6
Continuous
 62
     7
100
AcDbSpline
210
0.0
220
0.0
230
1.0
 70
    24
 71
     3
 72
     9
 73
     5
 74
     3
 42
0.0000000001
 43
0.0000000001
 44
0.00000001
 40
0.0
 40
0.0
 40
0.0
 40
0.0
 40
1.110814700162507
 40
2.221629400325014
 40
2.221629400325014
 40
2.221629400325014
 40
2.221629400325014
 10
467.510647491293
 20
199.320163262958
 30
0.0
 10
467.8809190580138
 20
199.3201632629555
 30
0.0
 10
468.6214621914554
 20
199.3201632629505
 30
0.0
 10
469.3620053248972
 20
199.3201632629455
 30
0.0
 10
469.732276891618
 20
199.320163262943
 30
0.0
 11
467.510647491293
 21
199.320163262958
 31
0.0
 11
468.6214621914555
 21
199.3201632629505
 31
0.0
 11
469.732276891618
 21
199.320163262943
 31
0.0
  0
SPLINE
  5
23C
330
44
100
AcDbEntity
  8
0
  6
Continuous
 62
     7
100
AcDbSpline
210
0.0
220
0.0
230
1.0
 70
    24
 71
     3
 72
     9
 73
     5
 74
     3
 42
0.0000000001
 43
0.0000000001
 44
0.00000001
 40
0.0
 40
0.0
 40
0.0
 40
0.0
 40
0.9959292143655603
 40
1.991858428731973
 40
1.991858428731973
 40
1.991858428731973
 40
1.991858428731973
 10
481.177064606494
 20
199.320163262926
 30
0.0
 10
481.5090410112825
 20
199.3201632629271
 30
0.0
 10
482.1729938208599
 20
199.320163262929
 30
0.0
 10
482.8369466304372
 20
199.3201632629304
 30
0.0
 10
483.168923035226
 20
199.320163262931
 30
0.0
 11
481.177064606494
 21
199.320163262926
 31
0.0
 11
482.1729938208596
 21
199.3201632629289
 31
0.0
 11
483.168923035226
 21
199.320163262931
 31
0.0
  0
SPLINE
  5
23D
330
44
100
AcDbEntity
  8
0
  6
Continuous
 62
     7
100
AcDbSpline
210
0.0
220
0.0
230
1.0
 70
    24
 71
     3
 72
     9
 73
     5
 74
     3
 42
0.0000000001
 43
0.0000000001
 44
0.00000001
 40
0.0
 40
0.0
 40
0.0
 40
0.0
 40
0.8131727984495001
 40
1.626345596899
 40
1.626345596899
 40
1.626345596899
 40
1.626345596899
 10
492.996785048385
 20
199.320163262838
 30
0.0
 10
493.2678426478682
 20
199.3201632628457
 30
0.0
 10
493.8099578468345
 20
199.3201632628608
 30
0.0
 10
494.3520730458008
 20
199.320163262877
 30
0.0
 10
494.623130645284
 20
199.320163262885
 30
0.0
 11
492.996785048385
 21
199.320163262838
 31
0.0
 11
493.8099578468345
 21
199.3201632628611
 31
0.0
 11
494.623130645284
 21
199.320163262885
 31
0.0
  0
SPLINE
  5
23E
330
44
100
AcDbEntity
  8
0
  6
Continuous
 62
     7
100
AcDbSpline
210
0.0
220
0.0
230
1.0
 70
    24
 71
     3
 72
     9
 73
     5
 74
     3
 42
0.0000000001
 43
0.0000000001
 44
0.00000001
 40
0.0
 40
0.0
 40
0.0
 40
0.0
 40
0.5749999998864723
 40
1.149999999773001
 40
1.149999999773001
 40
1.149999999773001
 40
1.149999999773001
 10
502.164314402972
 20
199.320163263071
 30
0.0
 10
502.3559810696007
 20
199.3201632630586
 30
0.0
 10
502.7393144028585
 20
199.3201632630341
 30
0.0
 10
503.1226477361162
 20
199.3201632630094
 30
0.0
 10
503.314314402745
 20
199.320163262997
 30
0.0
 11
502.164314402972
 21
199.320163263071
 31
0.0
 11
502.7393144028585
 21
199.320163263034
 31
0.0
 11
503.314314402745
 21
199.320163262997
 31
0.0
  0
SPLINE
  5
23F
330
44
100
AcDbEntity
  8
0
  6
Continuous
 62
     7
100
AcDbSpline
210
0.0
220
0.0
230
1.0
 70
    24
 71
     3
 72
     9
 73
     5
 74
     3
 42
0.0000000001
 43
0.0000000001
 44
0.00000001
 40
0.0
 40
0.0
 40
0.0
 40
0.0
 40
0.2976419018984302
 40
0.5952838037969741
 40
0.5952838037969741
 40
0.5952838037969741
 40
0.5952838037969741
 10
508.054900692514
 20
199.32016326291
 30
0.0
 10
508.1541146598134
 20
199.3201632629136
 30
0.0
 10
508.3525425944125
 20
199.320163262921
 30
0.0
 10
508.5509705290115
 20
199.3201632629284
 30
0.0
 10
508.650184496311
 20
199.3201632629321
 30
0.0
 11
508.054900692514
 21
199.32016326291
 31
0.0
 11
508.3525425944125
 21
199.3201632629211
 31
0.0
 11
508.650184496311
 21
199.3201632629321
 31
0.0
  0
DIMENSION
  5
258
330
44
100
AcDbEntity
  8
1
100
AcDbDimension
  2
*D3
 10
274.078877443979
 20
270.054338444205
 30
0.0
 11
455.733893280129
 21
277.054338444205
 31
0.0
 70
    33
  1
<>
 71
     5
 42
-1.0
 53
0.00013888888889
  3
ME10_DIM_10
100
AcDbAlignedDimension
 13
634.0788774439791
 23
157.9999201133
 33
0.0
 14
274.078877443979
 24
157.9999201133
 34
0.0
  0
DIMENSION
  5
263
330
44
100
AcDbEntity
  8
1
100
AcDbDimension
  2
*D4
 10
416.578877443979
 20
-25.6905031570849
 30
0.0
 11
453.322661995095
 21
-18.6905031570849
 31
0.0
 70
    33
  1
<>
 71
     5
 42
-1.0
 53
0.00013888888889
  3
ME10_DIM_11
100
AcDbAlignedDimension
 13
491.578877443979
 23
5.0
 33
0.0
 14
416.578877443979
 24
5.0
 34
0.0
  0
DIMENSION
  5
26E
330
44
100
AcDbEntity
  8
1
100
AcDbDimension
  2
*D5
 10
373.978877443979
 20
-49.044432313547
 30
0.0
 11
453.322661995095
 21
-42.044432313547
 31
0.0
 70
    33
  1
<>
 71
     5
 42
-1.0
 53
0.00013888888889
  3
ME10_DIM_12
100
AcDbAlignedDimension
 13
534.178877443979
 23
74.00000200000002
 33
0.0
 14
373.978877443979
 24
74.00000200000002
 34
0.0
  0
DIMENSION
  5
279
330
44
100
AcDbEntity
  8
1
100
AcDbDimension
  2
*D6
 10
259.180539881977
 20
159.9999201133
 30
0.0
 11
252.180539881977
 21
111.906094192411
 31
0.0
 70
    32
  1
<>
 71
     5
 42
-1.0
 53
90.0
  3
ME10_DIM_13
100
AcDbAlignedDimension
 13
382.078877443979
 23
64.00000200000002
 33
0.0
 14
276.078877443979
 24
159.9999201133001
 34
0.0
 50
90.0
100
AcDbRotatedDimension
  0
DIMENSION
  5
284
330
44
100
AcDbEntity
  8
1
100
AcDbDimension
  2
*D7
 10
236.519172122751
 20
159.9999201133
 30
0.0
 11
229.519172122751
 21
80.0385457810004
 31
0.0
 70
    32
  1
<>
 71
     5
 42
-1.0
 53
90.0
  3
ME10_DIM_14
100
AcDbAlignedDimension
 13
420.078877443979
 23
0.0
 33
0.0
 14
276.078877443979
 24
159.9999201133001
 34
0.0
 50
90.0
100
AcDbRotatedDimension
  0
HATCH
  5
285
330
44
100
AcDbEntity
  8
0
  6
Continuous
 62
     7
100
AcDbHatch
 10
0.0
 20
0.0
 30
0.0
210
0.0
220
0.0
230
1.0
  2
CUSTOM0
 70
     0
 71
     0
 91
        1
 92
        1
 93
       13
 72
     1
 10
634.0788774439791
 20
156.49999
 11
634.0788774439791
 21
157.9999201133
 72
     1
 10
634.0788774439791
 20
157.9999201133
 11
634.039010599702
 21
158.397258774872
 72
     1
 10
634.039010599702
 20
158.397258774872
 11
633.9209994320261
 21
158.778756797899
 72
     1
 10
633.9209994320261
 20
158.778756797899
 11
633.729548673839
 21
159.129205060072
 72
     1
 10
633.729548673839
 20
159.129205060072
 11
633.4722908627141
 21
159.434632295081
 72
     1
 10
633.4722908627141
 20
159.434632295081
 11
633.159482055756
 21
159.682862082897
 72
     1
 10
633.159482055756
 20
159.682862082897
 11
632.8035929529731
 21
159.863998285216
 72
     1
 10
632.8035929529731
 20
159.863998285216
 11
632.4188117298199
 21
159.970819573259
 72
     1
 10
632.4188117298199
 20
159.970819573259
 11
632.0788774439791
 21
159.9999201133001
 72
     1
 10
632.0788774439791
 20
159.9999201133001
 11
624.0788774439791
 21
159.9999201133001
 72
     1
 10
624.0788774439791
 20
159.9999201133001
 11
622.0788774439791
 21
157.9999201133
 72
     1
 10
622.0788774439791
 20
157.9999201133
 11
622.0788774439791
 21
156.49999
 72
     1
 10
622.0788774439791
 20
156.49999
 11
634.0788774439791
 21
156.49999
 97
        0
 75
     1
 76
     2
 52
0.0
 41
1.0
 77
     0
 78
     1
 53
44.99999999999998
 43
0.0
 44
0.0
 45
-4.490128060534577
 46
0.0000000000000018
 79
     0
 98
        1
 10
0.0
 20
0.0
  0
HATCH
  5
286
330
44
100
AcDbEntity
  8
0
  6
Continuous
 62
     7
100
AcDbHatch
 10
0.0
 20
0.0
 30
0.0
210
0.0
220
0.0
230
1.0
  2
CUSTOM1
 70
     0
 71
     0
 91
        1
 92
        1
 93
       71
 72
     1
 10
521.0788774439791
 20
112.5
 11
524.478877443979
 21
112.5
 72
     1
 10
524.478877443979
 20
112.5
 11
524.975550771008
 21
112.549833555366
 72
     1
 10
524.975550771008
 20
112.549833555366
 11
525.452423299792
 21
112.697347514962
 72
     1
 10
525.452423299792
 20
112.697347514962
 11
525.890483627508
 21
112.936660962695
 72
     1
 10
525.890483627508
 20
112.936660962695
 11
526.272267671269
 21
113.258233226601
 72
     1
 10
526.272267671269
 20
113.258233226601
 11
526.5825549060401
 21
113.649244235298
 72
     1
 10
526.5825549060401
 20
113.649244235298
 11
526.808975158938
 21
114.094105613777
 72
     1
 10
526.808975158938
 20
114.094105613777
 11
526.942501768991
 21
114.575082142718
 72
     1
 10
526.942501768991
 20
114.575082142718
 11
526.978877443979
 21
115.0
 72
     1
 10
526.978877443979
 20
115.0
 11
526.978877443979
 21
121.701942
 72
     1
 10
526.978877443979
 20
121.701942
 11
530.678877443979
 21
121.701942
 72
     1
 10
530.678877443979
 20
121.701942
 11
531.3288774439791
 21
74.00000200000002
 72
     1
 10
531.3288774439791
 20
74.00000200000002
 11
534.178877443979
 21
74.00000200000002
 72
     1
 10
534.178877443979
 20
74.00000200000002
 11
534.178877443979
 21
138.6
 72
     1
 10
534.178877443979
 20
138.6
 11
536.328858443979
 21
142.4
 72
     1
 10
536.328858443979
 20
142.4
 11
536.3288774439791
 21
156.49999
 72
     1
 10
536.3288774439791
 20
156.49999
 11
618.0788774439791
 21
156.49999
 72
     1
 10
618.0788774439791
 20
156.49999
 11
618.0788774439791
 21
157.9999201133
 72
     1
 10
618.0788774439791
 20
157.9999201133
 11
616.0788774439791
 21
159.9999201133001
 72
     1
 10
616.0788774439791
 20
159.9999201133001
 11
533.828874446479
 21
159.9999201133001
 72
     1
 10
533.828874446479
 20
159.9999201133001
 11
533.630205115645
 21
159.979986691123
 72
     1
 10
533.630205115645
 20
159.979986691123
 11
533.439456104132
 21
159.920981107284
 72
     1
 10
533.439456104132
 20
159.920981107284
 11
533.2642319730451
 21
159.825255728191
 72
     1
 10
533.2642319730451
 20
159.825255728191
 11
533.111518355541
 21
159.696626822629
 72
     1
 10
533.111518355541
 20
159.696626822629
 11
532.987403461633
 21
159.54022241915
 72
     1
 10
532.987403461633
 20
159.54022241915
 11
532.896835360473
 21
159.3622778677581
 72
     1
 10
532.896835360473
 20
159.3622778677581
 11
532.8434247164521
 21
159.1698872561821
 72
     1
 10
532.8434247164521
 20
159.1698872561821
 11
532.828874446483
 21
158.999923110955
 72
     1
 10
532.828874446483
 20
158.999923110955
 11
532.828827390079
 21
143.3018324332
 72
     1
 10
532.828827390079
 20
143.3018324332
 11
528.8289658078791
 21
136.4
 72
     1
 10
528.8289658078791
 20
136.4
 11
528.8289658078791
 21
135.5
 72
     1
 10
528.8289658078791
 20
135.5
 11
529.5788774439791
 21
135.0569188716
 72
     1
 10
529.5788774439791
 20
135.0569188716
 11
529.5788774439791
 21
130.8
 72
     1
 10
529.5788774439791
 20
130.8
 11
531.0788774439791
 21
129.8
 72
     1
 10
531.0788774439791
 20
129.8
 11
531.0788774439791
 21
125.2014908716
 72
     1
 10
531.0788774439791
 20
125.2014908716
 11
524.478877443979
 21
125.2014908716
 72
     1
 10
524.478877443979
 20
125.2014908716
 11
524.280208113225
 21
125.181557449468
 72
     1
 10
524.280208113225
 20
125.181557449468
 11
524.089459101711
 21
125.122551865629
 72
     1
 10
524.089459101711
 20
125.122551865629
 11
523.914234970625
 21
125.026826486536
 72
     1
 10
523.914234970625
 20
125.026826486536
 11
523.7615213531201
 21
124.898197580974
 72
     1
 10
523.7615213531201
 20
124.898197580974
 11
523.637406459212
 21
124.741793177495
 72
     1
 10
523.637406459212
 20
124.741793177495
 11
523.546838358053
 21
124.563848626103
 72
     1
 10
523.546838358053
 20
124.563848626103
 11
523.493427714031
 21
124.371458014527
 72
     1
 10
523.493427714031
 20
124.371458014527
 11
523.478877443979
 21
124.2014908716
 72
     1
 10
523.478877443979
 20
124.2014908716
 11
523.478877443979
 21
117.0
 72
     1
 10
523.478877443979
 20
117.0
 11
523.458944021861
 21
116.801330669174
 72
     1
 10
523.458944021861
 20
116.801330669174
 11
523.399938438023
 21
116.61058165766
 72
     1
 10
523.399938438023
 20
116.61058165766
 11
523.30421305893
 21
116.435357526574
 72
     1
 10
523.30421305893
 20
116.435357526574
 11
523.175584153367
 21
116.282643909069
 72
     1
 10
523.175584153367
 20
116.282643909069
 11
523.019179749888
 21
116.158529015161
 72
     1
 10
523.019179749888
 20
116.158529015161
 11
522.8412351984971
 21
116.067960914002
 72
     1
 10
522.8412351984971
 20
116.067960914002
 11
522.64884458692
 21
116.01455026998
 72
     1
 10
522.64884458692
 20
116.01455026998
 11
522.478877443979
 21
116.0
 72
     1
 10
522.478877443979
 20
116.0
 11
518.5788774439791
 21
116.0
 72
     1
 10
518.5788774439791
 20
116.0
 11
518.3802081132251
 21
115.98006657781
 72
     1
 10
518.3802081132251
 20
115.98006657781
 11
518.189459101711
 21
115.921060993972
 72
     1
 10
518.189459101711
 20
115.921060993972
 11
518.014234970625
 21
115.825335614879
 72
     1
 10
518.014234970625
 20
115.825335614879
 11
517.861521353121
 21
115.696706709316
 72
     1
 10
517.861521353121
 20
115.696706709316
 11
517.737406459212
 21
115.540302305837
 72
     1
 10
517.737406459212
 20
115.540302305837
 11
517.646838358053
 21
115.362357754445
 72
     1
 10
517.646838358053
 20
115.362357754445
 11
517.593427714032
 21
115.169967142869
 72
     1
 10
517.593427714032
 20
115.169967142869
 11
517.5788774439791
 21
115.0
 72
     1
 10
517.5788774439791
 20
115.0
 11
517.5788774439791
 21
76.49955044240002
 72
     1
 10
517.5788774439791
 20
76.49955044240002
 11
488.078877443979
 21
76.49955044240002
 72
     1
 10
488.078877443979
 20
76.49955044240002
 11
488.078877443979
 21
0.0
 72
     1
 10
488.078877443979
 20
0.0
 11
490.239131481879
 21
0.0
 72
     1
 10
490.239131481879
 20
0.0
 11
491.578877443979
 21
5.0
 72
     1
 10
491.578877443979
 20
5.0
 11
491.578877443979
 21
72.74999999999997
 72
     1
 10
491.578877443979
 20
72.74999999999997
 11
494.497564084179
 21
73.00000200000002
 72
     1
 10
494.497564084179
 20
73.00000200000002
 11
521.0788774439791
 21
73.00000200000002
 72
     1
 10
521.0788774439791
 20
73.00000200000002
 11
521.0788774439791
 21
112.5
 97
        0
 75
     1
 76
     2
 52
0.0
 41
1.0
 77
     0
 78
     1
 53
44.99999999999998
 43
0.0
 44
0.0
 45
-4.490128060534577
 46
0.0000000000000018
 79
     0
 98
        1
 10
0.0
 20
0.0
  0
HATCH
  5
287
330
44
100
AcDbEntity
  8
0
  6
Continuous
 62
     7
100
AcDbHatch
 10
0.0
 20
0.0
 30
0.0
210
0.0
220
0.0
230
1.0
  2
CUSTOM2
 70
     0
 71
     0
 91
        1
 92
        1
 93
       71
 72
     1
 10
381.178877443979
 20
121.701942
 11
381.178877443979
 21
115.0
 72
     1
 10
381.178877443979
 20
115.0
 11
381.228710999417
 21
114.503326672981
 72
     1
 10
381.228710999417
 20
114.503326672981
 11
381.376224959013
 21
114.026454144197
 72
     1
 10
381.376224959013
 20
114.026454144197
 11
381.615538406746
 21
113.588393816481
 72
     1
 10
381.615538406746
 20
113.588393816481
 11
381.937110670652
 21
113.20660977272
 72
     1
 10
381.937110670652
 20
113.20660977272
 11
382.32812167935
 21
112.896322537949
 72
     1
 10
382.32812167935
 20
112.896322537949
 11
382.772983057828
 21
112.669902285051
 72
     1
 10
382.772983057828
 20
112.669902285051
 11
383.253959586769
 21
112.536375674998
 72
     1
 10
383.253959586769
 20
112.536375674998
 11
383.678877443979
 21
112.5
 72
     1
 10
383.678877443979
 20
112.5
 11
387.078877443979
 21
112.5
 72
     1
 10
387.078877443979
 20
112.5
 11
387.078877443979
 21
73.00000200000002
 72
     1
 10
387.078877443979
 20
73.00000200000002
 11
413.660190803879
 21
73.00000200000002
 72
     1
 10
413.660190803879
 20
73.00000200000002
 11
416.578877443979
 21
72.74999999999997
 72
     1
 10
416.578877443979
 20
72.74999999999997
 11
416.578877443979
 21
5.0
 72
     1
 10
416.578877443979
 20
5.0
 11
417.918623406179
 21
0.0
 72
     1
 10
417.918623406179
 20
0.0
 11
420.078877443979
 21
0.0
 72
     1
 10
420.078877443979
 20
0.0
 11
420.078877443979
 21
76.49955044240002
 72
     1
 10
420.078877443979
 20
76.49955044240002
 11
390.578877443979
 21
76.49955044240002
 72
     1
 10
390.578877443979
 20
76.49955044240002
 11
390.578877443979
 21
115.0
 72
     1
 10
390.578877443979
 20
115.0
 11
390.558944021861
 21
115.198669330764
 72
     1
 10
390.558944021861
 20
115.198669330764
 11
390.499938438023
 21
115.389418342277
 72
     1
 10
390.499938438023
 20
115.389418342277
 11
390.40421305893
 21
115.564642473364
 72
     1
 10
390.40421305893
 20
115.564642473364
 11
390.2755841533671
 21
115.717356090868
 72
     1
 10
390.2755841533671
 20
115.717356090868
 11
390.119179749888
 21
115.841470984777
 72
     1
 10
390.119179749888
 20
115.841470984777
 11
389.941235198497
 21
115.932039085936
 72
     1
 10
389.941235198497
 20
115.932039085936
 11
389.74884458692
 21
115.985449729957
 72
     1
 10
389.74884458692
 20
115.985449729957
 11
389.578877443979
 21
116.0
 72
     1
 10
389.578877443979
 20
116.0
 11
385.678877443979
 21
116.0
 72
     1
 10
385.678877443979
 20
116.0
 11
385.480208113225
 21
116.019933422128
 72
     1
 10
385.480208113225
 20
116.019933422128
 11
385.289459101711
 21
116.078939005966
 72
     1
 10
385.289459101711
 20
116.078939005966
 11
385.114234970625
 21
116.174664385059
 72
     1
 10
385.114234970625
 20
116.174664385059
 11
384.96152135312
 21
116.303293290622
 72
     1
 10
384.96152135312
 20
116.303293290622
 11
384.8374064592121
 21
116.459697694101
 72
     1
 10
384.8374064592121
 20
116.459697694101
 11
384.746838358053
 21
116.637642245492
 72
     1
 10
384.746838358053
 20
116.637642245492
 11
384.693427714032
 21
116.830032857069
 72
     1
 10
384.693427714032
 20
116.830032857069
 11
384.678877443979
 21
117.0
 72
     1
 10
384.678877443979
 20
117.0
 11
384.678877443979
 21
124.2014908716
 72
     1
 10
384.678877443979
 20
124.2014908716
 11
384.658944021861
 21
124.400160202422
 72
     1
 10
384.658944021861
 20
124.400160202422
 11
384.599938438023
 21
124.590909213935
 72
     1
 10
384.599938438023
 20
124.590909213935
 11
384.50421305893
 21
124.766133345022
 72
     1
 10
384.50421305893
 20
124.766133345022
 11
384.375584153367
 21
124.918846962526
 72
     1
 10
384.375584153367
 20
124.918846962526
 11
384.219179749888
 21
125.042961856434
 72
     1
 10
384.219179749888
 20
125.042961856434
 11
384.041235198497
 21
125.133529957594
 72
     1
 10
384.041235198497
 20
125.133529957594
 11
383.84884458692
 21
125.186940601615
 72
     1
 10
383.84884458692
 20
125.186940601615
 11
383.678877443979
 21
125.2014908716
 72
     1
 10
383.678877443979
 20
125.2014908716
 11
377.078877443979
 21
125.2014908716
 72
     1
 10
377.078877443979
 20
125.2014908716
 11
377.078877443979
 21
129.8
 72
     1
 10
377.078877443979
 20
129.8
 11
378.578877443979
 21
130.8
 72
     1
 10
378.578877443979
 20
130.8
 11
378.578877443979
 21
135.0569188716
 72
     1
 10
378.578877443979
 20
135.0569188716
 11
379.328789080179
 21
135.5
 72
     1
 10
379.328789080179
 20
135.5
 11
379.328789080179
 21
136.4
 72
     1
 10
379.328789080179
 20
136.4
 11
375.328927497979
 21
143.3018324332
 72
     1
 10
375.328927497979
 20
143.3018324332
 11
375.3288804415751
 21
158.999923110955
 72
     1
 10
375.3288804415751
 20
158.999923110955
 11
375.308946423894
 21
159.198592381978
 72
     1
 10
375.308946423894
 20
159.198592381978
 11
375.249940268256
 21
159.389341216612
 72
     1
 10
375.249940268256
 20
159.389341216612
 11
375.154214363902
 21
159.564565060746
 72
     1
 10
375.154214363902
 20
159.564565060746
 11
375.025585000557
 21
159.717278292665
 72
     1
 10
375.025585000557
 20
159.717278292665
 11
374.8691802250251
 21
159.841392717726
 72
     1
 10
374.8691802250251
 20
159.841392717726
 11
374.691235402142
 21
159.931960285468
 72
     1
 10
374.691235402142
 20
159.931960285468
 11
374.49884463046
 21
159.985370352769
 72
     1
 10
374.49884463046
 20
159.985370352769
 11
374.328880441579
 21
159.9999201133001
 72
     1
 10
374.328880441579
 20
159.9999201133001
 11
292.078877443979
 21
159.9999201133001
 72
     1
 10
292.078877443979
 20
159.9999201133001
 11
290.078877443979
 21
157.9999201133
 72
     1
 10
290.078877443979
 20
157.9999201133
 11
290.078877443979
 21
156.49999
 72
     1
 10
290.078877443979
 20
156.49999
 11
371.828877443979
 21
156.49999
 72
     1
 10
371.828877443979
 20
156.49999
 11
371.828896443979
 21
142.4
 72
     1
 10
371.828896443979
 20
142.4
 11
373.978877443979
 21
138.6
 72
     1
 10
373.978877443979
 20
138.6
 11
373.978877443979
 21
74.00000200000002
 72
     1
 10
373.978877443979
 20
74.00000200000002
 11
376.828877443979
 21
74.00000200000002
 72
     1
 10
376.828877443979
 20
74.00000200000002
 11
377.478877443979
 21
121.701942
 72
     1
 10
377.478877443979
 20
121.701942
 11
381.178877443979
 21
121.701942
 97
        0
 75
     1
 76
     2
 52
0.0
 41
1.0
 77
     0
 78
     1
 53
44.99999999999998
 43
0.0
 44
0.0
 45
-4.490128060534577
 46
0.0000000000000018
 79
     0
 98
        1
 10
0.0
 20
0.0
  0
HATCH
  5
288
330
44
100
AcDbEntity
  8
0
  6
Continuous
 62
     7
100
AcDbHatch
 10
0.0
 20
0.0
 30
0.0
210
0.0
220
0.0
230
1.0
  2
CUSTOM3
 70
     0
 71
     0
 91
        1
 92
        1
 93
       13
 72
     1
 10
284.078877443979
 20
159.9999201133001
 11
276.078877443979
 21
159.9999201133001
 72
     1
 10
276.078877443979
 20
159.9999201133001
 11
275.6815387824299
 21
159.960053268964
 72
     1
 10
275.6815387824299
 20
159.960053268964
 11
275.3000407594027
 21
159.842042101287
 72
     1
 10
275.3000407594027
 20
159.842042101287
 11
274.9495924972299
 21
159.650591343101
 72
     1
 10
274.9495924972299
 20
159.650591343101
 11
274.6441652622209
 21
159.3933335319761
 72
     1
 10
274.6441652622209
 20
159.3933335319761
 11
274.3959354744042
 21
159.080524725018
 72
     1
 10
274.3959354744042
 20
159.080524725018
 11
274.2147992720855
 21
158.724635622235
 72
     1
 10
274.2147992720855
 20
158.724635622235
 11
274.1079779840431
 21
158.339854399082
 72
     1
 10
274.1079779840431
 20
158.339854399082
 11
274.078877443979
 21
157.9999201133
 72
     1
 10
274.078877443979
 20
157.9999201133
 11
274.078877443979
 21
156.49999
 72
     1
 10
274.078877443979
 20
156.49999
 11
286.078877443979
 21
156.49999
 72
     1
 10
286.078877443979
 20
156.49999
 11
286.078877443979
 21
157.9999201133
 72
     1
 10
286.078877443979
 20
157.9999201133
 11
284.078877443979
 21
159.9999201133001
 97
        0
 75
     1
 76
     2
 52
0.0
 41
1.0
 77
     0
 78
     1
 53
44.99999999999998
 43
0.0
 44
0.0
 45
-4.490128060534577
 46
0.0000000000000018
 79
     0
 98
        1
 10
0.0
 20
0.0
  0
HATCH
  5
289
330
44
100
AcDbEntity
  8
0
  6
Continuous
 62
     7
100
AcDbHatch
 10
0.0
 20
0.0
 30
0.0
210
0.0
220
0.0
230
1.0
  2
CUSTOM4
 70
     0
 71
     0
 91
        1
 92
        1
 93
       22
 72
     1
 10
518.8288774439791
 20
127.2014908716
 11
521.3288774439791
 21
127.2014908716
 72
     1
 10
521.3288774439791
 20
127.2014908716
 11
521.7262161056101
 21
127.161624027309
 72
     1
 10
521.7262161056101
 20
127.161624027309
 11
522.107714128637
 21
127.043612859632
 72
     1
 10
522.107714128637
 20
127.043612859632
 11
522.45816239081
 21
126.852162101446
 72
     1
 10
522.45816239081
 20
126.852162101446
 11
522.763589625819
 21
126.594904290321
 72
     1
 10
522.763589625819
 20
126.594904290321
 11
523.011819413636
 21
126.282095483363
 72
     1
 10
523.011819413636
 20
126.282095483363
 11
523.192955615954
 21
125.92620638058
 72
     1
 10
523.192955615954
 20
125.92620638058
 11
523.299776903997
 21
125.541425157427
 72
     1
 10
523.299776903997
 20
125.541425157427
 11
523.3288774439791
 21
125.2014908716
 72
     1
 10
523.3288774439791
 20
125.2014908716
 11
530.174177443979
 21
125.2014908716
 72
     1
 10
530.174177443979
 20
125.2014908716
 11
531.3288774439791
 21
127.2014908716
 72
     1
 10
531.3288774439791
 20
127.2014908716
 11
531.3288774439791
 21
129.7014908716
 72
     1
 10
531.3288774439791
 20
129.7014908716
 11
520.8288774439791
 21
129.7014908716
 72
     1
 10
520.8288774439791
 20
129.7014908716
 11
520.43153878243
 21
129.661624027309
 72
     1
 10
520.43153878243
 20
129.661624027309
 11
520.050040759403
 21
129.543612859632
 72
     1
 10
520.050040759403
 20
129.543612859632
 11
519.69959249723
 21
129.352162101446
 72
     1
 10
519.69959249723
 20
129.352162101446
 11
519.394165262221
 21
129.094904290321
 72
     1
 10
519.394165262221
 20
129.094904290321
 11
519.145935474404
 21
128.782095483363
 72
     1
 10
519.145935474404
 20
128.782095483363
 11
518.964799272086
 21
128.42620638058
 72
     1
 10
518.964799272086
 20
128.42620638058
 11
518.857977984043
 21
128.041425157427
 72
     1
 10
518.857977984043
 20
128.041425157427
 11
518.8288774439791
 21
127.7014908716
 72
     1
 10
518.8288774439791
 20
127.7014908716
 11
518.8288774439791
 21
127.2014908716
 97
        0
 75
     1
 76
     2
 52
0.0
 41
1.0
 77
     0
 78
     1
 53
44.99999999999998
 43
0.0
 44
0.0
 45
-4.490128060534577
 46
0.0000000000000018
 79
     0
 98
        1
 10
0.0
 20
0.0
  0
HATCH
  5
28A
330
44
100
AcDbEntity
  8
0
  6
Continuous
 62
     7
100
AcDbHatch
 10
0.0
 20
0.0
 30
0.0
210
0.0
220
0.0
230
1.0
  2
CUSTOM5
 70
     0
 71
     0
 91
        1
 92
        1
 93
       22
 72
     1
 10
386.828877443979
 20
127.2014908716
 11
389.328877443979
 21
127.2014908716
 72
     1
 10
389.328877443979
 20
127.2014908716
 11
389.328877443979
 21
127.7014908716
 72
     1
 10
389.328877443979
 20
127.7014908716
 11
389.289010599702
 21
128.098829533217
 72
     1
 10
389.289010599702
 20
128.098829533217
 11
389.170999432026
 21
128.480327556244
 72
     1
 10
389.170999432026
 20
128.480327556244
 11
388.979548673839
 21
128.830775818417
 72
     1
 10
388.979548673839
 20
128.830775818417
 11
388.722290862714
 21
129.136203053426
 72
     1
 10
388.722290862714
 20
129.136203053426
 11
388.409482055756
 21
129.384432841242
 72
     1
 10
388.409482055756
 20
129.384432841242
 11
388.053592952973
 21
129.565569043561
 72
     1
 10
388.053592952973
 20
129.565569043561
 11
387.6688117298201
 21
129.672390331604
 72
     1
 10
387.6688117298201
 20
129.672390331604
 11
387.328877443979
 21
129.7014908716
 72
     1
 10
387.328877443979
 20
129.7014908716
 11
376.828877443979
 21
129.7014908716
 72
     1
 10
376.828877443979
 20
129.7014908716
 11
376.828877443979
 21
127.2014908716
 72
     1
 10
376.828877443979
 20
127.2014908716
 11
377.983577443979
 21
125.2014908716
 72
     1
 10
377.983577443979
 20
125.2014908716
 11
384.828877443979
 21
125.2014908716
 72
     1
 10
384.828877443979
 20
125.2014908716
 11
384.868744288338
 21
125.598829533217
 72
     1
 10
384.868744288338
 20
125.598829533217
 11
384.986755456014
 21
125.980327556244
 72
     1
 10
384.986755456014
 20
125.980327556244
 11
385.178206214201
 21
126.330775818417
 72
     1
 10
385.178206214201
 20
126.330775818417
 11
385.435464025326
 21
126.636203053426
 72
     1
 10
385.435464025326
 20
126.636203053426
 11
385.748272832284
 21
126.884432841242
 72
     1
 10
385.748272832284
 20
126.884432841242
 11
386.104161935067
 21
127.065569043561
 72
     1
 10
386.104161935067
 20
127.065569043561
 11
386.48894315822
 21
127.172390331604
 72
     1
 10
386.48894315822
 20
127.172390331604
 11
386.828877443979
 21
127.2014908716
 97
        0
 75
     1
 76
     2
 52
0.0
 41
1.0
 77
     0
 78
     1
 53
44.99999999999998
 43
0.0
 44
0.0
 45
-4.490128060534577
 46
0.0000000000000018
 79
     0
 98
        1
 10
0.0
 20
0.0
  0
HATCH
  5
28B
330
44
100
AcDbEntity
  8
0
  6
Continuous
 62
     7
100
AcDbHatch
 10
0.0
 20
0.0
 30
0.0
210
0.0
220
0.0
230
1.0
  2
CUSTOM6
 70
     0
 71
     0
 91
        1
 92
        1
 93
       29
 72
     1
 10
492.078877443979
 20
66.50000200000002
 11
492.078877443979
 21
64.00000200000002
 72
     1
 10
492.078877443979
 20
64.00000200000002
 11
510.828877443979
 21
64.00000200000002
 72
     1
 10
510.828877443979
 20
64.00000200000002
 11
510.828877443979
 21
61.50000200000002
 72
     1
 10
510.828877443979
 20
61.50000200000002
 11
524.8288774439791
 21
61.50000200000002
 72
     1
 10
524.8288774439791
 20
61.50000200000002
 11
524.8288774439791
 21
64.00000200000002
 72
     1
 10
524.8288774439791
 20
64.00000200000002
 11
526.0788774439791
 21
64.00000200000002
 72
     1
 10
526.0788774439791
 20
64.00000200000002
 11
527.668232090381
 21
64.15946937723899
 72
     1
 10
527.668232090381
 20
64.15946937723899
 11
529.194224182489
 21
64.63151404794601
 72
     1
 10
529.194224182489
 20
64.63151404794601
 11
530.59601723118
 21
65.39731708069101
 72
     1
 10
530.59601723118
 20
65.39731708069101
 11
531.817726171216
 21
66.42634832519198
 72
     1
 10
531.817726171216
 20
66.42634832519198
 11
532.810645322483
 21
67.677583553024
 72
     1
 10
532.810645322483
 20
67.677583553024
 11
533.535190131758
 21
69.10113996415598
 72
     1
 10
533.535190131758
 20
69.10113996415598
 11
533.962475283928
 21
70.640264856767
 72
     1
 10
533.962475283928
 20
70.640264856767
 11
534.0788774439791
 21
72.00000200000002
 72
     1
 10
534.0788774439791
 20
72.00000200000002
 11
534.0788774439791
 21
74.00000200000002
 72
     1
 10
534.0788774439791
 20
74.00000200000002
 11
531.0788774439791
 21
74.00000200000002
 72
     1
 10
531.0788774439791
 20
74.00000200000002
 11
531.0788774439791
 21
78.00000200000002
 72
     1
 10
531.0788774439791
 20
78.00000200000002
 11
530.350936975479
 21
80.00000200000002
 72
     1
 10
530.350936975479
 20
80.00000200000002
 11
529.0788774439791
 21
80.00000200000002
 72
     1
 10
529.0788774439791
 20
80.00000200000002
 11
529.0788774439791
 21
69.00000200000002
 72
     1
 10
529.0788774439791
 20
69.00000200000002
 11
529.0290438886229
 21
68.50332867298098
 72
     1
 10
529.0290438886229
 20
68.50332867298098
 11
528.881529929027
 21
68.026456144197
 72
     1
 10
528.881529929027
 20
68.026456144197
 11
528.642216481294
 21
67.58839581648098
 72
     1
 10
528.642216481294
 20
67.58839581648098
 11
528.320644217388
 21
67.20661177271998
 72
     1
 10
528.320644217388
 20
67.20661177271998
 11
527.92963320869
 21
66.89632453794903
 72
     1
 10
527.92963320869
 20
66.89632453794903
 11
527.484771830212
 21
66.66990428505099
 72
     1
 10
527.484771830212
 20
66.66990428505099
 11
527.003795301271
 21
66.53637767499802
 72
     1
 10
527.003795301271
 20
66.53637767499802
 11
526.5788774439791
 21
66.50000200000002
 72
     1
 10
526.5788774439791
 20
66.50000200000002
 11
492.078877443979
 21
66.50000200000002
 97
        0
 75
     1
 76
     2
 52
0.0
 41
1.0
 77
     0
 78
     1
 53
44.99999999999998
 43
0.0
 44
0.0
 45
-4.490128060534577
 46
0.0000000000000018
 79
     0
 98
        1
 10
0.0
 20
0.0
  0
HATCH
  5
28C
330
44
100
AcDbEntity
  8
0
  6
Continuous
 62
     7
100
AcDbHatch
 10
0.0
 20
0.0
 30
0.0
210
0.0
220
0.0
230
1.0
  2
CUSTOM7
 70
     0
 71
     0
 91
        1
 92
        1
 93
       29
 72
     1
 10
397.328877443979
 20
61.50000200000002
 11
397.328877443979
 21
64.00000200000002
 72
     1
 10
397.328877443979
 20
64.00000200000002
 11
416.078877443979
 21
64.00000200000002
 72
     1
 10
416.078877443979
 20
64.00000200000002
 11
416.078877443979
 21
66.50000200000002
 72
     1
 10
416.078877443979
 20
66.50000200000002
 11
381.578877443979
 21
66.50000200000002
 72
     1
 10
381.578877443979
 20
66.50000200000002
 11
381.082204117032
 21
66.549835555366
 72
     1
 10
381.082204117032
 20
66.549835555366
 11
380.605331588248
 21
66.69734951496199
 72
     1
 10
380.605331588248
 20
66.69734951496199
 11
380.167271260532
 21
66.93666296269501
 72
     1
 10
380.167271260532
 20
66.93666296269501
 11
379.785487216771
 21
67.25823522660099
 72
     1
 10
379.785487216771
 20
67.25823522660099
 11
379.4751999820001
 21
67.64924623529802
 72
     1
 10
379.4751999820001
 20
67.64924623529802
 11
379.248779729102
 21
68.09410761377703
 72
     1
 10
379.248779729102
 20
68.09410761377703
 11
379.115253119049
 21
68.575084142718
 72
     1
 10
379.115253119049
 20
68.575084142718
 11
379.078877443979
 21
69.00000200000002
 72
     1
 10
379.078877443979
 20
69.00000200000002
 11
379.078877443979
 21
80.00000200000002
 72
     1
 10
379.078877443979
 20
80.00000200000002
 11
377.8068179125791
 21
80.00000200000002
 72
     1
 10
377.8068179125791
 20
80.00000200000002
 11
377.078877443979
 21
78.00000200000002
 72
     1
 10
377.078877443979
 20
78.00000200000002
 11
377.078877443979
 21
74.00000200000002
 72
     1
 10
377.078877443979
 20
74.00000200000002
 11
374.078877443979
 21
74.00000200000002
 72
     1
 10
374.078877443979
 20
74.00000200000002
 11
374.078877443979
 21
72.00000200000002
 72
     1
 10
374.078877443979
 20
72.00000200000002
 11
374.23834482129
 21
70.41064735360803
 72
     1
 10
374.23834482129
 20
70.41064735360803
 11
374.710389491997
 21
68.8846552615
 72
     1
 10
374.710389491997
 20
68.8846552615
 11
375.476192524743
 21
67.48286221280901
 72
     1
 10
375.476192524743
 20
67.48286221280901
 11
376.505223769243
 21
66.26115327277299
 72
     1
 10
376.505223769243
 20
66.26115327277299
 11
377.756458997075
 21
65.26823412150603
 72
     1
 10
377.756458997075
 20
65.26823412150603
 11
379.180015408207
 21
64.54368931223101
 72
     1
 10
379.180015408207
 20
64.54368931223101
 11
380.719140300818
 21
64.11640416006102
 72
     1
 10
380.719140300818
 20
64.11640416006102
 11
382.078877443979
 21
64.00000200000002
 72
     1
 10
382.078877443979
 20
64.00000200000002
 11
383.328877443979
 21
64.00000200000002
 72
     1
 10
383.328877443979
 20
64.00000200000002
 11
383.328877443979
 21
61.50000200000002
 72
     1
 10
383.328877443979
 20
61.50000200000002
 11
397.328877443979
 21
61.50000200000002
 97
        0
 75
     1
 76
     2
 52
0.0
 41
1.0
 77
     0
 78
     1
 53
44.99999999999998
 43
0.0
 44
0.0
 45
-4.490128060534577
 46
0.0000000000000018
 79
     0
 98
        1
 10
0.0
 20
0.0
  0
HATCH
  5
28D
330
44
100
AcDbEntity
  8
0
  6
Continuous
 62
     7
100
AcDbHatch
 10
0.0
 20
0.0
 30
0.0
210
0.0
220
0.0
230
1.0
  2
CUSTOM8
 70
     0
 71
     0
 91
        1
 92
        1
 93
      118
 72
     1
 10
510.278877443979
 20
199.2878330131
 11
510.278877443979
 21
194.5999856133
 72
     1
 10
510.278877443979
 20
194.5999856133
 11
511.985114004679
 21
194.5999856133
 72
     1
 10
511.985114004679
 20
194.5999856133
 11
524.578505672257
 21
159.99991915925
 72
     1
 10
524.578505672257
 20
159.99991915925
 11
524.5788774439791
 21
159.9999201133001
 72
     1
 10
524.5788774439791
 20
159.9999201133001
 11
524.5788774439791
 21
152.2999201133
 72
     1
 10
524.5788774439791
 20
152.2999201133
 11
525.0788774439791
 21
152.2999201133
 72
     1
 10
525.0788774439791
 20
152.2999201133
 11
525.0788774439791
 21
130.9999201133
 72
     1
 10
525.0788774439791
 20
130.9999201133
 11
528.478877443979
 21
130.9999201133
 72
     1
 10
528.478877443979
 20
130.9999201133
 11
528.677546774815
 21
131.01985353544
 72
     1
 10
528.677546774815
 20
131.01985353544
 11
528.868295786329
 21
131.078859119279
 72
     1
 10
528.868295786329
 20
131.078859119279
 11
529.043519917415
 21
131.174584498372
 72
     1
 10
529.043519917415
 20
131.174584498372
 11
529.19623353492
 21
131.303213403934
 72
     1
 10
529.19623353492
 20
131.303213403934
 11
529.3203484288281
 21
131.459617807413
 72
     1
 10
529.3203484288281
 20
131.459617807413
 11
529.4109165299869
 21
131.637562358805
 72
     1
 10
529.4109165299869
 20
131.637562358805
 11
529.4643271740081
 21
131.829952970381
 72
     1
 10
529.4643271740081
 20
131.829952970381
 11
529.478877443979
 21
131.9999201133
 72
     1
 10
529.478877443979
 20
131.9999201133
 11
529.458944021861
 21
132.198589444077
 72
     1
 10
529.458944021861
 20
132.198589444077
 11
529.399938438023
 21
132.38933845559
 72
     1
 10
529.399938438023
 20
132.38933845559
 11
529.30421305893
 21
132.564562586677
 72
     1
 10
529.30421305893
 20
132.564562586677
 11
529.175584153367
 21
132.717276204181
 72
     1
 10
529.175584153367
 20
132.717276204181
 11
529.019179749888
 21
132.841391098089
 72
     1
 10
529.019179749888
 20
132.841391098089
 11
528.8412351984971
 21
132.931959199249
 72
     1
 10
528.8412351984971
 20
132.931959199249
 11
528.64884458692
 21
132.98536984327
 72
     1
 10
528.64884458692
 20
132.98536984327
 11
528.478877443979
 21
132.9999201133
 72
     1
 10
528.478877443979
 20
132.9999201133
 11
527.978877443979
 21
132.9999201133
 72
     1
 10
527.978877443979
 20
132.9999201133
 11
527.978877443979
 21
159.9999201133001
 72
     1
 10
527.978877443979
 20
159.9999201133001
 11
536.471775261879
 21
159.9999201133001
 72
     1
 10
536.471775261879
 20
159.9999201133001
 11
539.664342261879
 21
161.8242441133
 72
     1
 10
539.664342261879
 20
161.8242441133
 11
516.622848679544
 21
225.1302282083
 72
     1
 10
516.622848679544
 20
225.1302282083
 11
515.322645649465
 21
227.828285296661
 72
     1
 10
515.322645649465
 20
227.828285296661
 11
513.5123389191281
 21
230.214250408211
 72
     1
 10
513.5123389191281
 20
230.214250408211
 11
511.264099705071
 21
232.193002643287
 72
     1
 10
511.264099705071
 20
232.193002643287
 11
508.66755821003
 21
233.6856553945891
 72
     1
 10
508.66755821003
 20
233.6856553945891
 11
505.826230349551
 21
234.632701307262
 72
     1
 10
505.826230349551
 20
234.632701307262
 11
502.853390899104
 21
234.996384649343
 72
     1
 10
502.853390899104
 20
234.996384649343
 11
502.527459347779
 21
234.9999261133
 72
     1
 10
502.527459347779
 20
234.9999261133
 11
483.507959486279
 21
234.9999261133
 72
     1
 10
483.507959486279
 20
234.9999261133
 11
483.507959486279
 21
235.0999261132999
 72
     1
 10
483.507959486279
 20
235.0999261132999
 11
481.184892967479
 21
235.0999261132999
 72
     1
 10
481.184892967479
 20
235.0999261132999
 11
481.184892967479
 21
234.9999261133
 72
     1
 10
481.184892967479
 20
234.9999261133
 11
480.706652035479
 21
234.9999261133
 72
     1
 10
480.706652035479
 20
234.9999261133
 11
480.706652035479
 21
235.0999261132999
 72
     1
 10
480.706652035479
 20
235.0999261132999
 11
478.793683035479
 21
235.0999261132999
 72
     1
 10
478.793683035479
 20
235.0999261132999
 11
478.793683035479
 21
234.9999261133
 72
     1
 10
478.793683035479
 20
234.9999261133
 11
478.445869229179
 21
234.9999261133
 72
     1
 10
478.445869229179
 20
234.9999261133
 11
478.445869229179
 21
235.0999261132999
 72
     1
 10
478.445869229179
 20
235.0999261132999
 11
477.663291535479
 21
235.0999261132999
 72
     1
 10
477.663291535479
 20
235.0999261132999
 11
477.663291535479
 21
234.9999261133
 72
     1
 10
477.663291535479
 20
234.9999261133
 11
477.098096035479
 21
234.9999261133
 72
     1
 10
477.098096035479
 20
234.9999261133
 11
477.098096035479
 21
235.0999261132999
 72
     1
 10
477.098096035479
 20
235.0999261132999
 11
476.272041337979
 21
235.0999261132999
 72
     1
 10
476.272041337979
 20
235.0999261132999
 11
476.272041337948
 21
234.999926113282
 72
     1
 10
476.272041337948
 20
234.999926113282
 11
475.706846035479
 21
234.9999261133
 72
     1
 10
475.706846035479
 20
234.9999261133
 11
475.706846035479
 21
235.0999261132999
 72
     1
 10
475.706846035479
 20
235.0999261132999
 11
474.924268035479
 21
235.0999261132999
 72
     1
 10
474.924268035479
 20
235.0999261132999
 11
474.924268035479
 21
234.9999261133
 72
     1
 10
474.924268035479
 20
234.9999261133
 11
473.8373540354791
 21
234.9999261133
 72
     1
 10
473.8373540354791
 20
234.9999261133
 11
473.8373540354791
 21
235.0999261132999
 72
     1
 10
473.8373540354791
 20
235.0999261132999
 11
473.054775035479
 21
235.0999261132999
 72
     1
 10
473.054775035479
 20
235.0999261132999
 11
473.054775035479
 21
234.9999261133
 72
     1
 10
473.054775035479
 20
234.9999261133
 11
471.967861035479
 21
234.9999261133
 72
     1
 10
471.967861035479
 20
234.9999261133
 11
471.967861035479
 21
235.0999261132999
 72
     1
 10
471.967861035479
 20
235.0999261132999
 11
471.185283035479
 21
235.0999261132999
 72
     1
 10
471.185283035479
 20
235.0999261132999
 11
471.185283035479
 21
234.9999261133
 72
     1
 10
471.185283035479
 20
234.9999261133
 11
470.7505165354791
 21
234.9999261133
 72
     1
 10
470.7505165354791
 20
234.9999261133
 11
470.7505165354791
 21
235.0999261132999
 72
     1
 10
470.7505165354791
 20
235.0999261132999
 11
468.4027830354791
 21
235.0999261132999
 72
     1
 10
468.4027830354791
 20
235.0999261132999
 11
468.4027830354791
 21
234.9999261133
 72
     1
 10
468.4027830354791
 20
234.9999261133
 11
468.023920035479
 21
234.9999261133
 72
     1
 10
468.023920035479
 20
234.9999261133
 11
468.023920035479
 21
235.0999261132999
 72
     1
 10
468.023920035479
 20
235.0999261132999
 11
467.284818535479
 21
235.0999261132999
 72
     1
 10
467.284818535479
 20
235.0999261132999
 11
467.284818535479
 21
234.9999261133
 72
     1
 10
467.284818535479
 20
234.9999261133
 11
466.707196035479
 21
234.9999261133
 72
     1
 10
466.707196035479
 20
234.9999261133
 11
466.707196035479
 21
235.0999261132999
 72
     1
 10
466.707196035479
 20
235.0999261132999
 11
465.881142035479
 21
235.0999261132999
 72
     1
 10
465.881142035479
 20
235.0999261132999
 11
465.881142035479
 21
234.9999261133
 72
     1
 10
465.881142035479
 20
234.9999261133
 11
405.630295540279
 21
234.9999261133
 72
     1
 10
405.630295540279
 20
234.9999261133
 11
402.65025557838
 21
234.7009247809
 72
     1
 10
402.65025557838
 20
234.7009247809
 11
399.789020405676
 21
233.815841023325
 72
     1
 10
399.789020405676
 20
233.815841023325
 11
397.16065843938
 21
232.379960336927
 72
     1
 10
397.16065843938
 20
232.379960336927
 11
394.8699541768131
 21
230.450526753489
 72
     1
 10
394.8699541768131
 20
230.450526753489
 11
393.008230768187
 21
228.104460701304
 72
     1
 10
393.008230768187
 20
228.104460701304
 11
391.649709250797
 21
225.435292430432
 72
     1
 10
391.649709250797
 20
225.435292430432
 11
391.534906208579
 21
225.1302282083
 72
     1
 10
391.534906208579
 20
225.1302282083
 11
368.493412626179
 21
161.8242441133
 72
     1
 10
368.493412626179
 20
161.8242441133
 11
371.685979626179
 21
159.9999201133001
 72
     1
 10
371.685979626179
 20
159.9999201133001
 11
380.178877443979
 21
159.9999201133001
 72
     1
 10
380.178877443979
 20
159.9999201133001
 11
380.178877443979
 21
132.9999201133
 72
     1
 10
380.178877443979
 20
132.9999201133
 11
379.678877443979
 21
132.9999201133
 72
     1
 10
379.678877443979
 20
132.9999201133
 11
379.480208113225
 21
132.979986691123
 72
     1
 10
379.480208113225
 20
132.979986691123
 11
379.289459101711
 21
132.920981107284
 72
     1
 10
379.289459101711
 20
132.920981107284
 11
379.114234970625
 21
132.825255728191
 72
     1
 10
379.114234970625
 20
132.825255728191
 11
378.96152135312
 21
132.696626822629
 72
     1
 10
378.96152135312
 20
132.696626822629
 11
378.8374064592121
 21
132.54022241915
 72
     1
 10
378.8374064592121
 20
132.54022241915
 11
378.746838358053
 21
132.362277867758
 72
     1
 10
378.746838358053
 20
132.362277867758
 11
378.693427714032
 21
132.169887256182
 72
     1
 10
378.693427714032
 20
132.169887256182
 11
378.678877443979
 21
131.9999201133
 72
     1
 10
378.678877443979
 20
131.9999201133
 11
378.698810866179
 21
131.801250782486
 72
     1
 10
378.698810866179
 20
131.801250782486
 11
378.757816450017
 21
131.610501770973
 72
     1
 10
378.757816450017
 20
131.610501770973
 11
378.85354182911
 21
131.435277639886
 72
     1
 10
378.85354182911
 20
131.435277639886
 11
378.982170734673
 21
131.282564022382
 72
     1
 10
378.982170734673
 20
131.282564022382
 11
379.138575138152
 21
131.158449128474
 72
     1
 10
379.138575138152
 20
131.158449128474
 11
379.316519689543
 21
131.067881027314
 72
     1
 10
379.316519689543
 20
131.067881027314
 11
379.50891030112
 21
131.014470383293
 72
     1
 10
379.50891030112
 20
131.014470383293
 11
379.678877443979
 21
130.9999201133
 72
     1
 10
379.678877443979
 20
130.9999201133
 11
383.078877443979
 21
130.9999201133
 72
     1
 10
383.078877443979
 20
130.9999201133
 11
383.078877443979
 21
152.2999201133
 72
     1
 10
383.078877443979
 20
152.2999201133
 11
383.578877443979
 21
152.2999201133
 72
     1
 10
383.578877443979
 20
152.2999201133
 11
383.578877443979
 21
159.9999201133001
 72
     1
 10
383.578877443979
 20
159.9999201133001
 11
383.579249215783
 21
159.99991915925
 72
     1
 10
383.579249215783
 20
159.99991915925
 11
396.172640883379
 21
194.5999856133
 72
     1
 10
396.172640883379
 20
194.5999856133
 11
397.878877443979
 21
194.5999856133
 72
     1
 10
397.878877443979
 20
194.5999856133
 11
397.878877443979
 21
199.2878330131
 72
     1
 10
397.878877443979
 20
199.2878330131
 11
405.630295540279
 21
220.584683641
 72
     1
 10
405.630295540279
 20
220.584683641
 11
405.630295540279
 21
220.1999261133
 72
     1
 10
405.630295540279
 20
220.1999261133
 11
502.527459347779
 21
220.1999261133
 72
     1
 10
502.527459347779
 20
220.1999261133
 11
502.527459347779
 21
220.584683641
 72
     1
 10
502.527459347779
 20
220.584683641
 11
510.278877443979
 21
199.2878330131
 97
        0
 75
     1
 76
     2
 52
0.0
 41
1.0
 77
     0
 78
     1
 53
44.99999999999998
 43
0.0
 44
0.0
 45
-4.490128060534577
 46
0.0000000000000018
 79
     0
 98
        1
 10
0.0
 20
0.0
  0
HATCH
  5
28E
330
44
100
AcDbEntity
  8
0
  6
Continuous
 62
     7
100
AcDbHatch
 10
0.0
 20
0.0
 30
0.0
210
0.0
220
0.0
230
1.0
  2
CUSTOM9
 70
     0
 71
     0
 91
        1
 92
        1
 93
       36
 72
     1
 10
529.0788774439791
 20
84.49999999999997
 11
529.0788774439791
 21
92.49999999999997
 72
     1
 10
529.0788774439791
 20
92.49999999999997
 11
529.039010599702
 21
92.89733866155902
 72
     1
 10
529.039010599702
 20
92.89733866155902
 11
528.9209994320261
 21
93.27883668458603
 72
     1
 10
528.9209994320261
 20
93.27883668458603
 11
528.729548673839
 21
93.62928494675899
 72
     1
 10
528.729548673839
 20
93.62928494675899
 11
528.4722908627141
 21
93.93471218176799
 72
     1
 10
528.4722908627141
 20
93.93471218176799
 11
528.159482055756
 21
94.18294196958502
 72
     1
 10
528.159482055756
 20
94.18294196958502
 11
527.8035929529731
 21
94.364078171903
 72
     1
 10
527.8035929529731
 20
94.364078171903
 11
527.4188117298199
 21
94.47089945994603
 72
     1
 10
527.4188117298199
 20
94.47089945994603
 11
527.0788774439791
 21
94.49999999999997
 72
     1
 10
527.0788774439791
 20
94.49999999999997
 11
523.0788774439791
 21
94.49999999999997
 72
     1
 10
523.0788774439791
 20
94.49999999999997
 11
522.68153878243
 21
94.460133155651
 72
     1
 10
522.68153878243
 20
94.460133155651
 11
522.300040759403
 21
94.34212198797499
 72
     1
 10
522.300040759403
 20
94.34212198797499
 11
521.94959249723
 21
94.150671229788
 72
     1
 10
521.94959249723
 20
94.150671229788
 11
521.644165262221
 21
93.89341341866302
 72
     1
 10
521.644165262221
 20
93.89341341866302
 11
521.395935474404
 21
93.58060461170501
 72
     1
 10
521.395935474404
 20
93.58060461170501
 11
521.214799272085
 21
93.224715508922
 72
     1
 10
521.214799272085
 20
93.224715508922
 11
521.107977984043
 21
92.83993428576898
 72
     1
 10
521.107977984043
 20
92.83993428576898
 11
521.0788774439791
 21
92.49999999999997
 72
     1
 10
521.0788774439791
 20
92.49999999999997
 11
521.0788774439791
 21
84.49999999999997
 72
     1
 10
521.0788774439791
 20
84.49999999999997
 11
521.118744288337
 21
84.10266133837902
 72
     1
 10
521.118744288337
 20
84.10266133837902
 11
521.236755456014
 21
83.72116331535202
 72
     1
 10
521.236755456014
 20
83.72116331535202
 11
521.428206214201
 21
83.370715053179
 72
     1
 10
521.428206214201
 20
83.370715053179
 11
521.6854640253259
 21
83.06528781816999
 72
     1
 10
521.6854640253259
 20
83.06528781816999
 11
521.998272832284
 21
82.81705803035302
 72
     1
 10
521.998272832284
 20
82.81705803035302
 11
522.3541619350669
 21
82.63592182803401
 72
     1
 10
522.3541619350669
 20
82.63592182803401
 11
522.738943158219
 21
82.52910053999202
 72
     1
 10
522.738943158219
 20
82.52910053999202
 11
523.0788774439791
 21
82.49999999999997
 72
     1
 10
523.0788774439791
 20
82.49999999999997
 11
527.0788774439791
 21
82.49999999999997
 72
     1
 10
527.0788774439791
 20
82.49999999999997
 11
527.4762161056101
 21
82.53986684428602
 72
     1
 10
527.4762161056101
 20
82.53986684428602
 11
527.857714128637
 21
82.65787801196299
 72
     1
 10
527.857714128637
 20
82.65787801196299
 11
528.20816239081
 21
82.84932877014901
 72
     1
 10
528.20816239081
 20
82.84932877014901
 11
528.513589625819
 21
83.10658658127502
 72
     1
 10
528.513589625819
 20
83.10658658127502
 11
528.761819413636
 21
83.41939538823303
 72
     1
 10
528.761819413636
 20
83.41939538823303
 11
528.942955615954
 21
83.77528449101598
 72
     1
 10
528.942955615954
 20
83.77528449101598
 11
529.049776903997
 21
84.16006571416798
 72
     1
 10
529.049776903997
 20
84.16006571416798
 11
529.0788774439791
 21
84.49999999999997
 97
        0
 75
     1
 76
     2
 52
0.0
 41
1.0
 77
     0
 78
     1
 53
44.99999999999998
 43
0.0
 44
0.0
 45
-4.490128060534577
 46
0.0000000000000018
 79
     0
 98
        1
 10
0.0
 20
0.0
  0
HATCH
  5
28F
330
44
100
AcDbEntity
  8
0
  6
Continuous
 62
     7
100
AcDbHatch
 10
0.0
 20
0.0
 30
0.0
210
0.0
220
0.0
230
1.0
  2
CUSTOM10
 70
     0
 71
     0
 91
        1
 92
        1
 93
       76
 72
     1
 10
386.078877443979
 20
82.49999999999997
 11
385.078877443979
 21
82.49999999999997
 72
     1
 10
385.078877443979
 20
82.49999999999997
 11
385.47621610561
 21
82.53986684428602
 72
     1
 10
385.47621610561
 20
82.53986684428602
 11
385.857714128637
 21
82.65787801196299
 72
     1
 10
385.857714128637
 20
82.65787801196299
 11
386.20816239081
 21
82.84932877014901
 72
     1
 10
386.20816239081
 20
82.84932877014901
 11
386.513589625819
 21
83.10658658127502
 72
     1
 10
386.513589625819
 20
83.10658658127502
 11
386.761819413636
 21
83.41939538823303
 72
     1
 10
386.761819413636
 20
83.41939538823303
 11
386.942955615954
 21
83.77528449101598
 72
     1
 10
386.942955615954
 20
83.77528449101598
 11
387.049776903997
 21
84.16006571416798
 72
     1
 10
387.049776903997
 20
84.16006571416798
 11
387.078877443979
 21
84.49999999999997
 72
     1
 10
387.078877443979
 20
84.49999999999997
 11
387.078877443979
 21
92.49999999999997
 72
     1
 10
387.078877443979
 20
92.49999999999997
 11
387.039010599702
 21
92.89733866155902
 72
     1
 10
387.039010599702
 20
92.89733866155902
 11
386.920999432026
 21
93.27883668458603
 72
     1
 10
386.920999432026
 20
93.27883668458603
 11
386.729548673839
 21
93.62928494675899
 72
     1
 10
386.729548673839
 20
93.62928494675899
 11
386.472290862714
 21
93.93471218176799
 72
     1
 10
386.472290862714
 20
93.93471218176799
 11
386.159482055756
 21
94.18294196958502
 72
     1
 10
386.159482055756
 20
94.18294196958502
 11
385.803592952973
 21
94.364078171903
 72
     1
 10
385.803592952973
 20
94.364078171903
 11
385.4188117298201
 21
94.47089945994603
 72
     1
 10
385.4188117298201
 20
94.47089945994603
 11
385.078877443979
 21
94.49999999999997
 72
     1
 10
385.078877443979
 20
94.49999999999997
 11
381.078877443979
 21
94.49999999999997
 72
     1
 10
381.078877443979
 20
94.49999999999997
 11
380.68153878243
 21
94.460133155651
 72
     1
 10
380.68153878243
 20
94.460133155651
 11
380.300040759403
 21
94.34212198797499
 72
     1
 10
380.300040759403
 20
94.34212198797499
 11
379.94959249723
 21
94.150671229788
 72
     1
 10
379.94959249723
 20
94.150671229788
 11
379.644165262221
 21
93.89341341866302
 72
     1
 10
379.644165262221
 20
93.89341341866302
 11
379.395935474404
 21
93.58060461170501
 72
     1
 10
379.395935474404
 20
93.58060461170501
 11
379.214799272086
 21
93.224715508922
 72
     1
 10
379.214799272086
 20
93.224715508922
 11
379.107977984043
 21
92.83993428576898
 72
     1
 10
379.107977984043
 20
92.83993428576898
 11
379.078877443979
 21
92.49999999999997
 72
     1
 10
379.078877443979
 20
92.49999999999997
 11
379.078877443979
 21
84.49999999999997
 72
     1
 10
379.078877443979
 20
84.49999999999997
 11
379.118744288338
 21
84.10266133837902
 72
     1
 10
379.118744288338
 20
84.10266133837902
 11
379.236755456014
 21
83.72116331535202
 72
     1
 10
379.236755456014
 20
83.72116331535202
 11
379.428206214201
 21
83.370715053179
 72
     1
 10
379.428206214201
 20
83.370715053179
 11
379.685464025326
 21
83.06528781816999
 72
     1
 10
379.685464025326
 20
83.06528781816999
 11
379.998272832284
 21
82.81705803035302
 72
     1
 10
379.998272832284
 20
82.81705803035302
 11
380.354161935067
 21
82.63592182803401
 72
     1
 10
380.354161935067
 20
82.63592182803401
 11
380.73894315822
 21
82.52910053999202
 72
     1
 10
380.73894315822
 20
82.52910053999202
 11
381.078877443979
 21
82.49999999999997
 72
     1
 10
381.078877443979
 20
82.49999999999997
 11
380.078877443979
 21
82.49999999999997
 72
     1
 10
380.078877443979
 20
82.49999999999997
 11
380.078877443979
 21
73.49999999999997
 72
     1
 10
380.078877443979
 20
73.49999999999997
 11
380.218411399131
 21
72.10931468440302
 72
     1
 10
380.218411399131
 20
72.10931468440302
 11
380.631450486
 21
70.77407160380798
 72
     1
 10
380.631450486
 20
70.77407160380798
 11
381.301528139652
 21
69.54750268620401
 72
     1
 10
381.301528139652
 20
69.54750268620401
 11
382.20193047859
 21
68.47850736367198
 72
     1
 10
382.20193047859
 20
68.47850736367198
 11
383.296761302943
 21
67.60970310631299
 72
     1
 10
383.296761302943
 20
67.60970310631299
 11
384.542373162683
 21
66.97572639819802
 72
     1
 10
384.542373162683
 20
66.97572639819802
 11
385.889107443718
 21
66.60185189004997
 72
     1
 10
385.889107443718
 20
66.60185189004997
 11
387.078877443979
 21
66.49999999999997
 72
     1
 10
387.078877443979
 20
66.49999999999997
 11
402.078877443979
 21
66.49999999999997
 72
     1
 10
402.078877443979
 20
66.49999999999997
 11
402.2775467748151
 21
66.48006657780999
 72
     1
 10
402.2775467748151
 20
66.48006657780999
 11
402.468295786329
 21
66.42106099397202
 72
     1
 10
402.468295786329
 20
66.42106099397202
 11
402.643519917415
 21
66.32533561487801
 72
     1
 10
402.643519917415
 20
66.32533561487801
 11
402.79623353492
 21
66.19670670931598
 72
     1
 10
402.79623353492
 20
66.19670670931598
 11
402.920348428828
 21
66.040302305837
 72
     1
 10
402.920348428828
 20
66.040302305837
 11
403.010916529987
 21
65.86235775444501
 72
     1
 10
403.010916529987
 20
65.86235775444501
 11
403.064327174008
 21
65.66996714286901
 72
     1
 10
403.064327174008
 20
65.66996714286901
 11
403.078877443979
 21
65.49999999999997
 72
     1
 10
403.078877443979
 20
65.49999999999997
 11
403.078877443979
 21
-107.736731833
 72
     1
 10
403.078877443979
 20
-107.736731833
 11
409.078877443979
 21
-107.736731833
 72
     1
 10
409.078877443979
 20
-107.736731833
 11
409.078877443979
 21
65.49999999999997
 72
     1
 10
409.078877443979
 20
65.49999999999997
 11
408.939343488909
 21
66.890685315534
 72
     1
 10
408.939343488909
 20
66.890685315534
 11
408.52630440204
 21
68.22592839612898
 72
     1
 10
408.52630440204
 20
68.22592839612898
 11
407.856226748388
 21
69.45249731373397
 72
     1
 10
407.856226748388
 20
69.45249731373397
 11
406.95582440945
 21
70.52149263626498
 72
     1
 10
406.95582440945
 20
70.52149263626498
 11
405.8609935850971
 21
71.39029689362403
 72
     1
 10
405.8609935850971
 20
71.39029689362403
 11
404.615381725357
 21
72.024273601739
 72
     1
 10
404.615381725357
 20
72.024273601739
 11
403.268647444322
 21
72.39814810988801
 72
     1
 10
403.268647444322
 20
72.39814810988801
 11
402.078877443979
 21
72.49999999999997
 72
     1
 10
402.078877443979
 20
72.49999999999997
 11
387.078877443979
 21
72.49999999999997
 72
     1
 10
387.078877443979
 20
72.49999999999997
 11
386.880208113225
 21
72.51993342212702
 72
     1
 10
386.880208113225
 20
72.51993342212702
 11
386.689459101711
 21
72.57893900596602
 72
     1
 10
386.689459101711
 20
72.57893900596602
 11
386.514234970625
 21
72.674664385059
 72
     1
 10
386.514234970625
 20
72.674664385059
 11
386.36152135312
 21
72.80329329062201
 72
     1
 10
386.36152135312
 20
72.80329329062201
 11
386.237406459212
 21
72.95969769410098
 72
     1
 10
386.237406459212
 20
72.95969769410098
 11
386.146838358053
 21
73.137642245492
 72
     1
 10
386.146838358053
 20
73.137642245492
 11
386.093427714032
 21
73.33003285706897
 72
     1
 10
386.093427714032
 20
73.33003285706897
 11
386.078877443979
 21
73.49999999999997
 72
     1
 10
386.078877443979
 20
73.49999999999997
 11
386.078877443979
 21
82.49999999999997
 97
        0
 75
     1
 76
     2
 52
0.0
 41
1.0
 77
     0
 78
     1
 53
44.99999999999998
 43
0.0
 44
0.0
 45
-4.490128060534577
 46
0.0000000000000018
 79
     0
 98
        1
 10
0.0
 20
0.0
  0
HATCH
  5
290
330
44
100
AcDbEntity
  8
0
  6
Continuous
 62
     7
100
AcDbHatch
 10
0.0
 20
0.0
 30
0.0
210
0.0
220
0.0
230
1.0
  2
CUSTOM11
 70
     0
 71
     0
 91
        1
 92
        1
 93
        6
 72
     1
 10
412.428877443979
 20
69.00000200000002
 11
409.628877443979
 21
69.00000200000002
 72
     1
 10
409.628877443979
 20
69.00000200000002
 11
409.628877443979
 21
44.00000200000002
 72
     1
 10
409.628877443979
 20
44.00000200000002
 11
410.328877443979
 21
44.00000200000002
 72
     1
 10
410.328877443979
 20
44.00000200000002
 11
410.328877443979
 21
66.50000200000002
 72
     1
 10
410.328877443979
 20
66.50000200000002
 11
412.428877443979
 21
66.50000200000002
 72
     1
 10
412.428877443979
 20
66.50000200000002
 11
412.428877443979
 21
69.00000200000002
 97
        0
 75
     1
 76
     2
 52
0.0
 41
1.0
 77
     0
 78
     1
 53
44.99999999999998
 43
0.0
 44
0.0
 45
-4.490128060534577
 46
0.0000000000000018
 79
     0
 98
        1
 10
0.0
 20
0.0
  0
HATCH
  5
291
330
44
100
AcDbEntity
  8
0
  6
Continuous
 62
     7
100
AcDbHatch
 10
0.0
 20
0.0
 30
0.0
210
0.0
220
0.0
230
1.0
  2
CUSTOM12
 70
     0
 71
     0
 91
        1
 92
        1
 93
        6
 72
     1
 10
401.828877443979
 20
44.00000200000002
 11
402.528877443979
 21
44.00000200000002
 72
     1
 10
402.528877443979
 20
44.00000200000002
 11
402.528877443979
 21
69.00000200000002
 72
     1
 10
402.528877443979
 20
69.00000200000002
 11
399.728877443979
 21
69.00000200000002
 72
     1
 10
399.728877443979
 20
69.00000200000002
 11
399.728877443979
 21
66.50000200000002
 72
     1
 10
399.728877443979
 20
66.50000200000002
 11
401.828877443979
 21
66.50000200000002
 72
     1
 10
401.828877443979
 20
66.50000200000002
 11
401.828877443979
 21
44.00000200000002
 97
        0
 75
     1
 76
     2
 52
0.0
 41
1.0
 77
     0
 78
     1
 53
44.99999999999998
 43
0.0
 44
0.0
 45
-4.490128060534577
 46
0.0000000000000018
 79
     0
 98
        1
 10
0.0
 20
0.0
  0
ENDBLK
  5
46
330
44
100
AcDbEntity
  8
0
100
AcDbBlockEnd
  0
BLOCK
  5
6B
330
47
100
AcDbEntity
  8
0
100
AcDbBlockBegin
  2
HL_62_1P_7_DN75_Dachablauf
 70
     0
 10
429.3365247833651
 20
87.12130330560248
 30
0.0
  3
HL_62_1P_7_DN75_Dachablauf
  1

  0
INSERT
  5
6A
330
47
100
AcDbEntity
  8
0
100
AcDbBlockReference
  2
HL62_1P_7
 10
429.3365247833651
 20
87.12130330560248
 30
0.0
  0
ENDBLK
  5
6C
330
47
100
AcDbEntity
  8
0
100
AcDbBlockEnd
  0
BLOCK
  5
255
330
24D
100
AcDbEntity
  8
0
100
AcDbBlockBegin
  2
*D3
 70
     1
 10
0.0
 20
0.0
 30
0.0
  3
*D3
  1

  0
LINE
  5
24E
330
24D
100
AcDbEntity
  8
1
  6
Continuous
 62
     4
100
AcDbLine
 10
274.078877443979
 20
270.054338444205
 30
0.0
 11
634.0788774439791
 21
270.054338444205
 31
0.0
  0
LINE
  5
24F
330
24D
100
AcDbEntity
  8
1
  6
Continuous
 62
     4
100
AcDbLine
 10
274.078877443979
 20
157.9999201133
 30
0.0
 11
274.078877443979
 21
272.054338444205
 31
0.0
  0
LINE
  5
250
330
24D
100
AcDbEntity
  8
1
  6
Continuous
 62
     4
100
AcDbLine
 10
634.0788774439791
 20
157.9999201133
 30
0.0
 11
634.0788774439791
 21
272.054338444205
 31
0.0
  0
SOLID
  5
251
330
24D
100
AcDbEntity
  8
1
 62
     4
100
AcDbTrace
 10
284.078877443979
 20
271.3708634200789
 30
0.0
 11
284.078877443979
 21
268.737813468331
 31
0.0
 12
274.078877443979
 22
270.054338444205
 32
0.0
 13
274.078877443979
 23
270.054338444205
 33
0.0
  0
SOLID
  5
252
330
24D
100
AcDbEntity
  8
1
 62
     4
100
AcDbTrace
 10
624.0788774439791
 20
268.737813468331
 30
0.0
 11
624.0788774439791
 21
271.3708634200789
 31
0.0
 12
634.0788774439791
 22
270.054338444205
 32
0.0
 13
634.0788774439791
 23
270.054338444205
 33
0.0
  0
MTEXT
  5
254
330
24D
100
AcDbEntity
  8
1
 62
     1
100
AcDbMText
 10
433.3338932801772
 20
272.0542986894831
 30
0.0
 40
10.0
 41
0.0
 71
     7
 72
     1
  1
\C1;%%c\C1;360
  7
CONVERTER_11
 11
0.9999999999970619
 21
2.424068405545306E-6
 31
0.0
 73
     1
 44
0.60024009603842
  0
ENDBLK
  5
256
330
24D
100
AcDbEntity
  8
0
100
AcDbBlockEnd
  0
BLOCK
  5
260
330
259
100
AcDbEntity
  8
0
100
AcDbBlockBegin
  2
*D4
 70
     1
 10
0.0
 20
0.0
 30
0.0
  3
*D4
  1

  0
LINE
  5
25A
330
259
100
AcDbEntity
  8
1
  6
Continuous
 62
     4
100
AcDbLine
 10
416.578877443979
 20
-25.6905031570849
 30
0.0
 11
491.578877443979
 21
-25.6905031570849
 31
0.0
  0
LINE
  5
25B
330
259
100
AcDbEntity
  8
1
  6
Continuous
 62
     4
100
AcDbLine
 10
416.578877443979
 20
5.0
 30
0.0
 11
416.578877443979
 21
-27.6905031570849
 31
0.0
  0
LINE
  5
25C
330
259
100
AcDbEntity
  8
1
  6
Continuous
 62
     4
100
AcDbLine
 10
491.578877443979
 20
5.0
 30
0.0
 11
491.578877443979
 21
-27.6905031570849
 31
0.0
  0
SOLID
  5
25D
330
259
100
AcDbEntity
  8
1
 62
     4
100
AcDbTrace
 10
426.578877443979
 20
-24.37397818121094
 30
0.0
 11
426.578877443979
 21
-27.00702813295886
 31
0.0
 12
416.578877443979
 22
-25.6905031570849
 32
0.0
 13
416.578877443979
 23
-25.6905031570849
 33
0.0
  0
SOLID
  5
25E
330
259
100
AcDbEntity
  8
1
 62
     4
100
AcDbTrace
 10
481.578877443979
 20
-27.00702813295886
 30
0.0
 11
481.578877443979
 21
-24.37397818121094
 31
0.0
 12
491.578877443979
 22
-25.6905031570849
 32
0.0
 13
491.578877443979
 23
-25.6905031570849
 33
0.0
  0
MTEXT
  5
25F
330
259
100
AcDbEntity
  8
1
 62
     1
100
AcDbMText
 10
440.4226619951432
 20
-23.69054291180675
 30
0.0
 40
10.0
 41
0.0
 71
     7
 72
     1
  1
\C1;DN\C1;75
  7
CONVERTER_11
 11
0.9999999999970619
 21
2.424068405545306E-6
 31
0.0
 73
     1
 44
0.60024009603842
  0
ENDBLK
  5
261
330
259
100
AcDbEntity
  8
0
100
AcDbBlockEnd
  0
BLOCK
  5
26B
330
264
100
AcDbEntity
  8
0
100
AcDbBlockBegin
  2
*D5
 70
     1
 10
0.0
 20
0.0
 30
0.0
  3
*D5
  1

  0
LINE
  5
265
330
264
100
AcDbEntity
  8
1
  6
Continuous
 62
     4
100
AcDbLine
 10
373.978877443979
 20
-49.044432313547
 30
0.0
 11
534.178877443979
 21
-49.044432313547
 31
0.0
  0
LINE
  5
266
330
264
100
AcDbEntity
  8
1
  6
Continuous
 62
     4
100
AcDbLine
 10
373.978877443979
 20
74.000002
 30
0.0
 11
373.978877443979
 21
-51.044432313547
 31
0.0
  0
LINE
  5
267
330
264
100
AcDbEntity
  8
1
  6
Continuous
 62
     4
100
AcDbLine
 10
534.178877443979
 20
74.000002
 30
0.0
 11
534.178877443979
 21
-51.044432313547
 31
0.0
  0
SOLID
  5
268
330
264
100
AcDbEntity
  8
1
 62
     4
100
AcDbTrace
 10
383.978877443979
 20
-47.72790733767304
 30
0.0
 11
383.978877443979
 21
-50.36095728942096
 31
0.0
 12
373.978877443979
 22
-49.044432313547
 32
0.0
 13
373.978877443979
 23
-49.044432313547
 33
0.0
  0
SOLID
  5
269
330
264
100
AcDbEntity
  8
1
 62
     4
100
AcDbTrace
 10
524.178877443979
 20
-50.36095728942095
 30
0.0
 11
524.178877443979
 21
-47.72790733767304
 31
0.0
 12
534.178877443979
 22
-49.044432313547
 32
0.0
 13
534.178877443979
 23
-49.044432313547
 33
0.0
  0
MTEXT
  5
26A
330
264
100
AcDbEntity
  8
1
 62
     1
100
AcDbMText
 10
432.4226619951432
 20
-47.04447206826885
 30
0.0
 40
10.0
 41
0.0
 71
     7
 72
     1
  1
\C1;%%c\C1;160
  7
CONVERTER_11
 11
0.9999999999970619
 21
2.424068405545306E-6
 31
0.0
 73
     1
 44
0.60024009603842
  0
ENDBLK
  5
26C
330
264
100
AcDbEntity
  8
0
100
AcDbBlockEnd
  0
BLOCK
  5
276
330
26F
100
AcDbEntity
  8
0
100
AcDbBlockBegin
  2
*D6
 70
     1
 10
0.0
 20
0.0
 30
0.0
  3
*D6
  1

  0
LINE
  5
270
330
26F
100
AcDbEntity
  8
1
  6
Continuous
 62
     4
100
AcDbLine
 10
259.180539881977
 20
159.9999201133
 30
0.0
 11
259.180539881977
 21
64.00000200000002
 31
0.0
  0
LINE
  5
271
330
26F
100
AcDbEntity
  8
1
  6
Continuous
 62
     4
100
AcDbLine
 10
276.0788774439791
 20
159.9999201133
 30
0.0
 11
257.180539881977
 21
159.9999201133
 31
0.0
  0
LINE
  5
272
330
26F
100
AcDbEntity
  8
1
  6
Continuous
 62
     4
100
AcDbLine
 10
382.078877443979
 20
64.00000200000002
 30
0.0
 11
257.180539881977
 21
64.00000200000002
 31
0.0
  0
SOLID
  5
273
330
26F
100
AcDbEntity
  8
1
 62
     4
100
AcDbTrace
 10
260.4970648578509
 20
149.9999201133
 30
0.0
 11
257.864014906103
 21
149.9999201133
 31
0.0
 12
259.180539881977
 22
159.9999201133
 32
0.0
 13
259.180539881977
 23
159.9999201133
 33
0.0
  0
SOLID
  5
274
330
26F
100
AcDbEntity
  8
1
 62
     4
100
AcDbTrace
 10
257.864014906103
 20
74.00000200000002
 30
0.0
 11
260.4970648578509
 21
74.00000200000002
 31
0.0
 12
259.180539881977
 22
64.00000200000002
 32
0.0
 13
259.180539881977
 23
64.00000200000002
 33
0.0
  0
MTEXT
  5
275
330
26F
100
AcDbEntity
  8
1
 62
     1
100
AcDbMText
 10
257.180539881977
 20
104.406094192411
 30
0.0
 40
10.0
 41
0.0
 71
     7
 72
     1
  1
96
  7
CONVERTER_11
 11
0.0
 21
1.0
 31
0.0
 73
     1
 44
0.60024009603842
  0
ENDBLK
  5
277
330
26F
100
AcDbEntity
  8
0
100
AcDbBlockEnd
  0
BLOCK
  5
281
330
27A
100
AcDbEntity
  8
0
100
AcDbBlockBegin
  2
*D7
 70
     1
 10
0.0
 20
0.0
 30
0.0
  3
*D7
  1

  0
LINE
  5
27B
330
27A
100
AcDbEntity
  8
1
  6
Continuous
 62
     4
100
AcDbLine
 10
236.519172122751
 20
159.9999201133
 30
0.0
 11
236.519172122751
 21
0.0
 31
0.0
  0
LINE
  5
27C
330
27A
100
AcDbEntity
  8
1
  6
Continuous
 62
     4
100
AcDbLine
 10
276.078877443979
 20
159.9999201133
 30
0.0
 11
234.519172122751
 21
159.9999201133
 31
0.0
  0
LINE
  5
27D
330
27A
100
AcDbEntity
  8
1
  6
Continuous
 62
     4
100
AcDbLine
 10
420.078877443979
 20
0.0
 30
0.0
 11
234.519172122751
 21
0.0
 31
0.0
  0
SOLID
  5
27E
330
27A
100
AcDbEntity
  8
1
 62
     4
100
AcDbTrace
 10
237.835697098625
 20
149.9999201133
 30
0.0
 11
235.202647146877
 21
149.9999201133
 31
0.0
 12
236.519172122751
 22
159.9999201133
 32
0.0
 13
236.519172122751
 23
159.9999201133
 33
0.0
  0
SOLID
  5
27F
330
27A
100
AcDbEntity
  8
1
 62
     4
100
AcDbTrace
 10
235.202647146877
 20
10.0
 30
0.0
 11
237.835697098625
 21
10.0
 31
0.0
 12
236.519172122751
 22
0.0
 32
0.0
 13
236.519172122751
 23
0.0
 33
0.0
  0
MTEXT
  5
280
330
27A
100
AcDbEntity
  8
1
 62
     1
100
AcDbMText
 10
234.519172122751
 20
69.5385457810004
 30
0.0
 40
10.0
 41
0.0
 71
     7
 72
     1
  1
160
  7
CONVERTER_11
 11
0.0
 21
1.0
 31
0.0
 73
     1
 44
0.60024009603842
  0
ENDBLK
  5
282
330
27A
100
AcDbEntity
  8
0
100
AcDbBlockEnd
  0
ENDSEC
  0
SECTION
  2
ENTITIES
  0
INSERT
  5
6D
330
1F
100
AcDbEntity
  8
0
100
AcDbBlockReference
  2
HL_62_1P_7_DN75_Dachablauf
 10
429.3365247833651
 20
87.12130330560248
 30
0.0
  0
ENDSEC
  0
SECTION
  2
OBJECTS
  0
DICTIONARY
  5
C
330
0
100
AcDbDictionary
281
     1
  3
ACAD_GROUP
350
D
  3
ACAD_LAYOUT
350
1A
  3
ACAD_MLEADERSTYLE
350
294
  3
ACAD_MLINESTYLE
350
17
  3
ACAD_PLOTSETTINGS
350
19
  3
ACAD_PLOTSTYLENAME
350
E
  3
ACAD_SCALELIST
350
48
  3
ACAD_VISUALSTYLE
350
2A
  3
AcDbVariableDictionary
350
292
  0
DICTIONARY
  5
D
102
{ACAD_REACTORS
330
C
102
}
330
C
100
AcDbDictionary
281
     1
  0
DICTIONARY
  5
1A
102
{ACAD_REACTORS
330
C
102
}
330
C
100
AcDbDictionary
281
     1
  3
Layout1
350
1E
  3
Layout2
350
26
  3
Model
350
22
  0
DICTIONARY
  5
294
102
{ACAD_REACTORS
330
C
102
}
330
C
100
AcDbDictionary
281
     1
  0
DICTIONARY
  5
17
102
{ACAD_REACTORS
330
C
102
}
330
C
100
AcDbDictionary
281
     1
  3
Standard
350
18
  0
DICTIONARY
  5
19
102
{ACAD_REACTORS
330
C
102
}
330
C
100
AcDbDictionary
281
     1
  0
ACDBDICTIONARYWDFLT
  5
E
102
{ACAD_REACTORS
330
C
102
}
330
C
100
AcDbDictionary
281
     1
  3
Normal
350
F
100
AcDbDictionaryWithDefault
340
F
  0
DICTIONARY
  5
48
102
{ACAD_REACTORS
330
C
102
}
330
C
100
AcDbDictionary
281
     1
  3
A0
350
49
  3
A1
350
4A
  3
A2
350
4B
  3
A3
350
4C
  3
A4
350
4D
  3
A5
350
4E
  3
A6
350
4F
  3
A7
350
50
  3
A8
350
51
  3
A9
350
52
  3
B0
350
53
  3
B1
350
54
  3
B2
350
55
  3
B3
350
56
  3
B4
350
57
  3
B5
350
58
  3
B6
350
59
  3
B7
350
5A
  3
B8
350
5B
  3
B9
350
5C
  3
C0
350
5D
  3
C1
350
5E
  3
C2
350
5F
  3
C3
350
60
  3
C4
350
61
  3
C5
350
62
  3
C6
350
63
  3
C7
350
64
  3
C8
350
65
  3
C9
350
66
  3
D0
350
67
  3
D1
350
68
  3
D2
350
69
  0
DICTIONARY
  5
2A
102
{ACAD_REACTORS
330
C
102
}
330
C
100
AcDbDictionary
281
     1
  3
2dWireframe
350
2F
  3
3D Hidden
350
31
  3
3dWireframe
350
30
  3
Basic
350
32
  3
Brighten
350
36
  3
ColorChange
350
3A
  3
Conceptual
350
34
  3
Dim
350
35
  3
Facepattern
350
39
  3
Flat
350
2B
  3
FlatWithEdges
350
2C
  3
Gouraud
350
2D
  3
GouraudWithEdges
350
2E
  3
Linepattern
350
38
  3
Realistic
350
33
  3
Thicken
350
37
  0
DICTIONARY
  5
292
102
{ACAD_REACTORS
330
C
102
}
330
C
100
AcDbDictionary
281
     1
  3
CANNOSCALE
350
295
  0
LAYOUT
  5
1E
102
{ACAD_REACTORS
330
1A
102
}
330
1A
100
AcDbPlotSettings
  1

  2
none_device
  4

  6

 40
0.0
 41
0.0
 42
0.0
 43
0.0
 44
0.0
 45
0.0
 46
0.0
 47
0.0
 48
0.0
 49
0.0
140
0.0
141
0.0
142
1.0
143
1.0
 70
   688
 72
     0
 73
     0
 74
     5
  7

 75
    16
147
1.0
148
0.0
149
0.0
100
AcDbLayout
  1
Layout1
 70
     1
 71
     1
 10
0.0
 20
0.0
 11
12.0
 21
9.0
 12
0.0
 22
0.0
 32
0.0
 14
1.00000000000000E+20
 24
1.00000000000000E+20
 34
1.00000000000000E+20
 15
-1.00000000000000E+20
 25
-1.00000000000000E+20
 35
-1.00000000000000E+20
146
0.0
 13
0.0
 23
0.0
 33
0.0
 16
1.0
 26
0.0
 36
0.0
 17
0.0
 27
1.0
 37
0.0
 76
     0
330
1B
  0
LAYOUT
  5
26
102
{ACAD_REACTORS
330
1A
102
}
330
1A
100
AcDbPlotSettings
  1

  2
none_device
  4

  6

 40
0.0
 41
0.0
 42
0.0
 43
0.0
 44
0.0
 45
0.0
 46
0.0
 47
0.0
 48
0.0
 49
0.0
140
0.0
141
0.0
142
1.0
143
1.0
 70
   688
 72
     0
 73
     0
 74
     5
  7

 75
    16
147
1.0
148
0.0
149
0.0
100
AcDbLayout
  1
Layout2
 70
     1
 71
     2
 10
0.0
 20
0.0
 11
0.0
 21
0.0
 12
0.0
 22
0.0
 32
0.0
 14
0.0
 24
0.0
 34
0.0
 15
0.0
 25
0.0
 35
0.0
146
0.0
 13
0.0
 23
0.0
 33
0.0
 16
1.0
 26
0.0
 36
0.0
 17
0.0
 27
1.0
 37
0.0
 76
     0
330
23
  0
LAYOUT
  5
22
102
{ACAD_REACTORS
330
1A
102
}
330
1A
100
AcDbPlotSettings
  1

  2
none_device
  4

  6

 40
0.0
 41
0.0
 42
0.0
 43
0.0
 44
0.0
 45
0.0
 46
0.0
 47
0.0
 48
0.0
 49
0.0
140
0.0
141
0.0
142
1.0
143
1.0
 70
  1712
 72
     0
 73
     0
 74
     0
  7

 75
     0
147
1.0
148
0.0
149
0.0
100
AcDbLayout
  1
Model
 70
     1
 71
     0
 10
0.0
 20
0.0
 11
12.0
 21
9.0
 12
0.0
 22
0.0
 32
0.0
 14
224.519172122751
 24
-107.811731833
 34
0.0
 15
634.1538774439791
 25
282.054338444205
 35
0.0
146
0.0
 13
0.0
 23
0.0
 33
0.0
 16
1.0
 26
0.0
 36
0.0
 17
0.0
 27
1.0
 37
0.0
 76
     0
330
1F
331
29
  0
MLINESTYLE
  5
18
102
{ACAD_REACTORS
330
17
102
}
330
17
100
AcDbMlineStyle
  2
Standard
 70
     0
  3

 62
   256
 51
90.0
 52
90.0
 71
     2
 49
0.5
 62
   256
  6
BYLAYER
 49
-0.5
 62
   256
  6
BYLAYER
  0
ACDBPLACEHOLDER
  5
F
102
{ACAD_REACTORS
330
E
102
}
330
E
  0
SCALE
  5
49
102
{ACAD_REACTORS
330
48
102
}
330
48
100
AcDbScale
 70
     0
300
1:1
140
1.0
141
1.0
290
     1
  0
SCALE
  5
4A
102
{ACAD_REACTORS
330
48
102
}
330
48
100
AcDbScale
 70
     0
300
1:2
140
1.0
141
2.0
290
     0
  0
SCALE
  5
4B
102
{ACAD_REACTORS
330
48
102
}
330
48
100
AcDbScale
 70
     0
300
1:4
140
1.0
141
4.0
290
     0
  0
SCALE
  5
4C
102
{ACAD_REACTORS
330
48
102
}
330
48
100
AcDbScale
 70
     0
300
1:5
140
1.0
141
5.0
290
     0
  0
SCALE
  5
4D
102
{ACAD_REACTORS
330
48
102
}
330
48
100
AcDbScale
 70
     0
300
1:8
140
1.0
141
8.0
290
     0
  0
SCALE
  5
4E
102
{ACAD_REACTORS
330
48
102
}
330
48
100
AcDbScale
 70
     0
300
1:10
140
1.0
141
10.0
290
     0
  0
SCALE
  5
4F
102
{ACAD_REACTORS
330
48
102
}
330
48
100
AcDbScale
 70
     0
300
1:16
140
1.0
141
16.0
290
     0
  0
SCALE
  5
50
102
{ACAD_REACTORS
330
48
102
}
330
48
100
AcDbScale
 70
     0
300
1:20
140
1.0
141
20.0
290
     0
  0
SCALE
  5
51
102
{ACAD_REACTORS
330
48
102
}
330
48
100
AcDbScale
 70
     0
300
1:30
140
1.0
141
30.0
290
     0
  0
SCALE
  5
52
102
{ACAD_REACTORS
330
48
102
}
330
48
100
AcDbScale
 70
     0
300
1:40
140
1.0
141
40.0
290
     0
  0
SCALE
  5
53
102
{ACAD_REACTORS
330
48
102
}
330
48
100
AcDbScale
 70
     0
300
1:50
140
1.0
141
50.0
290
     0
  0
SCALE
  5
54
102
{ACAD_REACTORS
330
48
102
}
330
48
100
AcDbScale
 70
     0
300
1:100
140
1.0
141
100.0
290
     0
  0
SCALE
  5
55
102
{ACAD_REACTORS
330
48
102
}
330
48
100
AcDbScale
 70
     0
300
2:1
140
2.0
141
1.0
290
     0
  0
SCALE
  5
56
102
{ACAD_REACTORS
330
48
102
}
330
48
100
AcDbScale
 70
     0
300
4:1
140
4.0
141
1.0
290
     0
  0
SCALE
  5
57
102
{ACAD_REACTORS
330
48
102
}
330
48
100
AcDbScale
 70
     0
300
8:1
140
8.0
141
1.0
290
     0
  0
SCALE
  5
58
102
{ACAD_REACTORS
330
48
102
}
330
48
100
AcDbScale
 70
     0
300
10:1
140
10.0
141
1.0
290
     0
  0
SCALE
  5
59
102
{ACAD_REACTORS
330
48
102
}
330
48
100
AcDbScale
 70
     0
300
100:1
140
100.0
141
1.0
290
     0
  0
SCALE
  5
5A
102
{ACAD_REACTORS
330
48
102
}
330
48
100
AcDbScale
 70
     0
300
1/128" = 1'-0"
140
0.0078125
141
12.0
290
     0
  0
SCALE
  5
5B
102
{ACAD_REACTORS
330
48
102
}
330
48
100
AcDbScale
 70
     0
300
1/64" = 1'-0"
140
0.015625
141
12.0
290
     0
  0
SCALE
  5
5C
102
{ACAD_REACTORS
330
48
102
}
330
48
100
AcDbScale
 70
     0
300
1/32" = 1'-0"
140
0.03125
141
12.0
290
     0
  0
SCALE
  5
5D
102
{ACAD_REACTORS
330
48
102
}
330
48
100
AcDbScale
 70
     0
300
1/16" = 1'-0"
140
0.0625
141
12.0
290
     0
  0
SCALE
  5
5E
102
{ACAD_REACTORS
330
48
102
}
330
48
100
AcDbScale
 70
     0
300
3/32" = 1'-0"
140
0.09375
141
12.0
290
     0
  0
SCALE
  5
5F
102
{ACAD_REACTORS
330
48
102
}
330
48
100
AcDbScale
 70
     0
300
1/8" = 1'-0"
140
0.125
141
12.0
290
     0
  0
SCALE
  5
60
102
{ACAD_REACTORS
330
48
102
}
330
48
100
AcDbScale
 70
     0
300
3/16" = 1'-0"
140
0.1875
141
12.0
290
     0
  0
SCALE
  5
61
102
{ACAD_REACTORS
330
48
102
}
330
48
100
AcDbScale
 70
     0
300
1/4" = 1'-0"
140
0.25
141
12.0
290
     0
  0
SCALE
  5
62
102
{ACAD_REACTORS
330
48
102
}
330
48
100
AcDbScale
 70
     0
300
3/8" = 1'-0"
140
0.375
141
12.0
290
     0
  0
SCALE
  5
63
102
{ACAD_REACTORS
330
48
102
}
330
48
100
AcDbScale
 70
     0
300
1/2" = 1'-0"
140
0.5
141
12.0
290
     0
  0
SCALE
  5
64
102
{ACAD_REACTORS
330
48
102
}
330
48
100
AcDbScale
 70
     0
300
3/4" = 1'-0"
140
0.75
141
12.0
290
     0
  0
SCALE
  5
65
102
{ACAD_REACTORS
330
48
102
}
330
48
100
AcDbScale
 70
     0
300
1" = 1'-0"
140
1.0
141
12.0
290
     0
  0
SCALE
  5
66
102
{ACAD_REACTORS
330
48
102
}
330
48
100
AcDbScale
 70
     0
300
1-1/2" = 1'-0"
140
1.5
141
12.0
290
     0
  0
SCALE
  5
67
102
{ACAD_REACTORS
330
48
102
}
330
48
100
AcDbScale
 70
     0
300
3" = 1'-0"
140
3.0
141
12.0
290
     0
  0
SCALE
  5
68
102
{ACAD_REACTORS
330
48
102
}
330
48
100
AcDbScale
 70
     0
300
6" = 1'-0"
140
6.0
141
12.0
290
     0
  0
SCALE
  5
69
102
{ACAD_REACTORS
330
48
102
}
330
48
100
AcDbScale
 70
     0
300
1'-0" = 1'-0"
140
12.0
141
12.0
290
     0
  0
VISUALSTYLE
  5
2F
102
{ACAD_REACTORS
330
2A
102
}
330
2A
100
AcDbVisualStyle
  2
2dWireframe
 70
     4
 71
     0
 72
     2
 73
     0
 90
        0
 40
-0.6
 41
-30.0
 62
     5
 63
     7
 74
     1
 91
        4
 64
     7
 65
   257
 75
     1
175
     1
 42
1.0
 92
        0
 66
   257
 43
1.0
 76
     1
 77
     6
 78
     2
 67
     7
 79
     5
170
     0
171
     0
290
     0
174
     0
 93
        1
 44
0.0
173
     0
291
     0
 45
0.0
1001
ACAD
1000
AcDbSavedByObjectVersion
1070
     0
  0
VISUALSTYLE
  5
31
102
{ACAD_REACTORS
330
2A
102
}
330
2A
100
AcDbVisualStyle
  2
3D Hidden
 70
     6
 71
     1
 72
     2
 73
     2
 90
        0
 40
-0.6
 41
-30.0
 62
     5
 63
     7
 74
     2
 91
        2
 64
     7
 65
   257
 75
     2
175
     1
 42
40.0
 92
        0
 66
   257
 43
1.0
 76
     1
 77
     6
 78
     2
 67
     7
 79
     3
170
     0
171
     0
290
     0
174
     0
 93
        1
 44
0.0
173
     0
291
     0
 45
0.0
1001
ACAD
1000
AcDbSavedByObjectVersion
1070
     0
  0
VISUALSTYLE
  5
30
102
{ACAD_REACTORS
330
2A
102
}
330
2A
100
AcDbVisualStyle
  2
3dWireframe
 70
     5
 71
     0
 72
     2
 73
     0
 90
        0
 40
-0.6
 41
-30.0
 62
     5
 63
     7
 74
     1
 91
        4
 64
     7
 65
   257
 75
     1
175
     1
 42
1.0
 92
        0
 66
   257
 43
1.0
 76
     1
 77
     6
 78
     2
 67
     7
 79
     5
170
     0
171
     0
290
     0
174
     0
 93
        1
 44
0.0
173
     0
291
     0
 45
0.0
1001
ACAD
1000
AcDbSavedByObjectVersion
1070
     0
  0
VISUALSTYLE
  5
32
102
{ACAD_REACTORS
330
2A
102
}
330
2A
100
AcDbVisualStyle
  2
Basic
 70
     7
 71
     1
 72
     0
 73
     1
 90
        0
 40
-0.6
 41
-30.0
 62
     5
 63
     7
 74
     0
 91
        4
 64
     7
 65
   257
 75
     1
175
     1
 42
1.0
 92
        8
 66
     7
 43
1.0
 76
     1
 77
     6
 78
     2
 67
     7
 79
     5
170
     0
171
     0
290
     0
174
     0
 93
        1
 44
0.0
173
     0
291
     1
 45
0.0
1001
ACAD
1000
AcDbSavedByObjectVersion
1070
     0
  0
VISUALSTYLE
  5
36
102
{ACAD_REACTORS
330
2A
102
}
330
2A
100
AcDbVisualStyle
  2
Brighten
 70
    12
 71
     2
 72
     2
 73
     0
 90
        0
 40
-0.6
 41
-30.0
 62
     5
 63
     7
 74
     1
 91
        4
 64
     7
 65
   257
 75
     1
175
     1
 42
1.0
 92
        8
 66
     7
 43
1.0
 76
     1
 77
     6
 78
     2
 67
     7
 79
     5
170
     0
171
     0
290
     0
174
     0
 93
        1
 44
50.0
173
     0
291
     1
 45
0.0
1001
ACAD
1000
AcDbSavedByObjectVersion
1070
     0
  0
VISUALSTYLE
  5
3A
102
{ACAD_REACTORS
330
2A
102
}
330
2A
100
AcDbVisualStyle
  2
ColorChange
 70
    16
 71
     2
 72
     2
 73
     3
 90
        0
 40
-0.6
 41
-30.0
 62
     5
 63
     8
 74
     1
 91
        4
 64
     7
 65
   257
 75
     1
175
     1
 42
1.0
 92
        8
 66
     8
 43
1.0
 76
     1
 77
     6
 78
     2
 67
     7
 79
     5
170
     0
171
     0
290
     0
174
     0
 93
        1
 44
0.0
173
     0
291
     1
 45
0.0
1001
ACAD
1000
AcDbSavedByObjectVersion
1070
     0
  0
VISUALSTYLE
  5
34
102
{ACAD_REACTORS
330
2A
102
}
330
2A
100
AcDbVisualStyle
  2
Conceptual
 70
     9
 71
     3
 72
     2
 73
     0
 90
        0
 40
-0.6
 41
-30.0
 62
     5
 63
     7
 74
     2
 91
        2
 64
     7
 65
   257
 75
     1
175
     1
 42
40.0
 92
        8
 66
     7
 43
1.0
 76
     1
 77
     6
 78
     2
 67
     7
 79
     3
170
     0
171
     0
290
     0
174
     0
 93
        1
 44
0.0
173
     0
291
     0
 45
0.0
1001
ACAD
1000
AcDbSavedByObjectVersion
1070
     0
  0
VISUALSTYLE
  5
35
102
{ACAD_REACTORS
330
2A
102
}
330
2A
100
AcDbVisualStyle
  2
Dim
 70
    11
 71
     2
 72
     2
 73
     0
 90
        0
 40
-0.6
 41
-30.0
 62
     5
 63
     7
 74
     1
 91
        4
 64
     7
 65
   257
 75
     1
175
     1
 42
1.0
 92
        8
 66
     7
 43
1.0
 76
     1
 77
     6
 78
     2
 67
     7
 79
     5
170
     0
171
     0
290
     0
174
     0
 93
        1
 44
-50.0
173
     0
291
     1
 45
0.0
1001
ACAD
1000
AcDbSavedByObjectVersion
1070
     0
  0
VISUALSTYLE
  5
39
102
{ACAD_REACTORS
330
2A
102
}
330
2A
100
AcDbVisualStyle
  2
Facepattern
 70
    15
 71
     2
 72
     2
 73
     0
 90
        0
 40
-0.6
 41
-30.0
 62
     5
 63
     7
 74
     1
 91
        4
 64
     7
 65
   257
 75
     1
175
     1
 42
1.0
 92
        8
 66
     7
 43
1.0
 76
     1
 77
     6
 78
     2
 67
     7
 79
     5
170
     0
171
     0
290
     0
174
     0
 93
        1
 44
0.0
173
     0
291
     1
 45
0.0
1001
ACAD
1000
AcDbSavedByObjectVersion
1070
     0
  0
VISUALSTYLE
  5
2B
102
{ACAD_REACTORS
330
2A
102
}
330
2A
100
AcDbVisualStyle
  2
Flat
 70
     0
 71
     2
 72
     1
 73
     1
 90
        2
 40
-0.6
 41
30.0
 62
     5
 63
     7
 74
     0
 91
        4
 64
     7
 65
   257
 75
     1
175
     1
 42
1.0
 92
        8
 66
     7
 43
1.0
 76
     1
 77
     6
 78
     2
 67
     7
 79
     5
170
     0
171
     0
290
     0
174
     0
 93
       13
 44
0.0
173
     0
291
     1
 45
0.0
1001
ACAD
1000
AcDbSavedByObjectVersion
1070
     0
  0
VISUALSTYLE
  5
2C
102
{ACAD_REACTORS
330
2A
102
}
330
2A
100
AcDbVisualStyle
  2
FlatWithEdges
 70
     1
 71
     2
 72
     1
 73
     1
 90
        2
 40
-0.6
 41
30.0
 62
     5
 63
     7
 74
     1
 91
        4
 64
     7
 65
   257
 75
     1
175
     1
 42
1.0
 92
        0
 66
   257
 43
1.0
 76
     1
 77
     6
 78
     2
 67
     7
 79
     5
170
     0
171
     0
290
     0
174
     0
 93
       13
 44
0.0
173
     0
291
     1
 45
0.0
1001
ACAD
1000
AcDbSavedByObjectVersion
1070
     0
  0
VISUALSTYLE
  5
2D
102
{ACAD_REACTORS
330
2A
102
}
330
2A
100
AcDbVisualStyle
  2
Gouraud
 70
     2
 71
     2
 72
     2
 73
     1
 90
        2
 40
-0.6
 41
30.0
 62
     5
 63
     7
 74
     0
 91
        4
 64
     7
 65
   257
 75
     1
175
     1
 42
1.0
 92
        0
 66
     7
 43
1.0
 76
     1
 77
     6
 78
     2
 67
     7
 79
     5
170
     0
171
     0
290
     0
174
     0
 93
       13
 44
0.0
173
     0
291
     1
 45
0.0
1001
ACAD
1000
AcDbSavedByObjectVersion
1070
     0
  0
VISUALSTYLE
  5
2E
102
{ACAD_REACTORS
330
2A
102
}
330
2A
100
AcDbVisualStyle
  2
GouraudWithEdges
 70
     3
 71
     2
 72
     2
 73
     1
 90
        2
 40
-0.6
 41
30.0
 62
     5
 63
     7
 74
     1
 91
        4
 64
     7
 65
   257
 75
     1
175
     1
 42
1.0
 92
        0
 66
   257
 43
1.0
 76
     1
 77
     6
 78
     2
 67
     7
 79
     5
170
     0
171
     0
290
     0
174
     0
 93
       13
 44
0.0
173
     0
291
     1
 45
0.0
1001
ACAD
1000
AcDbSavedByObjectVersion
1070
     0
  0
VISUALSTYLE
  5
38
102
{ACAD_REACTORS
330
2A
102
}
330
2A
100
AcDbVisualStyle
  2
Linepattern
 70
    14
 71
     2
 72
     2
 73
     0
 90
        0
 40
-0.6
 41
-30.0
 62
     5
 63
     7
 74
     1
 91
        4
 64
     7
 65
   257
 75
     7
175
     7
 42
1.0
 92
        8
 66
     7
 43
1.0
 76
     1
 77
     6
 78
     2
 67
     7
 79
     5
170
     0
171
     0
290
     0
174
     0
 93
        1
 44
0.0
173
     0
291
     1
 45
0.0
1001
ACAD
1000
AcDbSavedByObjectVersion
1070
     0
  0
VISUALSTYLE
  5
33
102
{ACAD_REACTORS
330
2A
102
}
330
2A
100
AcDbVisualStyle
  2
Realistic
 70
     8
 71
     2
 72
     2
 73
     0
 90
        0
 40
-0.6
 41
-30.0
 62
     5
 63
     7
 74
     1
 91
        0
 64
     7
 65
   257
 75
     1
175
     1
 42
1.0
 92
        8
 66
     8
 43
1.0
 76
     1
 77
     6
 78
     2
 67
     7
 79
     5
170
     0
171
     0
290
     0
174
     0
 93
       13
 44
0.0
173
     0
291
     0
 45
0.0
1001
ACAD
1000
AcDbSavedByObjectVersion
1070
     0
  0
VISUALSTYLE
  5
37
102
{ACAD_REACTORS
330
2A
102
}
330
2A
100
AcDbVisualStyle
  2
Thicken
 70
    13
 71
     2
 72
     2
 73
     0
 90
        0
 40
-0.6
 41
-30.0
 62
     5
 63
     7
 74
     1
 91
        4
 64
     7
 65
   257
 75
     1
175
     1
 42
1.0
 92
       12
 66
     7
 43
1.0
 76
     1
 77
     6
 78
     2
 67
     7
 79
     5
170
     0
171
     0
290
     0
174
     0
 93
        1
 44
0.0
173
     0
291
     1
 45
0.0
1001
ACAD
1000
AcDbSavedByObjectVersion
1070
     0
  0
DICTIONARYVAR
  5
295
102
{ACAD_REACTORS
330
292
102
}
330
292
100
DictionaryVariables
280
     0
  1
1:1
  0
ENDSEC
  0
EOF
