  0
SECTION
  2
HEADER
  9
$ACADVER
  1
AC1015
  9
$ACADMAINTVER
 70
     6
  9
$DWGCODEPAGE
  3
ANSI_1252
  9
$INSBASE
 10
0.0
 20
0.0
 30
0.0
  9
$EXTMIN
 10
228.988190762881
 20
-109.5902985685444
 30
0.0
  9
$EXTMAX
 10
640.954984800358
 20
272.844505854464
 30
0.0
  9
$LIMMIN
 10
0.0
 20
0.0
  9
$LIMMAX
 10
12.0
 20
9.0
  9
$ORTHOMODE
 70
     0
  9
$REGENMODE
 70
     1
  9
$FILLMODE
 70
     1
  9
$QTEXTMODE
 70
     0
  9
$MIRRTEXT
 70
     1
  9
$LTSCALE
 40
1.0
  9
$ATTMODE
 70
     1
  9
$TEXTSIZE
 40
0.2
  9
$TRACEWID
 40
0.05
  9
$TEXTSTYLE
  7
Standard
  9
$CLAYER
  8
0
  9
$CELTYPE
  6
ByLayer
  9
$CECOLOR
 62
   256
  9
$CELTSCALE
 40
1.0
  9
$DISPSILH
 70
     0
  9
$DIMSCALE
 40
1.0
  9
$DIMASZ
 40
0.18
  9
$DIMEXO
 40
0.0625
  9
$DIMDLI
 40
0.38
  9
$DIMRND
 40
0.0
  9
$DIMDLE
 40
0.0
  9
$DIMEXE
 40
0.18
  9
$DIMTP
 40
0.0
  9
$DIMTM
 40
0.0
  9
$DIMTXT
 40
0.18
  9
$DIMCEN
 40
0.09
  9
$DIMTSZ
 40
0.0
  9
$DIMTOL
 70
     0
  9
$DIMLIM
 70
     0
  9
$DIMTIH
 70
     1
  9
$DIMTOH
 70
     1
  9
$DIMSE1
 70
     0
  9
$DIMSE2
 70
     0
  9
$DIMTAD
 70
     0
  9
$DIMZIN
 70
     0
  9
$DIMBLK
  1

  9
$DIMASO
 70
     1
  9
$DIMSHO
 70
     1
  9
$DIMPOST
  1

  9
$DIMAPOST
  1

  9
$DIMALT
 70
     0
  9
$DIMALTD
 70
     2
  9
$DIMALTF
 40
25.4
  9
$DIMLFAC
 40
1.0
  9
$DIMTOFL
 70
     0
  9
$DIMTVP
 40
0.0
  9
$DIMTIX
 70
     0
  9
$DIMSOXD
 70
     0
  9
$DIMSAH
 70
     0
  9
$DIMBLK1
  1

  9
$DIMBLK2
  1

  9
$DIMSTYLE
  2
Standard
  9
$DIMCLRD
 70
     0
  9
$DIMCLRE
 70
     0
  9
$DIMCLRT
 70
     0
  9
$DIMTFAC
 40
1.0
  9
$DIMGAP
 40
0.09
  9
$DIMJUST
 70
     0
  9
$DIMSD1
 70
     0
  9
$DIMSD2
 70
     0
  9
$DIMTOLJ
 70
     1
  9
$DIMTZIN
 70
     0
  9
$DIMALTZ
 70
     0
  9
$DIMALTTZ
 70
     0
  9
$DIMUPT
 70
     0
  9
$DIMDEC
 70
     4
  9
$DIMTDEC
 70
     4
  9
$DIMALTU
 70
     2
  9
$DIMALTTD
 70
     2
  9
$DIMTXSTY
  7
Standard
  9
$DIMAUNIT
 70
     0
  9
$DIMADEC
 70
     0
  9
$DIMALTRND
 40
0.0
  9
$DIMAZIN
 70
     0
  9
$DIMDSEP
 70
    46
  9
$DIMATFIT
 70
     3
  9
$DIMFRAC
 70
     0
  9
$DIMLDRBLK
  1

  9
$DIMLUNIT
 70
     2
  9
$DIMLWD
 70
    -2
  9
$DIMLWE
 70
    -2
  9
$DIMTMOVE
 70
     0
  9
$LUNITS
 70
     2
  9
$LUPREC
 70
     4
  9
$SKETCHINC
 40
0.1
  9
$FILLETRAD
 40
0.5
  9
$AUNITS
 70
     0
  9
$AUPREC
 70
     0
  9
$MENU
  1
.
  9
$ELEVATION
 40
0.0
  9
$PELEVATION
 40
0.0
  9
$THICKNESS
 40
0.0
  9
$LIMCHECK
 70
     0
  9
$CHAMFERA
 40
0.5
  9
$CHAMFERB
 40
0.5
  9
$CHAMFERC
 40
1.0
  9
$CHAMFERD
 40
0.0
  9
$SKPOLY
 70
     0
  9
$TDCREATE
 40
2455386.305298461
  9
$TDUCREATE
 40
2455386.221965127
  9
$TDUPDATE
 40
2455386.305298472
  9
$TDUUPDATE
 40
2455386.221965139
  9
$TDINDWG
 40
0.0000000116
  9
$TDUSRTIMER
 40
0.0000000116
  9
$USRTIMER
 70
     1
  9
$ANGBASE
 50
0.0
  9
$ANGDIR
 70
     0
  9
$PDMODE
 70
     0
  9
$PDSIZE
 40
0.0
  9
$PLINEWID
 40
0.0
  9
$SPLFRAME
 70
     0
  9
$SPLINETYPE
 70
     6
  9
$SPLINESEGS
 70
     8
  9
$HANDSEED
  5
29A
  9
$SURFTAB1
 70
     6
  9
$SURFTAB2
 70
     6
  9
$SURFTYPE
 70
     6
  9
$SURFU
 70
     6
  9
$SURFV
 70
     6
  9
$UCSBASE
  2

  9
$UCSNAME
  2

  9
$UCSORG
 10
0.0
 20
0.0
 30
0.0
  9
$UCSXDIR
 10
1.0
 20
0.0
 30
0.0
  9
$UCSYDIR
 10
0.0
 20
1.0
 30
0.0
  9
$UCSORTHOREF
  2

  9
$UCSORTHOVIEW
 70
     0
  9
$UCSORGTOP
 10
0.0
 20
0.0
 30
0.0
  9
$UCSORGBOTTOM
 10
0.0
 20
0.0
 30
0.0
  9
$UCSORGLEFT
 10
0.0
 20
0.0
 30
0.0
  9
$UCSORGRIGHT
 10
0.0
 20
0.0
 30
0.0
  9
$UCSORGFRONT
 10
0.0
 20
0.0
 30
0.0
  9
$UCSORGBACK
 10
0.0
 20
0.0
 30
0.0
  9
$PUCSBASE
  2

  9
$PUCSNAME
  2

  9
$PUCSORG
 10
0.0
 20
0.0
 30
0.0
  9
$PUCSXDIR
 10
1.0
 20
0.0
 30
0.0
  9
$PUCSYDIR
 10
0.0
 20
1.0
 30
0.0
  9
$PUCSORTHOREF
  2

  9
$PUCSORTHOVIEW
 70
     0
  9
$PUCSORGTOP
 10
0.0
 20
0.0
 30
0.0
  9
$PUCSORGBOTTOM
 10
0.0
 20
0.0
 30
0.0
  9
$PUCSORGLEFT
 10
0.0
 20
0.0
 30
0.0
  9
$PUCSORGRIGHT
 10
0.0
 20
0.0
 30
0.0
  9
$PUCSORGFRONT
 10
0.0
 20
0.0
 30
0.0
  9
$PUCSORGBACK
 10
0.0
 20
0.0
 30
0.0
  9
$USERI1
 70
     0
  9
$USERI2
 70
     0
  9
$USERI3
 70
     0
  9
$USERI4
 70
     0
  9
$USERI5
 70
     0
  9
$USERR1
 40
16.5
  9
$USERR2
 40
0.0
  9
$USERR3
 40
0.0
  9
$USERR4
 40
0.0
  9
$USERR5
 40
0.0
  9
$WORLDVIEW
 70
     1
  9
$SHADEDGE
 70
     3
  9
$SHADEDIF
 70
    70
  9
$TILEMODE
 70
     1
  9
$MAXACTVP
 70
    64
  9
$PINSBASE
 10
0.0
 20
0.0
 30
0.0
  9
$PLIMCHECK
 70
     0
  9
$PEXTMIN
 10
1.00000000000000E+20
 20
1.00000000000000E+20
 30
1.00000000000000E+20
  9
$PEXTMAX
 10
-1.00000000000000E+20
 20
-1.00000000000000E+20
 30
-1.00000000000000E+20
  9
$PLIMMIN
 10
0.0
 20
0.0
  9
$PLIMMAX
 10
12.0
 20
9.0
  9
$UNITMODE
 70
     0
  9
$VISRETAIN
 70
     1
  9
$PLINEGEN
 70
     0
  9
$PSLTSCALE
 70
     1
  9
$TREEDEPTH
 70
  3020
  9
$CMLSTYLE
  2
Standard
  9
$CMLJUST
 70
     0
  9
$CMLSCALE
 40
1.0
  9
$PROXYGRAPHICS
 70
     1
  9
$MEASUREMENT
 70
     1
  9
$CELWEIGHT
370
    -1
  9
$ENDCAPS
280
     0
  9
$JOINSTYLE
280
     0
  9
$LWDISPLAY
290
     0
  9
$INSUNITS
 70
     1
  9
$HYPERLINKBASE
  1

  9
$STYLESHEET
  1

  9
$XEDIT
290
     1
  9
$CEPSNTYPE
380
     0
  9
$PSTYLEMODE
290
     1
  9
$FINGERPRINTGUID
  2
{F9BBE5DD-3B8F-451E-B8D0-E9B08658BFA6}
  9
$VERSIONGUID
  2
{FAEB1C32-E019-11D5-929B-00C0DF256EC4}
  9
$EXTNAMES
290
     1
  9
$PSVPSCALE
 40
0.0
  9
$OLESTARTUP
290
     0
  0
ENDSEC
  0
SECTION
  2
CLASSES
  0
CLASS
  1
ACDBDICTIONARYWDFLT
  2
AcDbDictionaryWithDefault
  3
ObjectDBX Classes
 90
        0
280
     0
281
     0
  0
CLASS
  1
VISUALSTYLE
  2
AcDbVisualStyle
  3
ObjectDBX Classes
 90
     4095
280
     0
281
     0
  0
CLASS
  1
SCALE
  2
AcDbScale
  3
ObjectDBX Classes
 90
     1153
280
     0
281
     0
  0
CLASS
  1

  2
exOdDbPolyline
  3

 90
        0
280
     0
281
     1
  0
CLASS
  1

  2
exOdDbSpline
  3

 90
        0
280
     0
281
     1
  0
CLASS
  1
DICTIONARYVAR
  2
AcDbDictionaryVar
  3
ObjectDBX Classes
 90
        0
280
     0
281
     0
  0
CLASS
  1
ACDBPLACEHOLDER
  2
AcDbPlaceHolder
  3
ObjectDBX Classes
 90
        0
280
     0
281
     0
  0
CLASS
  1
LAYOUT
  2
AcDbLayout
  3
ObjectDBX Classes
 90
        0
280
     0
281
     0
  0
ENDSEC
  0
SECTION
  2
TABLES
  0
TABLE
  2
VPORT
  5
8
330
0
100
AcDbSymbolTable
 70
     1
  0
VPORT
  5
29
330
8
100
AcDbSymbolTableRecord
100
AcDbViewportTableRecord
  2
*Active
 70
     0
 10
0.0
 20
0.0
 11
1.0
 21
1.0
 12
434.9715877816195
 22
81.6271036429598
 13
0.0
 23
0.0
 14
0.5
 24
0.5
 15
0.5
 25
0.5
 16
0.0
 26
0.0
 36
1.0
 17
0.0
 27
0.0
 37
0.0
 40
420.6782848653093
 41
1.60267857142857
 42
50.0
 43
0.0
 44
0.0
 50
0.0
 51
0.0
 71
     0
 72
   100
 73
     1
 74
     3
 75
     0
 76
     0
 77
     0
 78
     0
281
     0
 65
     1
110
0.0
120
0.0
130
0.0
111
1.0
121
0.0
131
0.0
112
0.0
122
1.0
132
0.0
 79
     0
146
0.0
  0
ENDTAB
  0
TABLE
  2
LTYPE
  5
5
330
0
100
AcDbSymbolTable
 70
     9
  0
LTYPE
  5
14
330
5
100
AcDbSymbolTableRecord
100
AcDbLinetypeTableRecord
  2
ByBlock
 70
     0
  3

 72
    65
 73
     0
 40
0.0
  0
LTYPE
  5
15
330
5
100
AcDbSymbolTableRecord
100
AcDbLinetypeTableRecord
  2
ByLayer
 70
     0
  3

 72
    65
 73
     0
 40
0.0
  0
LTYPE
  5
16
330
5
100
AcDbSymbolTableRecord
100
AcDbLinetypeTableRecord
  2
Continuous
 70
     0
  3
Solid line
 72
    65
 73
     0
 40
0.0
  0
LTYPE
  5
3B
330
5
100
AcDbSymbolTableRecord
100
AcDbLinetypeTableRecord
  2
DASHED
 70
     0
  3
Dashed
 72
    65
 73
     2
 40
15.0
 49
7.0
 74
     0
 49
-8.0
 74
     0
  0
LTYPE
  5
3C
330
5
100
AcDbSymbolTableRecord
100
AcDbLinetypeTableRecord
  2
DOTTED
 70
     0
  3
Dotted
 72
    65
 73
     2
 40
1.0
 49
0.0
 74
     0
 49
-1.0
 74
     0
  0
LTYPE
  5
3D
330
5
100
AcDbSymbolTableRecord
100
AcDbLinetypeTableRecord
  2
DOT_CENTER
 70
     0
  3
Dot_Center
 72
    65
 73
     4
 40
14.0
 49
12.0
 74
     0
 49
-1.0
 74
     0
 49
0.0
 74
     0
 49
-1.0
 74
     0
  0
LTYPE
  5
3E
330
5
100
AcDbSymbolTableRecord
100
AcDbLinetypeTableRecord
  2
LONG_DASHED
 70
     0
  3
Long_Dashed
 72
    65
 73
     2
 40
15.0
 49
10.0
 74
     0
 49
-5.0
 74
     0
  0
LTYPE
  5
3F
330
5
100
AcDbSymbolTableRecord
100
AcDbLinetypeTableRecord
  2
DASH_CENTER
 70
     0
  3
Dash_Center
 72
    65
 73
     4
 40
14.0
 49
11.0
 74
     0
 49
-1.0
 74
     0
 49
1.0
 74
     0
 49
-1.0
 74
     0
  0
LTYPE
  5
40
330
5
100
AcDbSymbolTableRecord
100
AcDbLinetypeTableRecord
  2
PHANTOM
 70
     0
  3
Phantom
 72
    65
 73
     6
 40
13.0
 49
10.0
 74
     0
 49
-1.0
 74
     0
 49
0.0
 74
     0
 49
-1.0
 74
     0
 49
0.0
 74
     0
 49
-1.0
 74
     0
  0
LTYPE
  5
41
330
5
100
AcDbSymbolTableRecord
100
AcDbLinetypeTableRecord
  2
CENTER_DASH_DASH
 70
     0
  3
Center_Dash_Dash
 72
    65
 73
     6
 40
14.0
 49
9.0
 74
     0
 49
-1.0
 74
     0
 49
1.0
 74
     0
 49
-1.0
 74
     0
 49
1.0
 74
     0
 49
-1.0
 74
     0
  0
LTYPE
  5
42
330
5
100
AcDbSymbolTableRecord
100
AcDbLinetypeTableRecord
  2
CENTERX2
 70
     0
  3
CENTERX2
 72
    65
 73
     4
 40
22.0
 49
13.0
 74
     0
 49
-3.0
 74
     0
 49
3.0
 74
     0
 49
-3.0
 74
     0
  0
ENDTAB
  0
TABLE
  2
LAYER
  5
2
330
0
100
AcDbSymbolTable
 70
     2
  0
LAYER
  5
10
330
2
100
AcDbSymbolTableRecord
100
AcDbLayerTableRecord
  2
0
 70
     0
 62
     7
  6
Continuous
370
    -3
390
F
  0
LAYER
  5
43
330
2
100
AcDbSymbolTableRecord
100
AcDbLayerTableRecord
  2
1
 70
     0
 62
     7
  6
Continuous
370
    -3
390
F
  0
ENDTAB
  0
TABLE
  2
STYLE
  5
3
330
0
100
AcDbSymbolTable
 70
     2
  0
STYLE
  5
11
330
3
100
AcDbSymbolTableRecord
100
AcDbTextStyleTableRecord
  2
Standard
 70
     0
 40
0.0
 41
1.0
 50
0.0
 71
     0
 42
0.2
  3
txt
  4

  0
STYLE
  5
257
330
3
100
AcDbSymbolTableRecord
100
AcDbTextStyleTableRecord
  2
CONVERTER_11
 70
     0
 40
0.0
 41
0.9
 50
0.0
 71
     0
 42
0.2
  3
txt.shx
  4

  0
ENDTAB
  0
TABLE
  2
VIEW
  5
6
330
0
100
AcDbSymbolTable
 70
     0
  0
ENDTAB
  0
TABLE
  2
UCS
  5
7
330
0
100
AcDbSymbolTable
 70
     0
  0
ENDTAB
  0
TABLE
  2
APPID
  5
9
330
0
100
AcDbSymbolTable
 70
     1
  0
APPID
  5
12
330
9
100
AcDbSymbolTableRecord
100
AcDbRegAppTableRecord
  2
ACAD
 70
     0
  0
ENDTAB
  0
TABLE
  2
DIMSTYLE
  5
A
330
0
100
AcDbSymbolTable
 70
     6
100
AcDbDimStyleTable
  0
DIMSTYLE
105
27
330
A
100
AcDbSymbolTableRecord
100
AcDbDimStyleTableRecord
  2
Standard
 70
     0
340
11
  0
DIMSTYLE
105
25B
102
{ACAD_REACTORS
330
25C
102
}
330
A
100
AcDbSymbolTableRecord
100
AcDbDimStyleTableRecord
  2
ME10_DIM_10
 70
     0
  3
Ø<>
 41
10.0
 42
0.0
 44
2.0
 73
     0
 74
     0
 77
     1
 78
     8
140
10.0
147
2.0
172
     1
173
     1
176
     4
177
     4
178
     1
271
     2
340
257
  0
DIMSTYLE
105
266
102
{ACAD_REACTORS
330
267
102
}
330
A
100
AcDbSymbolTableRecord
100
AcDbDimStyleTableRecord
  2
ME10_DIM_11
 70
     0
  3
DN<>
 41
10.0
 42
0.0
 44
2.0
 73
     0
 74
     0
 77
     1
 78
     8
140
10.0
147
2.0
172
     1
173
     1
176
     4
177
     4
178
     1
271
     2
340
257
  0
DIMSTYLE
105
271
102
{ACAD_REACTORS
330
272
102
}
330
A
100
AcDbSymbolTableRecord
100
AcDbDimStyleTableRecord
  2
ME10_DIM_12
 70
     0
  3
Ø<>
 41
10.0
 42
0.0
 44
2.0
 73
     0
 74
     0
 77
     1
 78
     8
140
10.0
147
2.0
172
     1
173
     1
176
     4
177
     4
178
     1
271
     0
340
257
  0
DIMSTYLE
105
27C
102
{ACAD_REACTORS
330
27D
102
}
330
A
100
AcDbSymbolTableRecord
100
AcDbDimStyleTableRecord
  2
ME10_DIM_13
 70
     0
 41
10.0
 42
0.0
 44
2.0
 73
     0
 74
     0
 77
     1
 78
     8
140
10.0
147
2.0
172
     1
173
     1
176
     4
177
     4
178
     1
271
     1
340
257
  0
DIMSTYLE
105
287
102
{ACAD_REACTORS
330
288
102
}
330
A
100
AcDbSymbolTableRecord
100
AcDbDimStyleTableRecord
  2
ME10_DIM_14
 70
     0
 41
10.0
 42
0.0
 44
2.0
 73
     0
 74
     0
 77
     1
 78
     8
140
10.0
147
2.0
172
     1
173
     1
176
     4
177
     4
178
     1
271
     2
340
257
  0
ENDTAB
  0
TABLE
  2
BLOCK_RECORD
  5
1
330
0
100
AcDbSymbolTable
 70
     8
  0
BLOCK_RECORD
  5
1F
330
1
100
AcDbSymbolTableRecord
100
AcDbBlockTableRecord
  2
*Model_Space
340
22
  0
BLOCK_RECORD
  5
1B
330
1
100
AcDbSymbolTableRecord
100
AcDbBlockTableRecord
  2
*Paper_Space
340
1E
  0
BLOCK_RECORD
  5
23
330
1
100
AcDbSymbolTableRecord
100
AcDbBlockTableRecord
  2
*Paper_Space0
340
26
  0
BLOCK_RECORD
  5
44
330
1
100
AcDbSymbolTableRecord
100
AcDbBlockTableRecord
  2
HL62_1P_2
340
0
102
{BLKREFS
331
6A
102
}
  0
BLOCK_RECORD
  5
47
330
1
100
AcDbSymbolTableRecord
100
AcDbBlockTableRecord
  2
HL_62_1P_2_DN125_Dachablauf
340
0
102
{BLKREFS
331
6D
102
}
  0
BLOCK_RECORD
  5
251
330
1
100
AcDbSymbolTableRecord
100
AcDbBlockTableRecord
  2
*D3
340
0
  0
BLOCK_RECORD
  5
25D
330
1
100
AcDbSymbolTableRecord
100
AcDbBlockTableRecord
  2
*D4
340
0
  0
BLOCK_RECORD
  5
268
330
1
100
AcDbSymbolTableRecord
100
AcDbBlockTableRecord
  2
*D5
340
0
  0
BLOCK_RECORD
  5
273
330
1
100
AcDbSymbolTableRecord
100
AcDbBlockTableRecord
  2
*D6
340
0
  0
BLOCK_RECORD
  5
27E
330
1
100
AcDbSymbolTableRecord
100
AcDbBlockTableRecord
  2
*D7
340
0
  0
ENDTAB
  0
ENDSEC
  0
SECTION
  2
BLOCKS
  0
BLOCK
  5
20
330
1F
100
AcDbEntity
  8
0
100
AcDbBlockBegin
  2
*Model_Space
 70
     0
 10
0.0
 20
0.0
 30
0.0
  3
*Model_Space
  1

  0
ENDBLK
  5
21
330
1F
100
AcDbEntity
  8
0
100
AcDbBlockEnd
  0
BLOCK
  5
1C
330
1B
100
AcDbEntity
 67
     1
  8
0
100
AcDbBlockBegin
  2
*Paper_Space
 70
     0
 10
0.0
 20
0.0
 30
0.0
  3
*Paper_Space
  1

  0
ENDBLK
  5
1D
330
1B
100
AcDbEntity
 67
     1
  8
0
100
AcDbBlockEnd
  0
BLOCK
  5
24
330
23
100
AcDbEntity
  8
0
100
AcDbBlockBegin
  2
*Paper_Space0
 70
     0
 10
0.0
 20
0.0
 30
0.0
  3
*Paper_Space0
  1

  0
ENDBLK
  5
25
330
23
100
AcDbEntity
  8
0
100
AcDbBlockEnd
  0
BLOCK
  5
45
330
44
100
AcDbEntity
  8
0
100
AcDbBlockBegin
  2
HL62_1P_2
 70
     0
 10
434.9715877816195
 20
81.6271036429598
 30
0.0
  3
HL62_1P_2
  1

  0
POINT
  5
6E
330
44
100
AcDbEntity
  8
0
 62
     7
100
AcDbPoint
 10
398.379984800358
 20
4.98470704115564
 30
0.0
  0
POINT
  5
6F
330
44
100
AcDbEntity
  8
0
 62
     7
100
AcDbPoint
 10
523.379984800358
 20
4.98470704115564
 30
0.0
  0
POINT
  5
70
330
44
100
AcDbEntity
  8
0
 62
     7
100
AcDbPoint
 10
380.779984800358
 20
73.98470904115564
 30
0.0
  0
POINT
  5
71
330
44
100
AcDbEntity
  8
0
 62
     7
100
AcDbPoint
 10
540.979984800358
 20
73.98470904115564
 30
0.0
  0
POINT
  5
72
330
44
100
AcDbEntity
  8
0
 62
     7
100
AcDbPoint
 10
298.879984800358
 20
159.9846271544556
 30
0.0
  0
POINT
  5
73
330
44
100
AcDbEntity
  8
0
 62
     7
100
AcDbPoint
 10
399.719730762558
 20
-0.01529295884436
 30
0.0
  0
POINT
  5
74
330
44
100
AcDbEntity
  8
0
 62
     7
100
AcDbPoint
 10
381.129987797958
 20
159.9846271544556
 30
0.0
  0
POINT
  5
75
330
44
100
AcDbEntity
  8
0
 62
     7
100
AcDbPoint
 10
417.395188606758
 20
234.9846317755556
 30
0.0
  0
POINT
  5
76
330
44
100
AcDbEntity
  8
0
 62
     7
100
AcDbPoint
 10
280.879984800358
 20
156.4850480411556
 30
0.0
  0
POINT
  5
77
330
44
100
AcDbEntity
  8
0
 62
     7
100
AcDbPoint
 10
640.879984800358
 20
156.4850480411556
 30
0.0
  0
LWPOLYLINE
  5
78
330
44
100
AcDbEntity
  8
0
  6
Continuous
 62
     7
100
AcDbPolyline
 90
        2
 70
     0
 43
0.15
 10
386.821089782258
 20
90.48470627435566
 10
386.821089782258
 20
67.03368486755565
  0
LWPOLYLINE
  5
79
330
44
100
AcDbEntity
  8
0
  6
Continuous
 62
     7
100
AcDbPolyline
 90
        2
 70
     0
 43
0.15
 10
386.821089782258
 20
64.25418710255562
 10
386.821089782258
 20
-109.5152985685444
  0
LWPOLYLINE
  5
7A
330
44
100
AcDbEntity
  8
0
  6
Continuous
 62
     7
100
AcDbPolyline
 90
        2
 70
     0
 43
0.15
 10
392.821094491058
 20
-109.5152985685444
 10
392.821094491058
 20
61.4847089714556
  0
LWPOLYLINE
  5
7B
330
44
100
AcDbEntity
  8
0
  6
Continuous
 62
     7
100
AcDbPolyline
 90
        2
 70
     0
 43
0.15
 10
392.821094491058
 20
66.48470909255562
 10
392.821094491058
 20
90.48470627435566
  0
LWPOLYLINE
  5
7C
330
44
100
AcDbEntity
  8
0
  6
Continuous
 62
     7
100
AcDbPolyline
 90
        2
 70
     0
 43
0.15
 10
396.171091594258
 20
66.48470909255562
 10
396.171091594258
 20
68.98470903665563
  0
LWPOLYLINE
  5
7D
330
44
100
AcDbEntity
  8
0
  6
Continuous
 62
     7
100
AcDbPolyline
 90
        2
 70
     0
 43
0.15
 10
385.571090974358
 20
64.70108084305562
 10
385.571090974358
 20
43.98470889695562
  0
LWPOLYLINE
  5
7E
330
44
100
AcDbEntity
  8
0
  6
Continuous
 62
     7
100
AcDbPolyline
 90
        2
 70
     0
 43
0.15
 10
394.071093298958
 20
43.98470889695562
 10
394.071093298958
 20
61.4847089714556
  0
LWPOLYLINE
  5
7F
330
44
100
AcDbEntity
  8
0
  6
Continuous
 62
     7
100
AcDbPolyline
 90
        2
 70
     0
 43
0.15
 10
535.879983105258
 20
92.48470660215563
 10
535.879983105258
 20
100.4847079134557
  0
LWPOLYLINE
  5
80
330
44
100
AcDbEntity
  8
0
  6
Continuous
 62
     7
100
AcDbPolyline
 90
        2
 70
     0
 43
0.15
 10
385.879984595358
 20
100.4847079134557
 10
385.879984595358
 20
92.48470660215563
  0
LWPOLYLINE
  5
81
330
44
100
AcDbEntity
  8
0
  6
Continuous
 62
     7
100
AcDbPolyline
 90
        2
 70
     0
 43
0.15
 10
529.8799858470579
 20
90.48470627435566
 10
527.8799855192581
 20
90.48470627435566
  0
LWPOLYLINE
  5
82
330
44
100
AcDbEntity
  8
0
  6
Continuous
 62
     7
100
AcDbPolyline
 90
        2
 70
     0
 43
0.15
 10
393.879985906658
 20
90.48470627435566
 10
392.821094491058
 20
90.48470627435566
  0
LWPOLYLINE
  5
83
330
44
100
AcDbEntity
  8
0
  6
Continuous
 62
     7
100
AcDbPolyline
 90
        2
 70
     0
 43
0.15
 10
529.8799858470579
 20
102.4847063786557
 10
527.8799855192581
 20
102.4847063786557
  0
LWPOLYLINE
  5
84
330
44
100
AcDbEntity
  8
0
  6
Continuous
 62
     7
100
AcDbPolyline
 90
        2
 70
     0
 43
0.15
 10
393.879985906658
 20
102.4847063786557
 10
391.879981853558
 20
102.4847063786557
  0
LWPOLYLINE
  5
85
330
44
100
AcDbEntity
  8
0
  6
Continuous
 62
     7
100
AcDbPolyline
 90
        2
 70
     0
 43
0.15
 10
527.8799855192581
 20
100.4847079134557
 10
527.8799855192581
 20
92.48470660215563
  0
LWPOLYLINE
  5
86
330
44
100
AcDbEntity
  8
0
  6
Continuous
 62
     7
100
AcDbPolyline
 90
        2
 70
     0
 43
0.15
 10
393.879985906658
 20
92.48470660215563
 10
393.879985906658
 20
100.4847079134557
  0
LWPOLYLINE
  5
87
330
44
100
AcDbEntity
  8
0
  6
Continuous
 62
     7
100
AcDbPolyline
 90
        2
 70
     0
 43
0.15
 10
529.8799858470579
 20
90.48470627435566
 10
533.879986502758
 20
90.48470627435566
  0
LWPOLYLINE
  5
88
330
44
100
AcDbEntity
  8
0
  6
Continuous
 62
     7
100
AcDbPolyline
 90
        2
 70
     0
 43
0.15
 10
533.879986502758
 20
102.4847063786557
 10
529.8799858470579
 20
102.4847063786557
  0
LWPOLYLINE
  5
89
330
44
100
AcDbEntity
  8
0
  6
Continuous
 62
     7
100
AcDbPolyline
 90
        2
 70
     0
 43
0.15
 10
391.879981853558
 20
90.48470627435566
 10
392.713508107258
 20
90.48470627435566
  0
LWPOLYLINE
  5
8A
330
44
100
AcDbEntity
  8
0
  6
Continuous
 62
     7
100
AcDbPolyline
 90
        2
 70
     0
 43
0.15
 10
392.713508107258
 20
90.48470627435566
 10
392.713508107258
 20
-109.5152985685444
  0
LWPOLYLINE
  5
8B
330
44
100
AcDbEntity
  8
0
  6
Continuous
 62
     7
100
AcDbPolyline
 90
        2
 70
     0
 43
0.15
 10
386.928683616658
 20
-109.5152985685444
 10
392.713508107258
 20
-109.5152985685444
  0
LWPOLYLINE
  5
8C
330
44
100
AcDbEntity
  8
0
  6
Continuous
 62
     7
100
AcDbPolyline
 90
        2
 70
     0
 43
0.15
 10
386.928683616658
 20
-109.5152985685444
 10
386.928683616658
 20
90.48470627435566
  0
LWPOLYLINE
  5
8D
330
44
100
AcDbEntity
  8
0
  6
Continuous
 62
     7
100
AcDbPolyline
 90
        2
 70
     0
 43
0.15
 10
386.928683616658
 20
90.48470627435566
 10
387.879981197858
 20
90.48470627435566
  0
LWPOLYLINE
  5
8E
330
44
100
AcDbEntity
  8
0
  6
Continuous
 62
     7
100
AcDbPolyline
 90
        2
 70
     0
 43
0.15
 10
391.879981853558
 20
102.4847063786557
 10
387.879981197858
 20
102.4847063786557
  0
LWPOLYLINE
  5
8F
330
44
100
AcDbEntity
  8
0
  6
Continuous
 62
     7
100
AcDbPolyline
 90
        2
 70
     0
 43
0.15
 10
392.821094491058
 20
90.48470627435566
 10
392.713508107258
 20
90.48470627435566
  0
LWPOLYLINE
  5
90
330
44
100
AcDbEntity
  8
0
  6
Continuous
 62
     7
100
AcDbPolyline
 90
        2
 70
     0
 43
0.15
 10
386.928683616658
 20
90.48470627435566
 10
386.821089782258
 20
90.48470627435566
  0
LWPOLYLINE
  5
91
330
44
100
AcDbEntity
  8
0
  6
Continuous
 62
     7
100
AcDbPolyline
 90
        2
 70
     0
 43
0.15
 10
386.928683616658
 20
-109.5152985685444
 10
386.821089782258
 20
-109.5152985685444
  0
LWPOLYLINE
  5
92
330
44
100
AcDbEntity
  8
0
  6
Continuous
 62
     7
100
AcDbPolyline
 90
        2
 70
     0
 43
0.15
 10
392.821094491058
 20
-109.5152985685444
 10
392.713508107258
 20
-109.5152985685444
  0
LWPOLYLINE
  5
93
330
44
100
AcDbEntity
  8
0
  6
Continuous
 62
     7
100
AcDbPolyline
 90
        2
 70
     0
 43
0.15
 10
396.120978989158
 20
66.48470909255562
 10
396.120978989158
 20
68.98470903665563
  0
LWPOLYLINE
  5
94
330
44
100
AcDbEntity
  8
0
  6
Continuous
 62
     7
100
AcDbPolyline
 90
        2
 70
     0
 43
0.15
 10
396.120978989158
 20
68.98470903665563
 10
396.171091594258
 20
68.98470903665563
  0
LWPOLYLINE
  5
95
330
44
100
AcDbEntity
  8
0
  6
Continuous
 62
     7
100
AcDbPolyline
 90
        2
 70
     0
 43
0.15
 10
383.521205284158
 20
68.98470903665563
 10
383.521205284158
 20
66.48470909255562
  0
LWPOLYLINE
  5
96
330
44
100
AcDbEntity
  8
0
  6
Continuous
 62
     7
100
AcDbPolyline
 90
        2
 70
     0
 43
0.15
 10
393.995842434958
 20
43.98470889695562
 10
394.071093298958
 20
43.98470889695562
  0
LWPOLYLINE
  5
97
330
44
100
AcDbEntity
  8
0
  6
Continuous
 62
     7
100
AcDbPolyline
 90
        2
 70
     0
 43
0.15
 10
385.571090974358
 20
43.98470889695562
 10
385.646341838458
 20
43.98470889695562
  0
LWPOLYLINE
  5
98
330
44
100
AcDbEntity
  8
0
  6
Continuous
 62
     7
100
AcDbPolyline
 90
        2
 70
     0
 43
0.15
 10
393.995842434958
 20
43.98470889695562
 10
393.995842434958
 20
66.48470909255562
  0
LWPOLYLINE
  5
99
330
44
100
AcDbEntity
  8
0
  6
Continuous
 62
     7
100
AcDbPolyline
 90
        2
 70
     0
 43
0.15
 10
385.646341838458
 20
66.48470909255562
 10
385.646341838458
 20
43.98470889695562
  0
LWPOLYLINE
  5
9A
330
44
100
AcDbEntity
  8
0
  6
Continuous
 62
     7
100
AcDbPolyline
 90
        2
 70
     0
 43
0.15
 10
393.280653752858
 20
68.98470903665563
 10
393.280653752858
 20
43.98470889695562
  0
LWPOLYLINE
  5
9B
330
44
100
AcDbEntity
  8
0
  6
Continuous
 62
     7
100
AcDbPolyline
 90
        2
 70
     0
 43
0.15
 10
386.361530520458
 20
43.98470889695562
 10
386.361530520458
 20
68.98470903665563
  0
LWPOLYLINE
  5
9C
330
44
100
AcDbEntity
  8
0
  6
Continuous
 62
     7
100
AcDbPolyline
 90
        2
 70
     0
 43
0.15
 10
393.280653752858
 20
43.98470889695562
 10
392.821094491058
 20
43.98470889695562
  0
LWPOLYLINE
  5
9D
330
44
100
AcDbEntity
  8
0
  6
Continuous
 62
     7
100
AcDbPolyline
 90
        2
 70
     0
 43
0.15
 10
386.821089782258
 20
43.98470889695562
 10
386.361530520458
 20
43.98470889695562
  0
LWPOLYLINE
  5
9E
330
44
100
AcDbEntity
  8
0
  6
Continuous
 62
     7
100
AcDbPolyline
 90
        2
 70
     0
 43
0.15
 10
393.280653752858
 20
68.98470903665563
 10
392.821094491058
 20
68.98470903665563
  0
LWPOLYLINE
  5
9F
330
44
100
AcDbEntity
  8
0
  6
Continuous
 62
     7
100
AcDbPolyline
 90
        2
 70
     0
 43
0.15
 10
386.821089782258
 20
68.98470903665563
 10
386.361530520458
 20
68.98470903665563
  0
LWPOLYLINE
  5
A0
330
44
100
AcDbEntity
  8
0
  6
Continuous
 62
     7
100
AcDbPolyline
 90
        2
 70
     0
 43
0.15
 10
393.280653752858
 20
43.98470889695562
 10
393.995842434958
 20
43.98470889695562
  0
LWPOLYLINE
  5
A1
330
44
100
AcDbEntity
  8
0
  6
Continuous
 62
     7
100
AcDbPolyline
 90
        2
 70
     0
 43
0.15
 10
396.120978989158
 20
68.98470903665563
 10
393.280653752858
 20
68.98470903665563
  0
LWPOLYLINE
  5
A2
330
44
100
AcDbEntity
  8
0
  6
Continuous
 62
     7
100
AcDbPolyline
 90
        2
 70
     0
 43
0.15
 10
393.995842434958
 20
66.48470909255562
 10
396.120978989158
 20
66.48470909255562
  0
LWPOLYLINE
  5
A3
330
44
100
AcDbEntity
  8
0
  6
Continuous
 62
     7
100
AcDbPolyline
 90
        2
 70
     0
 43
0.15
 10
385.646341838458
 20
43.98470889695562
 10
386.361530520458
 20
43.98470889695562
  0
LWPOLYLINE
  5
A4
330
44
100
AcDbEntity
  8
0
  6
Continuous
 62
     7
100
AcDbPolyline
 90
        2
 70
     0
 43
0.15
 10
386.361530520458
 20
68.98470903665563
 10
383.521205284158
 20
68.98470903665563
  0
LWPOLYLINE
  5
A5
330
44
100
AcDbEntity
  8
0
  6
Continuous
 62
     7
100
AcDbPolyline
 90
        2
 70
     0
 43
0.15
 10
383.521205284158
 20
66.48470909255562
 10
385.646341838458
 20
66.48470909255562
  0
LWPOLYLINE
  5
A6
330
44
100
AcDbEntity
  8
0
  6
Continuous
 62
     7
100
AcDbPolyline
 90
        2
 70
     0
 43
0.15
 10
509.328566961458
 20
220.5693978435556
 10
509.328566961458
 20
220.1846349603556
  0
LWPOLYLINE
  5
A7
330
44
100
AcDbEntity
  8
0
  6
Continuous
 62
     7
100
AcDbPolyline
 90
        2
 70
     0
 43
0.15
 10
509.328566961458
 20
220.1846349603556
 10
412.431402601758
 20
220.1846349603556
  0
LWPOLYLINE
  5
A8
330
44
100
AcDbEntity
  8
0
  6
Continuous
 62
     7
100
AcDbPolyline
 90
        2
 70
     0
 43
0.15
 10
412.431402601758
 20
220.1846349603556
 10
412.431402601758
 20
220.5693978435556
  0
LWPOLYLINE
  5
A9
330
44
100
AcDbEntity
  8
0
  6
Continuous
 62
     7
100
AcDbPolyline
 90
        2
 70
     0
 43
0.15
 10
412.431402601758
 20
220.5693978435556
 10
404.679982461558
 20
199.2725390560557
  0
LWPOLYLINE
  5
AA
330
44
100
AcDbEntity
  8
0
  6
Continuous
 62
     7
100
AcDbPolyline
 90
        2
 70
     0
 43
0.15
 10
404.679982461558
 20
199.2725390560557
 10
404.679982461558
 20
194.5846933490556
  0
LWPOLYLINE
  5
AB
330
44
100
AcDbEntity
  8
0
  6
Continuous
 62
     7
100
AcDbPolyline
 90
        2
 70
     0
 43
0.15
 10
404.679982461558
 20
194.5846933490556
 10
402.973747350758
 20
194.5846933490556
  0
LWPOLYLINE
  5
AC
330
44
100
AcDbEntity
  8
0
  6
Continuous
 62
     7
100
AcDbPolyline
 90
        2
 70
     0
 43
0.15
 10
390.380358793358
 20
159.9846291906556
 10
390.379986264258
 20
159.9846291906556
  0
LWPOLYLINE
  5
AD
330
44
100
AcDbEntity
  8
0
  6
Continuous
 62
     7
100
AcDbPolyline
 90
        2
 70
     0
 43
0.15
 10
390.379986264258
 20
152.2846255070556
 10
390.379986264258
 20
159.9846291906556
  0
LWPOLYLINE
  5
AE
330
44
100
AcDbEntity
  8
0
  6
Continuous
 62
     7
100
AcDbPolyline
 90
        2
 70
     0
 43
0.15
 10
389.879985251058
 20
152.2846255070556
 10
390.379986264258
 20
152.2846255070556
  0
LWPOLYLINE
  5
AF
330
44
100
AcDbEntity
  8
0
  6
Continuous
 62
     7
100
AcDbPolyline
 90
        2
 70
     0
 43
0.15
 10
389.879985251058
 20
130.9846262998557
 10
389.879985251058
 20
152.2846255070556
  0
LWPOLYLINE
  5
B0
330
44
100
AcDbEntity
  8
0
  6
Continuous
 62
     7
100
AcDbPolyline
 90
        2
 70
     0
 43
0.15
 10
386.479987301458
 20
130.9846262998557
 10
389.879985251058
 20
130.9846262998557
  0
LWPOLYLINE
  5
B1
330
44
100
AcDbEntity
  8
0
  6
Continuous
 62
     7
100
AcDbPolyline
 90
        2
 70
     0
 43
0.15
 10
386.479987301458
 20
132.9846266276556
 10
386.979988314658
 20
132.9846266276556
  0
LWPOLYLINE
  5
B2
330
44
100
AcDbEntity
  8
0
  6
Continuous
 62
     7
100
AcDbPolyline
 90
        2
 70
     0
 43
0.15
 10
386.979988314658
 20
132.9846266276556
 10
386.979988314658
 20
159.9846291906556
  0
LWPOLYLINE
  5
B3
330
44
100
AcDbEntity
  8
0
  6
Continuous
 62
     7
100
AcDbPolyline
 90
        2
 70
     0
 43
0.15
 10
386.979988314658
 20
159.9846291906556
 10
378.487086393458
 20
159.9846291906556
  0
LWPOLYLINE
  5
B4
330
44
100
AcDbEntity
  8
0
  6
Continuous
 62
     7
100
AcDbPolyline
 90
        2
 70
     0
 43
0.15
 10
375.294520058258
 20
161.8089485532557
 10
378.487086393458
 20
159.9846291906556
  0
LWPOLYLINE
  5
B5
330
44
100
AcDbEntity
  8
0
  6
Continuous
 62
     7
100
AcDbPolyline
 90
        2
 70
     0
 43
0.15
 10
398.336014248958
 20
225.1149374611556
 10
375.294520058258
 20
161.8089485532557
  0
LWPOLYLINE
  5
B6
330
44
100
AcDbEntity
  8
0
  6
Continuous
 62
     7
100
AcDbPolyline
 90
        2
 70
     0
 43
0.15
 10
412.431402601758
 20
234.9846321708556
 10
472.682249270858
 20
234.9846321708556
  0
LWPOLYLINE
  5
B7
330
44
100
AcDbEntity
  8
0
  6
Continuous
 62
     7
100
AcDbPolyline
 90
        2
 70
     0
 43
0.15
 10
472.682249270858
 20
234.9846321708556
 10
472.682249270858
 20
235.0846338636556
  0
LWPOLYLINE
  5
B8
330
44
100
AcDbEntity
  8
0
  6
Continuous
 62
     7
100
AcDbPolyline
 90
        2
 70
     0
 43
0.15
 10
473.508302592258
 20
235.0846338636556
 10
472.682249270858
 20
235.0846338636556
  0
LWPOLYLINE
  5
B9
330
44
100
AcDbEntity
  8
0
  6
Continuous
 62
     7
100
AcDbPolyline
 90
        2
 70
     0
 43
0.15
 10
473.508302592258
 20
234.9846321708556
 10
473.508302592258
 20
235.0846338636556
  0
LWPOLYLINE
  5
BA
330
44
100
AcDbEntity
  8
0
  6
Continuous
 62
     7
100
AcDbPolyline
 90
        2
 70
     0
 43
0.15
 10
473.508302592258
 20
234.9846321708556
 10
474.085925616758
 20
234.9846321708556
  0
LWPOLYLINE
  5
BB
330
44
100
AcDbEntity
  8
0
  6
Continuous
 62
     7
100
AcDbPolyline
 90
        2
 70
     0
 43
0.15
 10
474.085925616758
 20
235.0846338636556
 10
474.085925616758
 20
234.9846321708556
  0
LWPOLYLINE
  5
BC
330
44
100
AcDbEntity
  8
0
  6
Continuous
 62
     7
100
AcDbPolyline
 90
        2
 70
     0
 43
0.15
 10
474.825026937358
 20
235.0846338636556
 10
474.085925616758
 20
235.0846338636556
  0
LWPOLYLINE
  5
BD
330
44
100
AcDbEntity
  8
0
  6
Continuous
 62
     7
100
AcDbPolyline
 90
        2
 70
     0
 43
0.15
 10
474.825026937358
 20
235.0846338636556
 10
474.825026937358
 20
234.9846321708556
  0
LWPOLYLINE
  5
BE
330
44
100
AcDbEntity
  8
0
  6
Continuous
 62
     7
100
AcDbPolyline
 90
        2
 70
     0
 43
0.15
 10
474.825026937358
 20
234.9846321708556
 10
475.203890823358
 20
234.9846321708556
  0
LWPOLYLINE
  5
BF
330
44
100
AcDbEntity
  8
0
  6
Continuous
 62
     7
100
AcDbPolyline
 90
        2
 70
     0
 43
0.15
 10
475.203890823358
 20
234.9846321708556
 10
475.203890823358
 20
235.0846338636556
  0
LWPOLYLINE
  5
C0
330
44
100
AcDbEntity
  8
0
  6
Continuous
 62
     7
100
AcDbPolyline
 90
        2
 70
     0
 43
0.15
 10
477.551624648758
 20
235.0846338636556
 10
475.203890823358
 20
235.0846338636556
  0
LWPOLYLINE
  5
C1
330
44
100
AcDbEntity
  8
0
  6
Continuous
 62
     7
100
AcDbPolyline
 90
        2
 70
     0
 43
0.15
 10
477.551624648758
 20
235.0846338636556
 10
477.551624648758
 20
234.9846321708556
  0
LWPOLYLINE
  5
C2
330
44
100
AcDbEntity
  8
0
  6
Continuous
 62
     7
100
AcDbPolyline
 90
        2
 70
     0
 43
0.15
 10
477.551624648758
 20
234.9846321708556
 10
477.986390240958
 20
234.9846321708556
  0
LWPOLYLINE
  5
C3
330
44
100
AcDbEntity
  8
0
  6
Continuous
 62
     7
100
AcDbPolyline
 90
        2
 70
     0
 43
0.15
 10
478.768968493258
 20
234.9846321708556
 10
479.855882473758
 20
234.9846321708556
  0
LWPOLYLINE
  5
C4
330
44
100
AcDbEntity
  8
0
  6
Continuous
 62
     7
100
AcDbPolyline
 90
        2
 70
     0
 43
0.15
 10
480.638461657358
 20
234.9846321708556
 10
481.725375637858
 20
234.9846321708556
  0
LWPOLYLINE
  5
C5
330
44
100
AcDbEntity
  8
0
  6
Continuous
 62
     7
100
AcDbPolyline
 90
        2
 70
     0
 43
0.15
 10
481.725375637858
 20
234.9846321708556
 10
481.725375637858
 20
235.0846338636556
  0
LWPOLYLINE
  5
C6
330
44
100
AcDbEntity
  8
0
  6
Continuous
 62
     7
100
AcDbPolyline
 90
        2
 70
     0
 43
0.15
 10
482.507952958858
 20
235.0846338636556
 10
482.507952958858
 20
234.9846321708556
  0
LWPOLYLINE
  5
C7
330
44
100
AcDbEntity
  8
0
  6
Continuous
 62
     7
100
AcDbPolyline
 90
        2
 70
     0
 43
0.15
 10
482.507952958858
 20
234.9846321708556
 10
483.073149346258
 20
234.9846321708556
  0
LWPOLYLINE
  5
C8
330
44
100
AcDbEntity
  8
0
  6
Continuous
 62
     7
100
AcDbPolyline
 90
        2
 70
     0
 43
0.15
 10
483.073149346258
 20
234.9846321708556
 10
483.073148414958
 20
235.0846338636556
  0
LWPOLYLINE
  5
C9
330
44
100
AcDbEntity
  8
0
  6
Continuous
 62
     7
100
AcDbPolyline
 90
        2
 70
     0
 43
0.15
 10
483.899203598958
 20
235.0846338636556
 10
483.899203598958
 20
234.9846321708556
  0
LWPOLYLINE
  5
CA
330
44
100
AcDbEntity
  8
0
  6
Continuous
 62
     7
100
AcDbPolyline
 90
        2
 70
     0
 43
0.15
 10
483.899203598958
 20
234.9846321708556
 10
484.464399055158
 20
234.9846321708556
  0
LWPOLYLINE
  5
CB
330
44
100
AcDbEntity
  8
0
  6
Continuous
 62
     7
100
AcDbPolyline
 90
        2
 70
     0
 43
0.15
 10
485.246976376058
 20
235.0846338636556
 10
485.246976376058
 20
234.9846321708556
  0
LWPOLYLINE
  5
CC
330
44
100
AcDbEntity
  8
0
  6
Continuous
 62
     7
100
AcDbPolyline
 90
        2
 70
     0
 43
0.15
 10
485.246976376058
 20
234.9846321708556
 10
485.594789967458
 20
234.9846321708556
  0
LWPOLYLINE
  5
CD
330
44
100
AcDbEntity
  8
0
  6
Continuous
 62
     7
100
AcDbPolyline
 90
        2
 70
     0
 43
0.15
 10
485.594789967458
 20
234.9846321708556
 10
485.594789967458
 20
235.0846338636556
  0
LWPOLYLINE
  5
CE
330
44
100
AcDbEntity
  8
0
  6
Continuous
 62
     7
100
AcDbPolyline
 90
        2
 70
     0
 43
0.15
 10
485.594789967458
 20
235.0846338636556
 10
487.507759597658
 20
235.0846338636556
  0
LWPOLYLINE
  5
CF
330
44
100
AcDbEntity
  8
0
  6
Continuous
 62
     7
100
AcDbPolyline
 90
        2
 70
     0
 43
0.15
 10
487.507759597658
 20
235.0846338636556
 10
487.507759597658
 20
234.9846321708556
  0
LWPOLYLINE
  5
D0
330
44
100
AcDbEntity
  8
0
  6
Continuous
 62
     7
100
AcDbPolyline
 90
        2
 70
     0
 43
0.15
 10
487.507759597658
 20
234.9846321708556
 10
487.986000258958
 20
234.9846321708556
  0
LWPOLYLINE
  5
D1
330
44
100
AcDbEntity
  8
0
  6
Continuous
 62
     7
100
AcDbPolyline
 90
        2
 70
     0
 43
0.15
 10
487.986000258958
 20
234.9846321708556
 10
487.986000258958
 20
235.0846338636556
  0
LWPOLYLINE
  5
D2
330
44
100
AcDbEntity
  8
0
  6
Continuous
 62
     7
100
AcDbPolyline
 90
        2
 70
     0
 43
0.15
 10
490.309066841858
 20
235.0846338636556
 10
487.986000258958
 20
235.0846338636556
  0
LWPOLYLINE
  5
D3
330
44
100
AcDbEntity
  8
0
  6
Continuous
 62
     7
100
AcDbPolyline
 90
        2
 70
     0
 43
0.15
 10
490.309066841858
 20
235.0846338636556
 10
490.309066841858
 20
234.9846321708556
  0
LWPOLYLINE
  5
D4
330
44
100
AcDbEntity
  8
0
  6
Continuous
 62
     7
100
AcDbPolyline
 90
        2
 70
     0
 43
0.15
 10
490.309066841858
 20
234.9846321708556
 10
509.328566961458
 20
234.9846321708556
  0
LWPOLYLINE
  5
D5
330
44
100
AcDbEntity
  8
0
  6
Continuous
 62
     7
100
AcDbPolyline
 90
        2
 70
     0
 43
0.15
 10
546.465451367658
 20
161.8089485532557
 10
523.423955314358
 20
225.1149374611556
  0
LWPOLYLINE
  5
D6
330
44
100
AcDbEntity
  8
0
  6
Continuous
 62
     7
100
AcDbPolyline
 90
        2
 70
     0
 43
0.15
 10
543.2728813071581
 20
159.9846291906556
 10
534.779983111158
 20
159.9846291906556
  0
LWPOLYLINE
  5
D7
330
44
100
AcDbEntity
  8
0
  6
Continuous
 62
     7
100
AcDbPolyline
 90
        2
 70
     0
 43
0.15
 10
534.779983111158
 20
159.9846291906556
 10
534.779983111158
 20
132.9846266276556
  0
LWPOLYLINE
  5
D8
330
44
100
AcDbEntity
  8
0
  6
Continuous
 62
     7
100
AcDbPolyline
 90
        2
 70
     0
 43
0.15
 10
531.879986174858
 20
130.9846262998557
 10
535.279984124458
 20
130.9846262998557
  0
LWPOLYLINE
  5
D9
330
44
100
AcDbEntity
  8
0
  6
Continuous
 62
     7
100
AcDbPolyline
 90
        2
 70
     0
 43
0.15
 10
531.879986174858
 20
152.2846255070556
 10
531.879986174858
 20
130.9846262998557
  0
LWPOLYLINE
  5
DA
330
44
100
AcDbEntity
  8
0
  6
Continuous
 62
     7
100
AcDbPolyline
 90
        2
 70
     0
 43
0.15
 10
531.379985161558
 20
152.2846255070556
 10
531.879986174858
 20
152.2846255070556
  0
LWPOLYLINE
  5
DB
330
44
100
AcDbEntity
  8
0
  6
Continuous
 62
     7
100
AcDbPolyline
 90
        2
 70
     0
 43
0.15
 10
531.379985161558
 20
159.9846291906556
 10
531.379985161558
 20
152.2846255070556
  0
LWPOLYLINE
  5
DC
330
44
100
AcDbEntity
  8
0
  6
Continuous
 62
     7
100
AcDbPolyline
 90
        2
 70
     0
 43
0.15
 10
531.379985161558
 20
159.9846291906556
 10
531.3796126325581
 20
159.9846291906556
  0
LWPOLYLINE
  5
DD
330
44
100
AcDbEntity
  8
0
  6
Continuous
 62
     7
100
AcDbPolyline
 90
        2
 70
     0
 43
0.15
 10
531.3796126325581
 20
159.9846291906556
 10
518.786222212458
 20
194.5846933490556
  0
LWPOLYLINE
  5
DE
330
44
100
AcDbEntity
  8
0
  6
Continuous
 62
     7
100
AcDbPolyline
 90
        2
 70
     0
 43
0.15
 10
518.786222212458
 20
194.5846933490556
 10
517.079985239058
 20
194.5846933490556
  0
LWPOLYLINE
  5
DF
330
44
100
AcDbEntity
  8
0
  6
Continuous
 62
     7
100
AcDbPolyline
 90
        2
 70
     0
 43
0.15
 10
517.079985239058
 20
194.5846933490556
 10
517.079985239058
 20
199.2725390560557
  0
LWPOLYLINE
  5
E0
330
44
100
AcDbEntity
  8
0
  6
Continuous
 62
     7
100
AcDbPolyline
 90
        2
 70
     0
 43
0.15
 10
479.855882473758
 20
235.0846338636556
 10
480.638461657358
 20
235.0846338636556
  0
LWPOLYLINE
  5
E1
330
44
100
AcDbEntity
  8
0
  6
Continuous
 62
     7
100
AcDbPolyline
 90
        2
 70
     0
 43
0.15
 10
480.638461657358
 20
235.0846338636556
 10
480.638461657358
 20
234.9846321708556
  0
LWPOLYLINE
  5
E2
330
44
100
AcDbEntity
  8
0
  6
Continuous
 62
     7
100
AcDbPolyline
 90
        2
 70
     0
 43
0.15
 10
479.855882473758
 20
234.9846321708556
 10
479.855882473758
 20
235.0846338636556
  0
LWPOLYLINE
  5
E3
330
44
100
AcDbEntity
  8
0
  6
Continuous
 62
     7
100
AcDbPolyline
 90
        2
 70
     0
 43
0.15
 10
534.779983111158
 20
132.9846266276556
 10
535.279984124458
 20
132.9846266276556
  0
LWPOLYLINE
  5
E4
330
44
100
AcDbEntity
  8
0
  6
Continuous
 62
     7
100
AcDbPolyline
 90
        2
 70
     0
 43
0.15
 10
477.986390240958
 20
235.0846338636556
 10
478.768968493258
 20
235.0846338636556
  0
LWPOLYLINE
  5
E5
330
44
100
AcDbEntity
  8
0
  6
Continuous
 62
     7
100
AcDbPolyline
 90
        2
 70
     0
 43
0.15
 10
478.768968493258
 20
235.0846338636556
 10
478.768968493258
 20
234.9846321708556
  0
LWPOLYLINE
  5
E6
330
44
100
AcDbEntity
  8
0
  6
Continuous
 62
     7
100
AcDbPolyline
 90
        2
 70
     0
 43
0.15
 10
477.986390240958
 20
234.9846321708556
 10
477.986390240958
 20
235.0846338636556
  0
LWPOLYLINE
  5
E7
330
44
100
AcDbEntity
  8
0
  6
Continuous
 62
     7
100
AcDbPolyline
 90
        2
 70
     0
 43
0.15
 10
483.899203598958
 20
235.0846338636556
 10
483.073148414958
 20
235.0846338636556
  0
LWPOLYLINE
  5
E8
330
44
100
AcDbEntity
  8
0
  6
Continuous
 62
     7
100
AcDbPolyline
 90
        2
 70
     0
 43
0.15
 10
482.507952958858
 20
235.0846338636556
 10
481.725375637858
 20
235.0846338636556
  0
LWPOLYLINE
  5
E9
330
44
100
AcDbEntity
  8
0
  6
Continuous
 62
     7
100
AcDbPolyline
 90
        2
 70
     0
 43
0.15
 10
485.246976376058
 20
235.0846338636556
 10
484.464399055158
 20
235.0846338636556
  0
LWPOLYLINE
  5
EA
330
44
100
AcDbEntity
  8
0
  6
Continuous
 62
     7
100
AcDbPolyline
 90
        2
 70
     0
 43
0.15
 10
484.464399055158
 20
234.9846321708556
 10
484.464399055158
 20
235.0846338636556
  0
LWPOLYLINE
  5
EB
330
44
100
AcDbEntity
  8
0
  6
Continuous
 62
     7
100
AcDbPolyline
 90
        2
 70
     0
 43
0.15
 10
543.2728813071581
 20
159.9846291906556
 10
546.465451367658
 20
161.8089485532557
  0
LWPOLYLINE
  5
EC
330
44
100
AcDbEntity
  8
0
  6
Continuous
 62
     7
100
AcDbPolyline
 90
        2
 70
     0
 43
0.15
 10
517.079985239058
 20
199.2725390560557
 10
509.328566961458
 20
220.5693978435556
  0
LWPOLYLINE
  5
ED
330
44
100
AcDbEntity
  8
0
  6
Continuous
 62
     7
100
AcDbPolyline
 90
        2
 70
     0
 43
0.15
 10
402.973747350758
 20
194.5846933490556
 10
390.380358793358
 20
159.9846291906556
  0
LWPOLYLINE
  5
EE
330
44
100
AcDbEntity
  8
0
  6
Continuous
 62
     7
100
AcDbPolyline
 90
        2
 70
     0
 43
0.15
 10
406.308679379958
 20
199.8913991815556
 10
404.9052284141581
 20
199.8913991815556
  0
LWPOLYLINE
  5
EF
330
44
100
AcDbEntity
  8
0
  6
Continuous
 62
     7
100
AcDbPolyline
 90
        2
 70
     0
 43
0.15
 10
406.308679379958
 20
199.8913991815556
 10
406.308679379958
 20
199.3048745758556
  0
LWPOLYLINE
  5
F0
330
44
100
AcDbEntity
  8
0
  6
Continuous
 62
     7
100
AcDbPolyline
 90
        2
 70
     0
 43
0.15
 10
411.644546784958
 20
199.8913991815556
 10
407.110168137158
 20
199.8913991815556
  0
LWPOLYLINE
  5
F1
330
44
100
AcDbEntity
  8
0
  6
Continuous
 62
     7
100
AcDbPolyline
 90
        2
 70
     0
 43
0.15
 10
411.644546784958
 20
199.8913991815556
 10
411.644546784958
 20
199.3048745758556
  0
LWPOLYLINE
  5
F2
330
44
100
AcDbEntity
  8
0
  6
Continuous
 62
     7
100
AcDbPolyline
 90
        2
 70
     0
 43
0.15
 10
420.335731007658
 20
199.8913991815556
 10
412.979422607058
 20
199.8913991815556
  0
LWPOLYLINE
  5
F3
330
44
100
AcDbEntity
  8
0
  6
Continuous
 62
     7
100
AcDbPolyline
 90
        2
 70
     0
 43
0.15
 10
420.335731007658
 20
199.8913991815556
 10
420.335731007658
 20
199.3048745758556
  0
LWPOLYLINE
  5
F4
330
44
100
AcDbEntity
  8
0
  6
Continuous
 62
     7
100
AcDbPolyline
 90
        2
 70
     0
 43
0.15
 10
431.789940692958
 20
199.8913991815556
 10
422.113029756158
 20
199.8913991815556
  0
LWPOLYLINE
  5
F5
330
44
100
AcDbEntity
  8
0
  6
Continuous
 62
     7
100
AcDbPolyline
 90
        2
 70
     0
 43
0.15
 10
431.789940692958
 20
199.8913991815556
 10
431.789940692958
 20
199.3048745758556
  0
LWPOLYLINE
  5
F6
330
44
100
AcDbEntity
  8
0
  6
Continuous
 62
     7
100
AcDbPolyline
 90
        2
 70
     0
 43
0.15
 10
445.226585962358
 20
199.8913991815556
 10
433.781797536158
 20
199.8913991815556
  0
LWPOLYLINE
  5
F7
330
44
100
AcDbEntity
  8
0
  6
Continuous
 62
     7
100
AcDbPolyline
 90
        2
 70
     0
 43
0.15
 10
445.226585962358
 20
199.8913991815556
 10
445.226585962358
 20
199.3048745758556
  0
LWPOLYLINE
  5
F8
330
44
100
AcDbEntity
  8
0
  6
Continuous
 62
     7
100
AcDbPolyline
 90
        2
 70
     0
 43
0.15
 10
459.729983009858
 20
199.8913991815556
 10
447.448214985958
 20
199.8913991815556
  0
LWPOLYLINE
  5
F9
330
44
100
AcDbEntity
  8
0
  6
Continuous
 62
     7
100
AcDbPolyline
 90
        2
 70
     0
 43
0.15
 10
474.311754577358
 20
199.8913991815556
 10
462.029984690758
 20
199.8913991815556
  0
LWPOLYLINE
  5
FA
330
44
100
AcDbEntity
  8
0
  6
Continuous
 62
     7
100
AcDbPolyline
 90
        2
 70
     0
 43
0.15
 10
476.533383600858
 20
199.8913991815556
 10
476.533383600858
 20
199.3048745758556
  0
LWPOLYLINE
  5
FB
330
44
100
AcDbEntity
  8
0
  6
Continuous
 62
     7
100
AcDbPolyline
 90
        2
 70
     0
 43
0.15
 10
487.978172027058
 20
199.8913991815556
 10
476.533383600858
 20
199.8913991815556
  0
LWPOLYLINE
  5
FC
330
44
100
AcDbEntity
  8
0
  6
Continuous
 62
     7
100
AcDbPolyline
 90
        2
 70
     0
 43
0.15
 10
489.970030500058
 20
199.8913991815556
 10
489.970030500058
 20
199.3048745758556
  0
LWPOLYLINE
  5
FD
330
44
100
AcDbEntity
  8
0
  6
Continuous
 62
     7
100
AcDbPolyline
 90
        2
 70
     0
 43
0.15
 10
499.646939807158
 20
199.8913991815556
 10
489.970030500058
 20
199.8913991815556
  0
LWPOLYLINE
  5
FE
330
44
100
AcDbEntity
  8
0
  6
Continuous
 62
     7
100
AcDbPolyline
 90
        2
 70
     0
 43
0.15
 10
501.424237624258
 20
199.8913991815556
 10
501.424237624258
 20
199.3048745758556
  0
LWPOLYLINE
  5
FF
330
44
100
AcDbEntity
  8
0
  6
Continuous
 62
     7
100
AcDbPolyline
 90
        2
 70
     0
 43
0.15
 10
508.780543230958
 20
199.8913991815556
 10
501.424237624258
 20
199.8913991815556
  0
LWPOLYLINE
  5
100
330
44
100
AcDbEntity
  8
0
  6
Continuous
 62
     7
100
AcDbPolyline
 90
        2
 70
     0
 43
0.15
 10
510.115420915658
 20
199.8913991815556
 10
510.115420915658
 20
199.3048745758556
  0
LWPOLYLINE
  5
101
330
44
100
AcDbEntity
  8
0
  6
Continuous
 62
     7
100
AcDbPolyline
 90
        2
 70
     0
 43
0.15
 10
514.649803288758
 20
199.8913991815556
 10
510.115420915658
 20
199.8913991815556
  0
LWPOLYLINE
  5
102
330
44
100
AcDbEntity
  8
0
  6
Continuous
 62
     7
100
AcDbPolyline
 90
        2
 70
     0
 43
0.15
 10
515.451292045858
 20
199.8913991815556
 10
515.451292045858
 20
199.3048745758556
  0
LWPOLYLINE
  5
103
330
44
100
AcDbEntity
  8
0
  6
Continuous
 62
     7
100
AcDbPolyline
 90
        2
 70
     0
 43
0.15
 10
516.854739286458
 20
199.8913991815556
 10
515.451292045858
 20
199.8913991815556
  0
LWPOLYLINE
  5
104
330
44
100
AcDbEntity
  8
0
  6
Continuous
 62
     7
100
AcDbPolyline
 90
        2
 70
     0
 43
0.15
 10
517.079985239058
 20
194.5846933490556
 10
404.679982461558
 20
194.5846933490556
  0
LWPOLYLINE
  5
105
330
44
100
AcDbEntity
  8
0
  6
Continuous
 62
     7
100
AcDbPolyline
 90
        2
 70
     0
 43
0.15
 10
483.073148414958
 20
235.0846338636556
 10
483.073148414958
 20
234.9846321708556
  0
LWPOLYLINE
  5
106
330
44
100
AcDbEntity
  8
0
  6
Continuous
 62
     7
100
AcDbPolyline
 90
        2
 70
     0
 43
0.15
 10
390.867433049258
 20
151.2846234805556
 10
390.867433049258
 20
130.9846262998557
  0
LWPOLYLINE
  5
107
330
44
100
AcDbEntity
  8
0
  6
Continuous
 62
     7
100
AcDbPolyline
 90
        2
 70
     0
 43
0.15
 10
389.879985251058
 20
130.9846262998557
 10
390.867433049258
 20
130.9846262998557
  0
LWPOLYLINE
  5
108
330
44
100
AcDbEntity
  8
0
  6
Continuous
 62
     7
100
AcDbPolyline
 90
        2
 70
     0
 43
0.15
 10
530.8925570030581
 20
130.9846262998557
 10
531.879986174858
 20
130.9846262998557
  0
LWPOLYLINE
  5
109
330
44
100
AcDbEntity
  8
0
  6
Continuous
 62
     7
100
AcDbPolyline
 90
        2
 70
     0
 43
0.15
 10
530.8925570030581
 20
130.9846262998557
 10
530.8925570030581
 20
151.2846234805556
  0
LWPOLYLINE
  5
10A
330
44
100
AcDbEntity
  8
0
  6
Continuous
 62
     7
100
AcDbPolyline
 90
        2
 70
     0
 43
0.15
 10
390.380358793358
 20
159.9846291906556
 10
392.723313071358
 20
159.9846291906556
  0
LWPOLYLINE
  5
10B
330
44
100
AcDbEntity
  8
0
  6
Continuous
 62
     7
100
AcDbPolyline
 90
        2
 70
     0
 43
0.15
 10
392.841829456858
 20
159.9846291906556
 10
399.711041249858
 20
159.9846291906556
  0
LWPOLYLINE
  5
10C
330
44
100
AcDbEntity
  8
0
  6
Continuous
 62
     7
100
AcDbPolyline
 90
        2
 70
     0
 43
0.15
 10
399.939990140958
 20
159.9846291906556
 10
410.867324568858
 20
159.9846291906556
  0
LWPOLYLINE
  5
10D
330
44
100
AcDbEntity
  8
0
  6
Continuous
 62
     7
100
AcDbPolyline
 90
        2
 70
     0
 43
0.15
 10
411.191111900358
 20
159.9846291906556
 10
425.431890883058
 20
159.9846291906556
  0
LWPOLYLINE
  5
10E
330
44
100
AcDbEntity
  8
0
  6
Continuous
 62
     7
100
AcDbPolyline
 90
        2
 70
     0
 43
0.15
 10
425.828448035258
 20
159.9846291906556
 10
442.412185021258
 20
159.9846291906556
  0
LWPOLYLINE
  5
10F
330
44
100
AcDbEntity
  8
0
  6
Continuous
 62
     7
100
AcDbPolyline
 90
        2
 70
     0
 43
0.15
 10
442.854488738358
 20
159.9846291906556
 10
460.651031233858
 20
159.9846291906556
  0
LWPOLYLINE
  5
110
330
44
100
AcDbEntity
  8
0
  6
Continuous
 62
     7
100
AcDbPolyline
 90
        2
 70
     0
 43
0.15
 10
461.108936466758
 20
159.9846291906556
 10
478.905478962258
 20
159.9846291906556
  0
LWPOLYLINE
  5
111
330
44
100
AcDbEntity
  8
0
  6
Continuous
 62
     7
100
AcDbPolyline
 90
        2
 70
     0
 43
0.15
 10
479.347783610658
 20
159.9846291906556
 10
495.931519432458
 20
159.9846291906556
  0
LWPOLYLINE
  5
112
330
44
100
AcDbEntity
  8
0
  6
Continuous
 62
     7
100
AcDbPolyline
 90
        2
 70
     0
 43
0.15
 10
496.328078447358
 20
159.9846291906556
 10
510.568855800258
 20
159.9846291906556
  0
LWPOLYLINE
  5
113
330
44
100
AcDbEntity
  8
0
  6
Continuous
 62
     7
100
AcDbPolyline
 90
        2
 70
     0
 43
0.15
 10
510.892644994458
 20
159.9846291906556
 10
521.819977559658
 20
159.9846291906556
  0
LWPOLYLINE
  5
114
330
44
100
AcDbEntity
  8
0
  6
Continuous
 62
     7
100
AcDbPolyline
 90
        2
 70
     0
 43
0.15
 10
522.048930176058
 20
159.9846291906556
 10
528.918138243758
 20
159.9846291906556
  0
LWPOLYLINE
  5
115
330
44
100
AcDbEntity
  8
0
  6
Continuous
 62
     7
100
AcDbPolyline
 90
        2
 70
     0
 43
0.15
 10
529.036654629258
 20
159.9846291906556
 10
531.3796126325581
 20
159.9846291906556
  0
LWPOLYLINE
  5
116
330
44
100
AcDbEntity
  8
0
  6
Continuous
 62
     7
100
AcDbPolyline
 90
        2
 70
     0
 43
0.15
 10
390.379986264258
 20
152.2846255070556
 10
531.379985161558
 20
152.2846255070556
  0
LWPOLYLINE
  5
117
330
44
100
AcDbEntity
  8
0
  6
Continuous
 62
     7
100
AcDbPolyline
 90
        2
 70
     0
 43
0.15
 10
490.333736179858
 20
235.0846338636556
 10
490.333736179858
 20
234.9846321708556
  0
LWPOLYLINE
  5
118
330
44
100
AcDbEntity
  8
0
  6
Continuous
 62
     7
100
AcDbPolyline
 90
        2
 70
     0
 43
0.15
 10
490.309066841858
 20
235.0846338636556
 10
490.333736179858
 20
235.0846338636556
  0
LWPOLYLINE
  5
119
330
44
100
AcDbEntity
  8
0
  6
Continuous
 62
     7
100
AcDbPolyline
 90
        2
 70
     0
 43
0.15
 10
473.955495752858
 20
235.0846338636556
 10
473.955495752858
 20
234.9846321708556
  0
LWPOLYLINE
  5
11A
330
44
100
AcDbEntity
  8
0
  6
Continuous
 62
     7
100
AcDbPolyline
 90
        2
 70
     0
 43
0.15
 10
474.085925616758
 20
235.0846338636556
 10
473.955495752858
 20
235.0846338636556
  0
LWPOLYLINE
  5
11B
330
44
100
AcDbEntity
  8
0
  6
Continuous
 62
     7
100
AcDbPolyline
 90
        2
 70
     0
 43
0.15
 10
483.986156531158
 20
235.0846338636556
 10
483.986156531158
 20
234.9846321708556
  0
LWPOLYLINE
  5
11C
330
44
100
AcDbEntity
  8
0
  6
Continuous
 62
     7
100
AcDbPolyline
 90
        2
 70
     0
 43
0.15
 10
483.899203598958
 20
235.0846338636556
 10
483.986156531158
 20
235.0846338636556
  0
LWPOLYLINE
  5
11D
330
44
100
AcDbEntity
  8
0
  6
Continuous
 62
     7
100
AcDbPolyline
 90
        2
 70
     0
 43
0.15
 10
482.986195482758
 20
235.0846338636556
 10
482.986195482758
 20
234.9846321708556
  0
LWPOLYLINE
  5
11E
330
44
100
AcDbEntity
  8
0
  6
Continuous
 62
     7
100
AcDbPolyline
 90
        2
 70
     0
 43
0.15
 10
482.986195482758
 20
235.0846338636556
 10
483.073148414958
 20
235.0846338636556
  0
LWPOLYLINE
  5
11F
330
44
100
AcDbEntity
  8
0
  6
Continuous
 62
     7
100
AcDbPolyline
 90
        2
 70
     0
 43
0.15
 10
482.594906822358
 20
235.0846338636556
 10
482.594906822358
 20
234.9846321708556
  0
LWPOLYLINE
  5
120
330
44
100
AcDbEntity
  8
0
  6
Continuous
 62
     7
100
AcDbPolyline
 90
        2
 70
     0
 43
0.15
 10
482.507952958858
 20
235.0846338636556
 10
482.594906822358
 20
235.0846338636556
  0
LWPOLYLINE
  5
121
330
44
100
AcDbEntity
  8
0
  6
Continuous
 62
     7
100
AcDbPolyline
 90
        2
 70
     0
 43
0.15
 10
484.377446122958
 20
235.0846338636556
 10
484.377446122958
 20
234.9846321708556
  0
LWPOLYLINE
  5
122
330
44
100
AcDbEntity
  8
0
  6
Continuous
 62
     7
100
AcDbPolyline
 90
        2
 70
     0
 43
0.15
 10
484.377446122958
 20
235.0846338636556
 10
484.464399055158
 20
235.0846338636556
  0
LWPOLYLINE
  5
123
330
44
100
AcDbEntity
  8
0
  6
Continuous
 62
     7
100
AcDbPolyline
 90
        2
 70
     0
 43
0.15
 10
473.955495752858
 20
235.0846338636556
 10
473.508302592258
 20
235.0846338636556
  0
LWPOLYLINE
  5
124
330
44
100
AcDbEntity
  8
0
  6
Continuous
 62
     7
100
AcDbPolyline
 90
        2
 70
     0
 43
0.15
 10
482.594906822358
 20
235.0846338636556
 10
482.986195482758
 20
235.0846338636556
  0
LWPOLYLINE
  5
125
330
44
100
AcDbEntity
  8
0
  6
Continuous
 62
     7
100
AcDbPolyline
 90
        2
 70
     0
 43
0.15
 10
483.986156531158
 20
235.0846338636556
 10
484.377446122958
 20
235.0846338636556
  0
LWPOLYLINE
  5
126
330
44
100
AcDbEntity
  8
0
  6
Continuous
 62
     7
100
AcDbPolyline
 90
        2
 70
     0
 43
0.15
 10
501.424237624258
 20
199.3048745758556
 10
496.050501712158
 20
220.1846349603556
  0
LWPOLYLINE
  5
127
330
44
100
AcDbEntity
  8
0
  6
Continuous
 62
     7
100
AcDbPolyline
 90
        2
 70
     0
 43
0.15
 10
519.9537337799579
 20
159.9846291906556
 10
521.074073859058
 20
160.8900013930557
  0
LWPOLYLINE
  5
128
330
44
100
AcDbEntity
  8
0
  6
Continuous
 62
     7
100
AcDbPolyline
 90
        2
 70
     0
 43
0.15
 10
511.543922596158
 20
159.9846291906556
 10
502.639050133958
 20
194.5846933490556
  0
LWPOLYLINE
  5
129
330
44
100
AcDbEntity
  8
0
  6
Continuous
 62
     7
100
AcDbPolyline
 90
        2
 70
     0
 43
0.15
 10
401.806233920658
 20
159.9846291906556
 10
400.685897566858
 20
160.8900013930557
  0
LWPOLYLINE
  5
12A
330
44
100
AcDbEntity
  8
0
  6
Continuous
 62
     7
100
AcDbPolyline
 90
        2
 70
     0
 43
0.15
 10
420.335731007658
 20
199.3048745758556
 10
425.709469713758
 20
220.1846349603556
  0
LWPOLYLINE
  5
12B
330
44
100
AcDbEntity
  8
0
  6
Continuous
 62
     7
100
AcDbPolyline
 90
        2
 70
     0
 43
0.15
 10
410.216046967058
 20
159.9846291906556
 10
419.120921291858
 20
194.5846933490556
  0
LWPOLYLINE
  5
12C
330
44
100
AcDbEntity
  8
0
  6
Continuous
 62
     7
100
AcDbPolyline
 90
        2
 70
     0
 43
0.15
 10
386.979988314658
 20
143.2846296198556
 10
384.861907460258
 20
143.2846296198556
  0
LWPOLYLINE
  5
12D
330
44
100
AcDbEntity
  8
0
  6
Continuous
 62
     7
100
AcDbPolyline
 90
        2
 70
     0
 43
0.15
 10
384.861907460258
 20
143.2846296198556
 10
384.861907460258
 20
159.9846291906556
  0
LWPOLYLINE
  5
12E
330
44
100
AcDbEntity
  8
0
  6
Continuous
 62
     7
100
AcDbPolyline
 90
        2
 70
     0
 43
0.15
 10
406.308679379958
 20
199.3048745758556
 10
413.649341561358
 20
220.1846349603556
  0
LWPOLYLINE
  5
12F
330
44
100
AcDbEntity
  8
0
  6
Continuous
 62
     7
100
AcDbPolyline
 90
        2
 70
     0
 43
0.15
 10
392.484931745158
 20
159.9846291906556
 10
404.649211563658
 20
194.5846933490556
  0
LWPOLYLINE
  5
130
330
44
100
AcDbEntity
  8
0
  6
Continuous
 62
     7
100
AcDbPolyline
 90
        2
 70
     0
 43
0.15
 10
515.451292045858
 20
199.3048745758556
 10
508.110631727158
 20
220.1846349603556
  0
LWPOLYLINE
  5
131
330
44
100
AcDbEntity
  8
0
  6
Continuous
 62
     7
100
AcDbPolyline
 90
        2
 70
     0
 43
0.15
 10
536.898063965658
 20
143.2846296198556
 10
536.898063965658
 20
159.9846291906556
  0
LWPOLYLINE
  5
132
330
44
100
AcDbEntity
  8
0
  6
Continuous
 62
     7
100
AcDbPolyline
 90
        2
 70
     0
 43
0.15
 10
536.898063965658
 20
143.2846296198556
 10
534.779983111158
 20
143.2846296198556
  0
LWPOLYLINE
  5
133
330
44
100
AcDbEntity
  8
0
  6
Continuous
 62
     7
100
AcDbPolyline
 90
        2
 70
     0
 43
0.15
 10
529.275039680758
 20
159.9846291906556
 10
517.110756136958
 20
194.5846933490556
  0
LWPOLYLINE
  5
134
330
44
100
AcDbEntity
  8
0
  6
Continuous
 62
     7
100
AcDbPolyline
 90
        2
 70
     0
 43
0.15
 10
514.856007419958
 20
199.3048745758556
 10
507.515348032558
 20
220.1846349603556
  0
LWPOLYLINE
  5
135
330
44
100
AcDbEntity
  8
0
  6
Continuous
 62
     7
100
AcDbPolyline
 90
        2
 70
     0
 43
0.15
 10
406.903958417958
 20
199.3048745758556
 10
414.244620599358
 20
220.1846349603556
  0
LWPOLYLINE
  5
136
330
44
100
AcDbEntity
  8
0
  6
Continuous
 62
     7
100
AcDbPolyline
 90
        2
 70
     0
 43
0.15
 10
447.080003567558
 20
151.2846234805556
 10
447.080003567558
 20
143.2846296198556
  0
LWPOLYLINE
  5
137
330
44
100
AcDbEntity
  8
0
  6
Continuous
 62
     7
100
AcDbPolyline
 90
        2
 70
     0
 43
0.15
 10
391.234038867558
 20
143.2846296198556
 10
447.080003567558
 20
143.2846296198556
  0
LWPOLYLINE
  5
138
330
44
100
AcDbEntity
  8
0
  6
Continuous
 62
     7
100
AcDbPolyline
 90
        2
 70
     0
 43
0.15
 10
391.234038867558
 20
143.2846296198556
 10
391.234038867558
 20
151.2846234805556
  0
LWPOLYLINE
  5
139
330
44
100
AcDbEntity
  8
0
  6
Continuous
 62
     7
100
AcDbPolyline
 90
        2
 70
     0
 43
0.15
 10
530.5259511848581
 20
151.2846234805556
 10
530.5259511848581
 20
143.2846296198556
  0
LWPOLYLINE
  5
13A
330
44
100
AcDbEntity
  8
0
  6
Continuous
 62
     7
100
AcDbPolyline
 90
        2
 70
     0
 43
0.15
 10
474.680081479758
 20
143.2846296198556
 10
530.5259511848581
 20
143.2846296198556
  0
LWPOLYLINE
  5
13B
330
44
100
AcDbEntity
  8
0
  6
Continuous
 62
     7
100
AcDbPolyline
 90
        2
 70
     0
 43
0.15
 10
474.680081479758
 20
143.2846296198556
 10
474.680081479758
 20
151.2846234805556
  0
LWPOLYLINE
  5
13C
330
44
100
AcDbEntity
  8
0
  6
Continuous
 62
     7
100
AcDbPolyline
 90
        2
 70
     0
 43
0.15
 10
530.5259511848581
 20
143.2846296198556
 10
530.8925570030581
 20
143.2846296198556
  0
LWPOLYLINE
  5
13D
330
44
100
AcDbEntity
  8
0
  6
Continuous
 62
     7
100
AcDbPolyline
 90
        2
 70
     0
 43
0.15
 10
390.867433049258
 20
143.2846296198556
 10
391.234038867558
 20
143.2846296198556
  0
LWPOLYLINE
  5
13E
330
44
100
AcDbEntity
  8
0
  6
Continuous
 62
     7
100
AcDbPolyline
 90
        2
 70
     0
 43
0.15
 10
528.918138243758
 20
159.9846291906556
 10
529.036654629258
 20
159.9846291906556
  0
LWPOLYLINE
  5
13F
330
44
100
AcDbEntity
  8
0
  6
Continuous
 62
     7
100
AcDbPolyline
 90
        2
 70
     0
 43
0.15
 10
528.679753192258
 20
159.9846291906556
 10
516.515471511058
 20
194.5846933490556
  0
LWPOLYLINE
  5
140
330
44
100
AcDbEntity
  8
0
  6
Continuous
 62
     7
100
AcDbPolyline
 90
        2
 70
     0
 43
0.15
 10
392.723313071358
 20
159.9846291906556
 10
392.841829456858
 20
159.9846291906556
  0
LWPOLYLINE
  5
141
330
44
100
AcDbEntity
  8
0
  6
Continuous
 62
     7
100
AcDbPolyline
 90
        2
 70
     0
 43
0.15
 10
393.080218233658
 20
159.9846291906556
 10
405.244498052158
 20
194.5846933490556
  0
LWPOLYLINE
  5
142
330
44
100
AcDbEntity
  8
0
  6
Continuous
 62
     7
100
AcDbPolyline
 90
        2
 70
     0
 43
0.15
 10
510.115420915658
 20
199.3048745758556
 10
503.533966377858
 20
220.1846349603556
  0
LWPOLYLINE
  5
143
330
44
100
AcDbEntity
  8
0
  6
Continuous
 62
     7
100
AcDbPolyline
 90
        2
 70
     0
 43
0.15
 10
522.509454288058
 20
159.9846291906556
 10
511.603257157358
 20
194.5846933490556
  0
LWPOLYLINE
  5
144
330
44
100
AcDbEntity
  8
0
  6
Continuous
 62
     7
100
AcDbPolyline
 90
        2
 70
     0
 43
0.15
 10
411.644546784958
 20
199.3048745758556
 10
418.226002254058
 20
220.1846349603556
  0
LWPOLYLINE
  5
145
330
44
100
AcDbEntity
  8
0
  6
Continuous
 62
     7
100
AcDbPolyline
 90
        2
 70
     0
 43
0.15
 10
399.250513412558
 20
159.9846291906556
 10
410.156710543258
 20
194.5846933490556
  0
LWPOLYLINE
  5
146
330
44
100
AcDbEntity
  8
0
  6
Continuous
 62
     7
100
AcDbPolyline
 90
        2
 70
     0
 43
0.15
 10
508.965421937858
 20
199.3048745758556
 10
502.383965537458
 20
220.1846349603556
  0
LWPOLYLINE
  5
147
330
44
100
AcDbEntity
  8
0
  6
Continuous
 62
     7
100
AcDbPolyline
 90
        2
 70
     0
 43
0.15
 10
412.794551350658
 20
199.3048745758556
 10
419.376006819758
 20
220.1846349603556
  0
LWPOLYLINE
  5
148
330
44
100
AcDbEntity
  8
0
  6
Continuous
 62
     7
100
AcDbPolyline
 90
        2
 70
     0
 43
0.15
 10
521.819977559658
 20
159.9846291906556
 10
522.048930176058
 20
159.9846291906556
  0
LWPOLYLINE
  5
149
330
44
100
AcDbEntity
  8
0
  6
Continuous
 62
     7
100
AcDbPolyline
 90
        2
 70
     0
 43
0.15
 10
521.359453447658
 20
159.9846291906556
 10
510.453256316958
 20
194.5846933490556
  0
LWPOLYLINE
  5
14A
330
44
100
AcDbEntity
  8
0
  6
Continuous
 62
     7
100
AcDbPolyline
 90
        2
 70
     0
 43
0.15
 10
399.711041249858
 20
159.9846291906556
 10
399.939990140958
 20
159.9846291906556
  0
LWPOLYLINE
  5
14B
330
44
100
AcDbEntity
  8
0
  6
Continuous
 62
     7
100
AcDbPolyline
 90
        2
 70
     0
 43
0.15
 10
400.400517978258
 20
159.9846291906556
 10
411.306715108958
 20
194.5846933490556
  0
LWPOLYLINE
  5
14C
330
44
100
AcDbEntity
  8
0
  6
Continuous
 62
     7
100
AcDbPolyline
 90
        2
 70
     0
 43
0.15
 10
499.797892295258
 20
199.3048745758556
 10
494.424156266758
 20
220.1846349603556
  0
LWPOLYLINE
  5
14D
330
44
100
AcDbEntity
  8
0
  6
Continuous
 62
     7
100
AcDbPolyline
 90
        2
 70
     0
 43
0.15
 10
421.962073542658
 20
199.3048745758556
 10
427.335812248758
 20
220.1846349603556
  0
LWPOLYLINE
  5
14E
330
44
100
AcDbEntity
  8
0
  6
Continuous
 62
     7
100
AcDbPolyline
 90
        2
 70
     0
 43
0.15
 10
489.970030500058
 20
199.3048745758556
 10
486.170225315258
 20
220.1846349603556
  0
LWPOLYLINE
  5
14F
330
44
100
AcDbEntity
  8
0
  6
Continuous
 62
     7
100
AcDbPolyline
 90
        2
 70
     0
 43
0.15
 10
504.668646030658
 20
161.8089485532557
 10
498.703949157658
 20
194.5846933490556
  0
LWPOLYLINE
  5
150
330
44
100
AcDbEntity
  8
0
  6
Continuous
 62
     7
100
AcDbPolyline
 90
        2
 70
     0
 43
0.15
 10
497.738207694658
 20
199.8913991815556
 10
494.045141215458
 20
220.1846349603556
  0
LWPOLYLINE
  5
151
330
44
100
AcDbEntity
  8
0
  6
Continuous
 62
     7
100
AcDbPolyline
 90
        2
 70
     0
 43
0.15
 10
503.072362862958
 20
159.9846291906556
 10
504.668646030658
 20
161.8089485532557
  0
LWPOLYLINE
  5
152
330
44
100
AcDbEntity
  8
0
  6
Continuous
 62
     7
100
AcDbPolyline
 90
        2
 70
     0
 43
0.15
 10
497.125728060058
 20
159.9846291906556
 10
490.829032384358
 20
194.5846933490556
  0
LWPOLYLINE
  5
153
330
44
100
AcDbEntity
  8
0
  6
Continuous
 62
     7
100
AcDbPolyline
 90
        2
 70
     0
 43
0.15
 10
418.687602974958
 20
159.9846291906556
 10
417.091323532658
 20
161.8089485532557
  0
LWPOLYLINE
  5
154
330
44
100
AcDbEntity
  8
0
  6
Continuous
 62
     7
100
AcDbPolyline
 90
        2
 70
     0
 43
0.15
 10
417.091323532658
 20
161.8089485532557
 10
423.056019939958
 20
194.5846933490556
  0
LWPOLYLINE
  5
155
330
44
100
AcDbEntity
  8
0
  6
Continuous
 62
     7
100
AcDbPolyline
 90
        2
 70
     0
 43
0.15
 10
424.021764196958
 20
199.8913991815556
 10
427.714830734358
 20
220.1846349603556
  0
LWPOLYLINE
  5
156
330
44
100
AcDbEntity
  8
0
  6
Continuous
 62
     7
100
AcDbPolyline
 90
        2
 70
     0
 43
0.15
 10
431.789940692958
 20
199.3048745758556
 10
435.589744247958
 20
220.1846349603556
  0
LWPOLYLINE
  5
157
330
44
100
AcDbEntity
  8
0
  6
Continuous
 62
     7
100
AcDbPolyline
 90
        2
 70
     0
 43
0.15
 10
424.634239174858
 20
159.9846291906556
 10
430.930940904158
 20
194.5846933490556
  0
LWPOLYLINE
  5
158
330
44
100
AcDbEntity
  8
0
  6
Continuous
 62
     7
100
AcDbPolyline
 90
        2
 70
     0
 43
0.15
 10
487.978172027058
 20
199.3048745758556
 10
484.178366609358
 20
220.1846349603556
  0
LWPOLYLINE
  5
159
330
44
100
AcDbEntity
  8
0
  6
Continuous
 62
     7
100
AcDbPolyline
 90
        2
 70
     0
 43
0.15
 10
433.781797536158
 20
199.3048745758556
 10
437.581601091258
 20
220.1846349603556
  0
LWPOLYLINE
  5
15A
330
44
100
AcDbEntity
  8
0
  6
Continuous
 62
     7
100
AcDbPolyline
 90
        2
 70
     0
 43
0.15
 10
510.568855800258
 20
159.9846291906556
 10
510.892644994458
 20
159.9846291906556
  0
LWPOLYLINE
  5
15B
330
44
100
AcDbEntity
  8
0
  6
Continuous
 62
     7
100
AcDbPolyline
 90
        2
 70
     0
 43
0.15
 10
509.917576335858
 20
159.9846291906556
 10
501.012704339358
 20
194.5846933490556
  0
LWPOLYLINE
  5
15C
330
44
100
AcDbEntity
  8
0
  6
Continuous
 62
     7
100
AcDbPolyline
 90
        2
 70
     0
 43
0.15
 10
410.867324568858
 20
159.9846291906556
 10
411.191111900358
 20
159.9846291906556
  0
LWPOLYLINE
  5
15D
330
44
100
AcDbEntity
  8
0
  6
Continuous
 62
     7
100
AcDbPolyline
 90
        2
 70
     0
 43
0.15
 10
411.842389502158
 20
159.9846291906556
 10
420.747263826958
 20
194.5846933490556
  0
LWPOLYLINE
  5
15E
330
44
100
AcDbEntity
  8
0
  6
Continuous
 62
     7
100
AcDbPolyline
 90
        2
 70
     0
 43
0.15
 10
476.533383600858
 20
199.3048745758556
 10
474.566460125658
 20
220.1846349603556
  0
LWPOLYLINE
  5
15F
330
44
100
AcDbEntity
  8
0
  6
Continuous
 62
     7
100
AcDbPolyline
 90
        2
 70
     0
 43
0.15
 10
484.141948171458
 20
161.8089485532557
 10
481.054393113158
 20
194.5846933490556
  0
LWPOLYLINE
  5
160
330
44
100
AcDbEntity
  8
0
  6
Continuous
 62
     7
100
AcDbPolyline
 90
        2
 70
     0
 43
0.15
 10
480.554488957458
 20
199.8913991815556
 10
478.642817125158
 20
220.1846349603556
  0
LWPOLYLINE
  5
161
330
44
100
AcDbEntity
  8
0
  6
Continuous
 62
     7
100
AcDbPolyline
 90
        2
 70
     0
 43
0.15
 10
483.3156508435581
 20
159.9846291906556
 10
484.141948171458
 20
161.8089485532557
  0
LWPOLYLINE
  5
162
330
44
100
AcDbEntity
  8
0
  6
Continuous
 62
     7
100
AcDbPolyline
 90
        2
 70
     0
 43
0.15
 10
480.237446263958
 20
159.9846291906556
 10
476.978036113558
 20
194.5846933490556
  0
LWPOLYLINE
  5
163
330
44
100
AcDbEntity
  8
0
  6
Continuous
 62
     7
100
AcDbPolyline
 90
        2
 70
     0
 43
0.15
 10
438.444318719658
 20
159.9846291906556
 10
437.618023254458
 20
161.8089485532557
  0
LWPOLYLINE
  5
164
330
44
100
AcDbEntity
  8
0
  6
Continuous
 62
     7
100
AcDbPolyline
 90
        2
 70
     0
 43
0.15
 10
437.618023254458
 20
161.8089485532557
 10
440.705577381458
 20
194.5846933490556
  0
LWPOLYLINE
  5
165
330
44
100
AcDbEntity
  8
0
  6
Continuous
 62
     7
100
AcDbPolyline
 90
        2
 70
     0
 43
0.15
 10
441.205481537158
 20
199.8913991815556
 10
443.117151506758
 20
220.1846349603556
  0
LWPOLYLINE
  5
166
330
44
100
AcDbEntity
  8
0
  6
Continuous
 62
     7
100
AcDbPolyline
 90
        2
 70
     0
 43
0.15
 10
445.226585962358
 20
199.3048745758556
 10
447.193509437658
 20
220.1846349603556
  0
LWPOLYLINE
  5
167
330
44
100
AcDbEntity
  8
0
  6
Continuous
 62
     7
100
AcDbPolyline
 90
        2
 70
     0
 43
0.15
 10
441.5225223680581
 20
159.9846291906556
 10
444.781931587058
 20
194.5846933490556
  0
LWPOLYLINE
  5
168
330
44
100
AcDbEntity
  8
0
  6
Continuous
 62
     7
100
AcDbPolyline
 90
        2
 70
     0
 43
0.15
 10
474.311754577358
 20
199.3048745758556
 10
472.344831102058
 20
220.1846349603556
  0
LWPOLYLINE
  5
169
330
44
100
AcDbEntity
  8
0
  6
Continuous
 62
     7
100
AcDbPolyline
 90
        2
 70
     0
 43
0.15
 10
447.448214985958
 20
199.3048745758556
 10
449.415138461158
 20
220.1846349603556
  0
LWPOLYLINE
  5
16A
330
44
100
AcDbEntity
  8
0
  6
Continuous
 62
     7
100
AcDbPolyline
 90
        2
 70
     0
 43
0.15
 10
459.729983009858
 20
199.3048745758556
 10
459.729983009858
 20
220.1846349603556
  0
LWPOLYLINE
  5
16B
330
44
100
AcDbEntity
  8
0
  6
Continuous
 62
     7
100
AcDbPolyline
 90
        2
 70
     0
 43
0.15
 10
462.029984690758
 20
199.3048745758556
 10
462.029984690758
 20
220.1846349603556
  0
LWPOLYLINE
  5
16C
330
44
100
AcDbEntity
  8
0
  6
Continuous
 62
     7
100
AcDbPolyline
 90
        2
 70
     0
 43
0.15
 10
495.931519432458
 20
159.9846291906556
 10
496.328078447358
 20
159.9846291906556
  0
LWPOLYLINE
  5
16D
330
44
100
AcDbEntity
  8
0
  6
Continuous
 62
     7
100
AcDbPolyline
 90
        2
 70
     0
 43
0.15
 10
495.133869703458
 20
159.9846291906556
 10
488.837173678458
 20
194.5846933490556
  0
LWPOLYLINE
  5
16E
330
44
100
AcDbEntity
  8
0
  6
Continuous
 62
     7
100
AcDbPolyline
 90
        2
 70
     0
 43
0.15
 10
425.431890883058
 20
159.9846291906556
 10
425.828448035258
 20
159.9846291906556
  0
LWPOLYLINE
  5
16F
330
44
100
AcDbEntity
  8
0
  6
Continuous
 62
     7
100
AcDbPolyline
 90
        2
 70
     0
 43
0.15
 10
426.626099743458
 20
159.9846291906556
 10
432.922794022158
 20
194.5846933490556
  0
LWPOLYLINE
  5
170
330
44
100
AcDbEntity
  8
0
  6
Continuous
 62
     7
100
AcDbPolyline
 90
        2
 70
     0
 43
0.15
 10
478.905478962258
 20
159.9846291906556
 10
479.347783610658
 20
159.9846291906556
  0
LWPOLYLINE
  5
171
330
44
100
AcDbEntity
  8
0
  6
Continuous
 62
     7
100
AcDbPolyline
 90
        2
 70
     0
 43
0.15
 10
478.015816309058
 20
159.9846291906556
 10
474.756407090058
 20
194.5846933490556
  0
LWPOLYLINE
  5
172
330
44
100
AcDbEntity
  8
0
  6
Continuous
 62
     7
100
AcDbPolyline
 90
        2
 70
     0
 43
0.15
 10
442.412185021258
 20
159.9846291906556
 10
442.854488738358
 20
159.9846291906556
  0
LWPOLYLINE
  5
173
330
44
100
AcDbEntity
  8
0
  6
Continuous
 62
     7
100
AcDbPolyline
 90
        2
 70
     0
 43
0.15
 10
443.744151391558
 20
159.9846291906556
 10
447.003564335858
 20
194.5846933490556
  0
LWPOLYLINE
  5
174
330
44
100
AcDbEntity
  8
0
  6
Continuous
 62
     7
100
AcDbPolyline
 90
        2
 70
     0
 43
0.15
 10
460.651031233858
 20
159.9846291906556
 10
461.108936466758
 20
159.9846291906556
  0
LWPOLYLINE
  5
175
330
44
100
AcDbEntity
  8
0
  6
Continuous
 62
     7
100
AcDbPolyline
 90
        2
 70
     0
 43
0.15
 10
459.729983009858
 20
159.9846291906556
 10
459.729983009858
 20
194.5846933490556
  0
LWPOLYLINE
  5
176
330
44
100
AcDbEntity
  8
0
  6
Continuous
 62
     7
100
AcDbPolyline
 90
        2
 70
     0
 43
0.15
 10
462.029984690758
 20
159.9846291906556
 10
462.029984690758
 20
194.5846933490556
  0
LWPOLYLINE
  5
177
330
44
100
AcDbEntity
  8
0
  6
Continuous
 62
     7
100
AcDbPolyline
 90
        2
 70
     0
 43
0.15
 10
472.680081151858
 20
151.2846234805556
 10
472.680081151858
 20
130.9846262998557
  0
LWPOLYLINE
  5
178
330
44
100
AcDbEntity
  8
0
  6
Continuous
 62
     7
100
AcDbPolyline
 90
        2
 70
     0
 43
0.15
 10
449.080003895358
 20
130.9846262998557
 10
472.680081151858
 20
130.9846262998557
  0
LWPOLYLINE
  5
179
330
44
100
AcDbEntity
  8
0
  6
Continuous
 62
     7
100
AcDbPolyline
 90
        2
 70
     0
 43
0.15
 10
449.080003895358
 20
130.9846262998557
 10
449.080003895358
 20
151.2846234805556
  0
LWPOLYLINE
  5
17A
330
44
100
AcDbEntity
  8
0
  6
Continuous
 62
     7
100
AcDbPolyline
 90
        2
 70
     0
 43
0.15
 10
380.879981913158
 20
73.98470915775565
 10
380.879981913158
 20
71.98470906275563
  0
LWPOLYLINE
  5
17B
330
44
100
AcDbEntity
  8
0
  6
Continuous
 62
     7
100
AcDbPolyline
 90
        2
 70
     0
 43
0.15
 10
540.879985787458
 20
71.98470906275563
 10
540.879985787458
 20
73.98470915775565
  0
LWPOLYLINE
  5
17C
330
44
100
AcDbEntity
  8
0
  6
Continuous
 62
     7
100
AcDbPolyline
 90
        2
 70
     0
 43
0.15
 10
383.879987992858
 20
77.98470888205563
 10
383.879987992858
 20
73.98470915775565
  0
LWPOLYLINE
  5
17D
330
44
100
AcDbEntity
  8
0
  6
Continuous
 62
     7
100
AcDbPolyline
 90
        2
 70
     0
 43
0.15
 10
537.879983433058
 20
73.98470915775565
 10
537.879983433058
 20
77.98470888205563
  0
LWPOLYLINE
  5
17E
330
44
100
AcDbEntity
  8
0
  6
Continuous
 62
     7
100
AcDbPolyline
 90
        2
 70
     0
 43
0.15
 10
384.607924618258
 20
79.98470920985565
 10
383.879987992858
 20
77.98470888205563
  0
LWPOLYLINE
  5
17F
330
44
100
AcDbEntity
  8
0
  6
Continuous
 62
     7
100
AcDbPolyline
 90
        2
 70
     0
 43
0.15
 10
537.879983433058
 20
77.98470888205563
 10
537.1520430822579
 20
79.98470920985565
  0
LWPOLYLINE
  5
180
330
44
100
AcDbEntity
  8
0
  6
Continuous
 62
     7
100
AcDbPolyline
 90
        2
 70
     0
 43
0.15
 10
385.879984595358
 20
68.98470903665563
 10
385.879984595358
 20
79.98470920985565
  0
LWPOLYLINE
  5
181
330
44
100
AcDbEntity
  8
0
  6
Continuous
 62
     7
100
AcDbPolyline
 90
        2
 70
     0
 43
0.15
 10
535.879983105258
 20
79.98470920985565
 10
535.879983105258
 20
68.98470903665563
  0
LWPOLYLINE
  5
182
330
44
100
AcDbEntity
  8
0
  6
Continuous
 62
     7
100
AcDbPolyline
 90
        2
 70
     0
 43
0.15
 10
385.879984595358
 20
79.98470920985565
 10
386.821089782258
 20
79.98470920985565
  0
LWPOLYLINE
  5
183
330
44
100
AcDbEntity
  8
0
  6
Continuous
 62
     7
100
AcDbPolyline
 90
        2
 70
     0
 43
0.15
 10
392.821094491058
 20
79.98470920985565
 10
393.879985906658
 20
79.98470920985565
  0
LWPOLYLINE
  5
184
330
44
100
AcDbEntity
  8
0
  6
Continuous
 62
     7
100
AcDbPolyline
 90
        2
 70
     0
 43
0.15
 10
527.8799855192581
 20
79.98470920985565
 10
535.879983105258
 20
79.98470920985565
  0
LWPOLYLINE
  5
185
330
44
100
AcDbEntity
  8
0
  6
Continuous
 62
     7
100
AcDbPolyline
 90
        2
 70
     0
 43
0.15
 10
397.879986562358
 20
63.98470891555562
 10
397.879986562358
 20
66.48470909255562
  0
LWPOLYLINE
  5
186
330
44
100
AcDbEntity
  8
0
  6
Continuous
 62
     7
100
AcDbPolyline
 90
        2
 70
     0
 43
0.15
 10
523.879984863558
 20
66.48470909255562
 10
523.879984863558
 20
63.98470891555562
  0
LWPOLYLINE
  5
187
330
44
100
AcDbEntity
  8
0
  6
Continuous
 62
     7
100
AcDbPolyline
 90
        2
 70
     0
 43
0.15
 10
397.879986562358
 20
63.98470891555562
 10
398.379987575558
 20
63.98470891555562
  0
LWPOLYLINE
  5
188
330
44
100
AcDbEntity
  8
0
  6
Continuous
 62
     7
100
AcDbPolyline
 90
        2
 70
     0
 43
0.15
 10
523.3799857129579
 20
63.98470891555562
 10
523.879984863558
 20
63.98470891555562
  0
LWPOLYLINE
  5
189
330
44
100
AcDbEntity
  8
0
  6
Continuous
 62
     7
100
AcDbPolyline
 90
        2
 70
     0
 43
0.15
 10
397.879986562358
 20
66.48470909255562
 10
398.379987575558
 20
66.48470909255562
  0
LWPOLYLINE
  5
18A
330
44
100
AcDbEntity
  8
0
  6
Continuous
 62
     7
100
AcDbPolyline
 90
        2
 70
     0
 43
0.15
 10
523.3799857129579
 20
66.48470909255562
 10
523.879984863558
 20
66.48470909255562
  0
LWPOLYLINE
  5
18B
330
44
100
AcDbEntity
  8
0
  6
Continuous
 62
     7
100
AcDbPolyline
 90
        2
 70
     0
 43
0.15
 10
533.5299843032581
 20
61.4847089714556
 10
533.5299843032581
 20
64.01115894235565
  0
LWPOLYLINE
  5
18C
330
44
100
AcDbEntity
  8
0
  6
Continuous
 62
     7
100
AcDbPolyline
 90
        2
 70
     0
 43
0.15
 10
533.5299843032581
 20
61.4847089714556
 10
525.0299857040579
 20
61.4847089714556
  0
LWPOLYLINE
  5
18D
330
44
100
AcDbEntity
  8
0
  6
Continuous
 62
     7
100
AcDbPolyline
 90
        2
 70
     0
 43
0.15
 10
525.0299857040579
 20
63.98470891555562
 10
525.0299857040579
 20
61.4847089714556
  0
LWPOLYLINE
  5
18E
330
44
100
AcDbEntity
  8
0
  6
Continuous
 62
     7
100
AcDbPolyline
 90
        2
 70
     0
 43
0.15
 10
523.879984863558
 20
63.98470891555562
 10
525.0299857040579
 20
63.98470891555562
  0
LWPOLYLINE
  5
18F
330
44
100
AcDbEntity
  8
0
  6
Continuous
 62
     7
100
AcDbPolyline
 90
        2
 70
     0
 43
0.15
 10
533.379985489458
 20
66.48470909255562
 10
523.879984863558
 20
66.48470909255562
  0
LWPOLYLINE
  5
190
330
44
100
AcDbEntity
  8
0
  6
Continuous
 62
     7
100
AcDbPolyline
 90
        2
 70
     0
 43
0.15
 10
537.1520430822579
 20
79.98470920985565
 10
535.879983105258
 20
79.98470920985565
  0
LWPOLYLINE
  5
191
330
44
100
AcDbEntity
  8
0
  6
Continuous
 62
     7
100
AcDbPolyline
 90
        2
 70
     0
 43
0.15
 10
540.879985787458
 20
73.98470915775565
 10
537.879983433058
 20
73.98470915775565
  0
LWPOLYLINE
  5
192
330
44
100
AcDbEntity
  8
0
  6
Continuous
 62
     7
100
AcDbPolyline
 90
        2
 70
     0
 43
0.15
 10
396.729981996558
 20
61.4847089714556
 10
388.229987122558
 20
61.4847089714556
  0
LWPOLYLINE
  5
193
330
44
100
AcDbEntity
  8
0
  6
Continuous
 62
     7
100
AcDbPolyline
 90
        2
 70
     0
 43
0.15
 10
388.229987122558
 20
61.4847089714556
 10
388.229987122558
 20
64.01115894235565
  0
LWPOLYLINE
  5
194
330
44
100
AcDbEntity
  8
0
  6
Continuous
 62
     7
100
AcDbPolyline
 90
        2
 70
     0
 43
0.15
 10
396.729981996558
 20
61.4847089714556
 10
396.729981996558
 20
63.98470891555562
  0
LWPOLYLINE
  5
195
330
44
100
AcDbEntity
  8
0
  6
Continuous
 62
     7
100
AcDbPolyline
 90
        2
 70
     0
 43
0.15
 10
396.729981996558
 20
63.98470891555562
 10
397.879986562358
 20
63.98470891555562
  0
LWPOLYLINE
  5
196
330
44
100
AcDbEntity
  8
0
  6
Continuous
 62
     7
100
AcDbPolyline
 90
        2
 70
     0
 43
0.15
 10
397.879986562358
 20
66.48470909255562
 10
388.379982211158
 20
66.48470909255562
  0
LWPOLYLINE
  5
197
330
44
100
AcDbEntity
  8
0
  6
Continuous
 62
     7
100
AcDbPolyline
 90
        2
 70
     0
 43
0.15
 10
385.879984595358
 20
79.98470920985565
 10
384.607924618258
 20
79.98470920985565
  0
LWPOLYLINE
  5
198
330
44
100
AcDbEntity
  8
0
  6
Continuous
 62
     7
100
AcDbPolyline
 90
        2
 70
     0
 43
0.15
 10
383.879987992858
 20
73.98470915775565
 10
380.879981913158
 20
73.98470915775565
  0
LWPOLYLINE
  5
199
330
44
100
AcDbEntity
  8
0
  6
Continuous
 62
     7
100
AcDbPolyline
 90
        2
 70
     0
 43
0.15
 10
383.629983760858
 20
127.1861973769556
 10
383.629983760858
 20
129.6861987180556
  0
LWPOLYLINE
  5
19A
330
44
100
AcDbEntity
  8
0
  6
Continuous
 62
     7
100
AcDbPolyline
 90
        2
 70
     0
 43
0.15
 10
538.129983939758
 20
129.6861987180556
 10
538.129983939758
 20
127.1861973769556
  0
LWPOLYLINE
  5
19B
330
44
100
AcDbEntity
  8
0
  6
Continuous
 62
     7
100
AcDbPolyline
 90
        2
 70
     0
 43
0.15
 10
391.629985072158
 20
125.1861970491557
 10
384.784682192358
 20
125.1861970491557
  0
LWPOLYLINE
  5
19C
330
44
100
AcDbEntity
  8
0
  6
Continuous
 62
     7
100
AcDbPolyline
 90
        2
 70
     0
 43
0.15
 10
384.784682192358
 20
125.1861970491557
 10
383.629983760858
 20
127.1861973769556
  0
LWPOLYLINE
  5
19D
330
44
100
AcDbEntity
  8
0
  6
Continuous
 62
     7
100
AcDbPolyline
 90
        2
 70
     0
 43
0.15
 10
383.629983760858
 20
129.6861987180556
 10
394.129982688058
 20
129.6861987180556
  0
LWPOLYLINE
  5
19E
330
44
100
AcDbEntity
  8
0
  6
Continuous
 62
     7
100
AcDbPolyline
 90
        2
 70
     0
 43
0.15
 10
396.129986741158
 20
127.6861983902556
 10
396.129986741158
 20
127.1861973769556
  0
LWPOLYLINE
  5
19F
330
44
100
AcDbEntity
  8
0
  6
Continuous
 62
     7
100
AcDbPolyline
 90
        2
 70
     0
 43
0.15
 10
396.129986741158
 20
127.1861973769556
 10
393.629981674758
 20
127.1861973769556
  0
LWPOLYLINE
  5
1A0
330
44
100
AcDbEntity
  8
0
  6
Continuous
 62
     7
100
AcDbPolyline
 90
        2
 70
     0
 43
0.15
 10
396.129986741158
 20
127.6861983902556
 10
525.629984684758
 20
127.6861983902556
  0
LWPOLYLINE
  5
1A1
330
44
100
AcDbEntity
  8
0
  6
Continuous
 62
     7
100
AcDbPolyline
 90
        2
 70
     0
 43
0.15
 10
525.629984684758
 20
127.1861973769556
 10
525.629984684758
 20
127.6861983902556
  0
LWPOLYLINE
  5
1A2
330
44
100
AcDbEntity
  8
0
  6
Continuous
 62
     7
100
AcDbPolyline
 90
        2
 70
     0
 43
0.15
 10
396.129986741158
 20
127.1861973769556
 10
525.629984684758
 20
127.1861973769556
  0
LWPOLYLINE
  5
1A3
330
44
100
AcDbEntity
  8
0
  6
Continuous
 62
     7
100
AcDbPolyline
 90
        2
 70
     0
 43
0.15
 10
394.129982688058
 20
129.6861987180556
 10
527.629985012558
 20
129.6861987180556
  0
LWPOLYLINE
  5
1A4
330
44
100
AcDbEntity
  8
0
  6
Continuous
 62
     7
100
AcDbPolyline
 90
        2
 70
     0
 43
0.15
 10
538.129983939758
 20
127.1861973769556
 10
536.975285508258
 20
125.1861970491557
  0
LWPOLYLINE
  5
1A5
330
44
100
AcDbEntity
  8
0
  6
Continuous
 62
     7
100
AcDbPolyline
 90
        2
 70
     0
 43
0.15
 10
391.629985072158
 20
125.1861970491557
 10
530.1299863536581
 20
125.1861970491557
  0
LWPOLYLINE
  5
1A6
330
44
100
AcDbEntity
  8
0
  6
Continuous
 62
     7
100
AcDbPolyline
 90
        2
 70
     0
 43
0.15
 10
527.629985012558
 20
129.6861987180556
 10
538.129983939758
 20
129.6861987180556
  0
LWPOLYLINE
  5
1A7
330
44
100
AcDbEntity
  8
0
  6
Continuous
 62
     7
100
AcDbPolyline
 90
        2
 70
     0
 43
0.15
 10
536.975285508258
 20
125.1861970491557
 10
530.1299863536581
 20
125.1861970491557
  0
LWPOLYLINE
  5
1A8
330
44
100
AcDbEntity
  8
0
  6
Continuous
 62
     7
100
AcDbPolyline
 90
        2
 70
     0
 43
0.15
 10
528.129986025858
 20
127.1861973769556
 10
525.629984684758
 20
127.1861973769556
  0
LWPOLYLINE
  5
1A9
330
44
100
AcDbEntity
  8
0
  6
Continuous
 62
     7
100
AcDbPolyline
 90
        2
 70
     0
 43
0.15
 10
527.8799855192581
 20
72.9847089938556
 10
527.8799855192581
 20
112.4847080178556
  0
LWPOLYLINE
  5
1AA
330
44
100
AcDbEntity
  8
0
  6
Continuous
 62
     7
100
AcDbPolyline
 90
        2
 70
     0
 43
0.15
 10
393.879985906658
 20
112.4847080178556
 10
393.879985906658
 20
72.9847089938556
  0
LWPOLYLINE
  5
1AB
330
44
100
AcDbEntity
  8
0
  6
Continuous
 62
     7
100
AcDbPolyline
 90
        2
 70
     0
 43
0.15
 10
533.779984809958
 20
114.9847056336556
 10
533.779984809958
 20
121.6866481668556
  0
LWPOLYLINE
  5
1AC
330
44
100
AcDbEntity
  8
0
  6
Continuous
 62
     7
100
AcDbPolyline
 90
        2
 70
     0
 43
0.15
 10
387.979982890658
 20
121.6866481668556
 10
387.979982890658
 20
114.9847056336556
  0
LWPOLYLINE
  5
1AD
330
44
100
AcDbEntity
  8
0
  6
Continuous
 62
     7
100
AcDbPolyline
 90
        2
 70
     0
 43
0.15
 10
522.040239073858
 20
-0.01529272724437
 10
523.3799857129579
 20
4.98470995495563
  0
LWPOLYLINE
  5
1AE
330
44
100
AcDbEntity
  8
0
  6
Continuous
 62
     7
100
AcDbPolyline
 90
        2
 70
     0
 43
0.15
 10
398.379987575558
 20
4.98470995495563
 10
399.719728626758
 20
-0.01529272724437
  0
LWPOLYLINE
  5
1AF
330
44
100
AcDbEntity
  8
0
  6
Continuous
 62
     7
100
AcDbPolyline
 90
        2
 70
     0
 43
0.15
 10
292.879989840558
 20
157.9846251375556
 10
292.879989840558
 20
156.4850467807557
  0
LWPOLYLINE
  5
1B0
330
44
100
AcDbEntity
  8
0
  6
Continuous
 62
     7
100
AcDbPolyline
 90
        2
 70
     0
 43
0.15
 10
296.879983045658
 20
157.9846251375556
 10
292.879989840558
 20
157.9846251375556
  0
LWPOLYLINE
  5
1B1
330
44
100
AcDbEntity
  8
0
  6
Continuous
 62
     7
100
AcDbPolyline
 90
        2
 70
     0
 43
0.15
 10
296.879983045658
 20
156.4850467807557
 10
296.879983045658
 20
157.9846251375556
  0
LWPOLYLINE
  5
1B2
330
44
100
AcDbEntity
  8
0
  6
Continuous
 62
     7
100
AcDbPolyline
 90
        2
 70
     0
 43
0.15
 10
292.879989840558
 20
156.4850467807557
 10
296.879983045658
 20
156.4850467807557
  0
LWPOLYLINE
  5
1B3
330
44
100
AcDbEntity
  8
0
  6
Continuous
 62
     7
100
AcDbPolyline
 90
        2
 70
     0
 43
0.15
 10
624.879992105558
 20
157.9846251375556
 10
624.879992105558
 20
156.4850467807557
  0
LWPOLYLINE
  5
1B4
330
44
100
AcDbEntity
  8
0
  6
Continuous
 62
     7
100
AcDbPolyline
 90
        2
 70
     0
 43
0.15
 10
628.879985310658
 20
157.9846251375556
 10
624.879992105558
 20
157.9846251375556
  0
LWPOLYLINE
  5
1B5
330
44
100
AcDbEntity
  8
0
  6
Continuous
 62
     7
100
AcDbPolyline
 90
        2
 70
     0
 43
0.15
 10
628.879985310658
 20
156.4850467807557
 10
628.879985310658
 20
157.9846251375556
  0
LWPOLYLINE
  5
1B6
330
44
100
AcDbEntity
  8
0
  6
Continuous
 62
     7
100
AcDbPolyline
 90
        2
 70
     0
 43
0.15
 10
624.879992105558
 20
156.4850467807557
 10
628.879985310658
 20
156.4850467807557
  0
LWPOLYLINE
  5
1B7
330
44
100
AcDbEntity
  8
0
  6
Continuous
 62
     7
100
AcDbPolyline
 90
        2
 70
     0
 43
0.15
 10
290.879985787458
 20
159.9846291906556
 10
298.879987098758
 20
159.9846291906556
  0
LWPOLYLINE
  5
1B8
330
44
100
AcDbEntity
  8
0
  6
Continuous
 62
     7
100
AcDbPolyline
 90
        2
 70
     0
 43
0.15
 10
298.879987098758
 20
159.9846291906556
 10
296.879983045658
 20
157.9846251375556
  0
LWPOLYLINE
  5
1B9
330
44
100
AcDbEntity
  8
0
  6
Continuous
 62
     7
100
AcDbPolyline
 90
        2
 70
     0
 43
0.15
 10
292.879989840558
 20
157.9846251375556
 10
290.879985787458
 20
159.9846291906556
  0
LWPOLYLINE
  5
1BA
330
44
100
AcDbEntity
  8
0
  6
Continuous
 62
     7
100
AcDbPolyline
 90
        2
 70
     0
 43
0.15
 10
622.879988052458
 20
159.9846291906556
 10
630.879989363758
 20
159.9846291906556
  0
LWPOLYLINE
  5
1BB
330
44
100
AcDbEntity
  8
0
  6
Continuous
 62
     7
100
AcDbPolyline
 90
        2
 70
     0
 43
0.15
 10
630.879989363758
 20
159.9846291906556
 10
628.879985310658
 20
157.9846251375556
  0
LWPOLYLINE
  5
1BC
330
44
100
AcDbEntity
  8
0
  6
Continuous
 62
     7
100
AcDbPolyline
 90
        2
 70
     0
 43
0.15
 10
624.879992105558
 20
157.9846251375556
 10
622.879988052458
 20
159.9846291906556
  0
LWPOLYLINE
  5
1BD
330
44
100
AcDbEntity
  8
0
  6
Continuous
 62
     7
100
AcDbPolyline
 90
        2
 70
     0
 43
0.15
 10
540.9799837549581
 20
138.5847065217556
 10
543.129964270158
 20
142.3847037918556
  0
LWPOLYLINE
  5
1BE
330
44
100
AcDbEntity
  8
0
  6
Continuous
 62
     7
100
AcDbPolyline
 90
        2
 70
     0
 43
0.15
 10
378.630003430458
 20
142.3847037918556
 10
380.779987670958
 20
138.5847065217556
  0
LWPOLYLINE
  5
1BF
330
44
100
AcDbEntity
  8
0
  6
Continuous
 62
     7
100
AcDbPolyline
 90
        2
 70
     0
 43
0.15
 10
383.629983760858
 20
73.98470915775565
 10
384.279987313358
 20
121.6866481668556
  0
LWPOLYLINE
  5
1C0
330
44
100
AcDbEntity
  8
0
  6
Continuous
 62
     7
100
AcDbPolyline
 90
        2
 70
     0
 43
0.15
 10
537.479984112558
 20
121.6866481668556
 10
538.129983939758
 20
73.98470915775565
  0
LWPOLYLINE
  5
1C1
330
44
100
AcDbEntity
  8
0
  6
Continuous
 62
     7
100
AcDbPolyline
 90
        2
 70
     0
 43
0.15
 10
523.3799857129579
 20
72.73470709025563
 10
525.379984178158
 20
72.9847089938556
  0
LWPOLYLINE
  5
1C2
330
44
100
AcDbEntity
  8
0
  6
Continuous
 62
     7
100
AcDbPolyline
 90
        2
 70
     0
 43
0.15
 10
396.379983522458
 20
72.9847089938556
 10
398.379987575558
 20
72.73470709025563
  0
LWPOLYLINE
  5
1C3
330
44
100
AcDbEntity
  8
0
  6
Continuous
 62
     7
100
AcDbPolyline
 90
        2
 70
     0
 43
0.15
 10
523.3799857129579
 20
4.98470995495563
 10
523.3799857129579
 20
72.73470709025563
  0
LWPOLYLINE
  5
1C4
330
44
100
AcDbEntity
  8
0
  6
Continuous
 62
     7
100
AcDbPolyline
 90
        2
 70
     0
 43
0.15
 10
398.379987575558
 20
72.73470709025563
 10
398.379987575558
 20
4.98470995495563
  0
LWPOLYLINE
  5
1C5
330
44
100
AcDbEntity
  8
0
  6
Continuous
 62
     7
100
AcDbPolyline
 90
        2
 70
     0
 43
0.15
 10
530.2799851675579
 20
124.1861987478556
 10
391.479982533058
 20
124.1861987478556
  0
LWPOLYLINE
  5
1C6
330
44
100
AcDbEntity
  8
0
  6
Continuous
 62
     7
100
AcDbPolyline
 90
        2
 70
     0
 43
0.15
 10
391.479982533058
 20
116.9847059614556
 10
530.2799851675579
 20
116.9847059614556
  0
LWPOLYLINE
  5
1C7
330
44
100
AcDbEntity
  8
0
  6
Continuous
 62
     7
100
AcDbPolyline
 90
        2
 70
     0
 43
0.15
 10
396.379983522458
 20
115.9847076601556
 10
525.379984178158
 20
115.9847076601556
  0
LWPOLYLINE
  5
1C8
330
44
100
AcDbEntity
  8
0
  6
Continuous
 62
     7
100
AcDbPolyline
 90
        2
 70
     0
 43
0.15
 10
524.3799840142581
 20
114.9847056336556
 10
397.379985549058
 20
114.9847056336556
  0
LWPOLYLINE
  5
1C9
330
44
100
AcDbEntity
  8
0
  6
Continuous
 62
     7
100
AcDbPolyline
 90
        2
 70
     0
 43
0.15
 10
539.629934825458
 20
143.2865369684556
 10
536.898063965658
 20
143.2865369684556
  0
LWPOLYLINE
  5
1CA
330
44
100
AcDbEntity
  8
0
  6
Continuous
 62
     7
100
AcDbPolyline
 90
        2
 70
     0
 43
0.15
 10
474.680081479758
 20
143.2865369684556
 10
472.680081151858
 20
143.2865369684556
  0
LWPOLYLINE
  5
1CB
330
44
100
AcDbEntity
  8
0
  6
Continuous
 62
     7
100
AcDbPolyline
 90
        2
 70
     0
 43
0.15
 10
449.080003895358
 20
143.2865369684556
 10
447.080003567558
 20
143.2865369684556
  0
LWPOLYLINE
  5
1CC
330
44
100
AcDbEntity
  8
0
  6
Continuous
 62
     7
100
AcDbPolyline
 90
        2
 70
     0
 43
0.15
 10
384.861907460258
 20
143.2865369684556
 10
382.130032875158
 20
143.2865369684556
  0
LWPOLYLINE
  5
1CD
330
44
100
AcDbEntity
  8
0
  6
Continuous
 62
     7
100
AcDbPolyline
 90
        2
 70
     0
 43
0.15
 10
539.629934825458
 20
143.2865369684556
 10
535.6300720055581
 20
136.3847065336557
  0
LWPOLYLINE
  5
1CE
330
44
100
AcDbEntity
  8
0
  6
Continuous
 62
     7
100
AcDbPolyline
 90
        2
 70
     0
 43
0.15
 10
535.6300720055581
 20
136.3847065336557
 10
534.779983111158
 20
136.3847065336557
  0
LWPOLYLINE
  5
1CF
330
44
100
AcDbEntity
  8
0
  6
Continuous
 62
     7
100
AcDbPolyline
 90
        2
 70
     0
 43
0.15
 10
530.8925570030581
 20
136.3847065336557
 10
472.680081151858
 20
136.3847065336557
  0
LWPOLYLINE
  5
1D0
330
44
100
AcDbEntity
  8
0
  6
Continuous
 62
     7
100
AcDbPolyline
 90
        2
 70
     0
 43
0.15
 10
449.080003895358
 20
136.3847065336557
 10
390.867433049258
 20
136.3847065336557
  0
LWPOLYLINE
  5
1D1
330
44
100
AcDbEntity
  8
0
  6
Continuous
 62
     7
100
AcDbPolyline
 90
        2
 70
     0
 43
0.15
 10
386.979988314658
 20
136.3847065336557
 10
386.129899420358
 20
136.3847065336557
  0
LWPOLYLINE
  5
1D2
330
44
100
AcDbEntity
  8
0
  6
Continuous
 62
     7
100
AcDbPolyline
 90
        2
 70
     0
 43
0.15
 10
386.129899420358
 20
136.3847065336557
 10
382.130032875158
 20
143.2865369684556
  0
LWPOLYLINE
  5
1D3
330
44
100
AcDbEntity
  8
0
  6
Continuous
 62
     7
100
AcDbPolyline
 90
        2
 70
     0
 43
0.15
 10
530.2799851675579
 20
124.1861987478556
 10
530.2799851675579
 20
116.9847059614556
  0
LWPOLYLINE
  5
1D4
330
44
100
AcDbEntity
  8
0
  6
Continuous
 62
     7
100
AcDbPolyline
 90
        2
 70
     0
 43
0.15
 10
391.479982533058
 20
116.9847059614556
 10
391.479982533058
 20
124.1861987478556
  0
LWPOLYLINE
  5
1D5
330
44
100
AcDbEntity
  8
0
  6
Continuous
 62
     7
100
AcDbPolyline
 90
        2
 70
     0
 43
0.15
 10
543.129964270158
 20
142.3847037918556
 10
543.129986621958
 20
156.4850467807557
  0
LWPOLYLINE
  5
1D6
330
44
100
AcDbEntity
  8
0
  6
Continuous
 62
     7
100
AcDbPolyline
 90
        2
 70
     0
 43
0.15
 10
378.629981078658
 20
156.4850467807557
 10
378.630003430458
 20
142.3847037918556
  0
LWPOLYLINE
  5
1D7
330
44
100
AcDbEntity
  8
0
  6
Continuous
 62
     7
100
AcDbPolyline
 90
        2
 70
     0
 43
0.15
 10
519.8799842079579
 20
76.48425741045563
 10
401.8799872179581
 20
76.48425741045563
  0
LWPOLYLINE
  5
1D8
330
44
100
AcDbEntity
  8
0
  6
Continuous
 62
     7
100
AcDbPolyline
 90
        2
 70
     0
 43
0.15
 10
519.8799842079579
 20
76.48425741045563
 10
519.8799842079579
 20
-0.01529272724437
  0
LWPOLYLINE
  5
1D9
330
44
100
AcDbEntity
  8
0
  6
Continuous
 62
     7
100
AcDbPolyline
 90
        2
 70
     0
 43
0.15
 10
401.8799872179581
 20
-0.01529272724437
 10
401.8799872179581
 20
76.48425741045563
  0
LWPOLYLINE
  5
1DA
330
44
100
AcDbEntity
  8
0
  6
Continuous
 62
     7
100
AcDbPolyline
 90
        2
 70
     0
 43
0.15
 10
519.8799842079579
 20
-0.01529272724437
 10
401.8799872179581
 20
-0.01529272724437
  0
LWPOLYLINE
  5
1DB
330
44
100
AcDbEntity
  8
0
  6
Continuous
 62
     7
100
AcDbPolyline
 90
        2
 70
     0
 43
0.15
 10
524.3799840142581
 20
114.9847056336556
 10
524.3799840142581
 20
76.48425741045563
  0
LWPOLYLINE
  5
1DC
330
44
100
AcDbEntity
  8
0
  6
Continuous
 62
     7
100
AcDbPolyline
 90
        2
 70
     0
 43
0.15
 10
397.379985549058
 20
76.48425741045563
 10
397.379985549058
 20
114.9847056336556
  0
LWPOLYLINE
  5
1DD
330
44
100
AcDbEntity
  8
0
  6
Continuous
 62
     7
100
AcDbPolyline
 90
        2
 70
     0
 43
0.15
 10
280.879980423058
 20
157.9846251375556
 10
280.879980423058
 20
156.4850467807557
  0
LWPOLYLINE
  5
1DE
330
44
100
AcDbEntity
  8
0
  6
Continuous
 62
     7
100
AcDbPolyline
 90
        2
 70
     0
 43
0.15
 10
290.879985787458
 20
159.9846291906556
 10
282.879984476158
 20
159.9846291906556
  0
LWPOLYLINE
  5
1DF
330
44
100
AcDbEntity
  8
0
  6
Continuous
 62
     7
100
AcDbPolyline
 90
        2
 70
     0
 43
0.15
 10
280.879980423058
 20
156.4850467807557
 10
292.879989840558
 20
156.4850467807557
  0
LWPOLYLINE
  5
1E0
330
44
100
AcDbEntity
  8
0
  6
Continuous
 62
     7
100
AcDbPolyline
 90
        2
 70
     0
 43
0.15
 10
535.6300720055581
 20
136.3847065336557
 10
535.6300720055581
 20
135.4847061998557
  0
LWPOLYLINE
  5
1E1
330
44
100
AcDbEntity
  8
0
  6
Continuous
 62
     7
100
AcDbPolyline
 90
        2
 70
     0
 43
0.15
 10
535.6300720055581
 20
135.4847061998557
 10
534.779983111158
 20
135.4847061998557
  0
LWPOLYLINE
  5
1E2
330
44
100
AcDbEntity
  8
0
  6
Continuous
 62
     7
100
AcDbPolyline
 90
        2
 70
     0
 43
0.15
 10
530.8925570030581
 20
135.4847061998557
 10
472.680081151858
 20
135.4847061998557
  0
LWPOLYLINE
  5
1E3
330
44
100
AcDbEntity
  8
0
  6
Continuous
 62
     7
100
AcDbPolyline
 90
        2
 70
     0
 43
0.15
 10
449.080003895358
 20
135.4847061998557
 10
390.867433049258
 20
135.4847061998557
  0
LWPOLYLINE
  5
1E4
330
44
100
AcDbEntity
  8
0
  6
Continuous
 62
     7
100
AcDbPolyline
 90
        2
 70
     0
 43
0.15
 10
386.979988314658
 20
135.4847061998557
 10
386.129899420358
 20
135.4847061998557
  0
LWPOLYLINE
  5
1E5
330
44
100
AcDbEntity
  8
0
  6
Continuous
 62
     7
100
AcDbPolyline
 90
        2
 70
     0
 43
0.15
 10
386.129899420358
 20
135.4847061998557
 10
386.129899420358
 20
136.3847065336557
  0
LWPOLYLINE
  5
1E6
330
44
100
AcDbEntity
  8
0
  6
Continuous
 62
     7
100
AcDbPolyline
 90
        2
 70
     0
 43
0.15
 10
537.879983433058
 20
129.7847065694556
 10
383.879987992858
 20
129.7847065694556
  0
LWPOLYLINE
  5
1E7
330
44
100
AcDbEntity
  8
0
  6
Continuous
 62
     7
100
AcDbPolyline
 90
        2
 70
     0
 43
0.15
 10
383.879987992858
 20
129.7847065694556
 10
385.379983582058
 20
130.7847085959556
  0
LWPOLYLINE
  5
1E8
330
44
100
AcDbEntity
  8
0
  6
Continuous
 62
     7
100
AcDbPolyline
 90
        2
 70
     0
 43
0.15
 10
536.379984118558
 20
130.7847085959556
 10
385.379983582058
 20
130.7847085959556
  0
LWPOLYLINE
  5
1E9
330
44
100
AcDbEntity
  8
0
  6
Continuous
 62
     7
100
AcDbPolyline
 90
        2
 70
     0
 43
0.15
 10
536.379984118558
 20
130.7847085959556
 10
537.879983433058
 20
129.7847065694556
  0
LWPOLYLINE
  5
1EA
330
44
100
AcDbEntity
  8
0
  6
Continuous
 62
     7
100
AcDbPolyline
 90
        2
 70
     0
 43
0.15
 10
536.379984118558
 20
135.0416276223556
 10
534.779983111158
 20
135.0416276223556
  0
LWPOLYLINE
  5
1EB
330
44
100
AcDbEntity
  8
0
  6
Continuous
 62
     7
100
AcDbPolyline
 90
        2
 70
     0
 43
0.15
 10
530.8925570030581
 20
135.0416276223556
 10
472.680081151858
 20
135.0416276223556
  0
LWPOLYLINE
  5
1EC
330
44
100
AcDbEntity
  8
0
  6
Continuous
 62
     7
100
AcDbPolyline
 90
        2
 70
     0
 43
0.15
 10
449.080003895358
 20
135.0416276223556
 10
390.867433049258
 20
135.0416276223556
  0
LWPOLYLINE
  5
1ED
330
44
100
AcDbEntity
  8
0
  6
Continuous
 62
     7
100
AcDbPolyline
 90
        2
 70
     0
 43
0.15
 10
386.979988314658
 20
135.0416276223556
 10
385.379983582058
 20
135.0416276223556
  0
LWPOLYLINE
  5
1EE
330
44
100
AcDbEntity
  8
0
  6
Continuous
 62
     7
100
AcDbPolyline
 90
        2
 70
     0
 43
0.15
 10
385.379983582058
 20
135.0416276223556
 10
386.129899420358
 20
135.4847061998557
  0
LWPOLYLINE
  5
1EF
330
44
100
AcDbEntity
  8
0
  6
Continuous
 62
     7
100
AcDbPolyline
 90
        2
 70
     0
 43
0.15
 10
535.6300720055581
 20
135.4847061998557
 10
536.379984118558
 20
135.0416276223556
  0
LWPOLYLINE
  5
1F0
330
44
100
AcDbEntity
  8
0
  6
Continuous
 62
     7
100
AcDbPolyline
 90
        2
 70
     0
 43
0.15
 10
537.879983433058
 20
125.1861970491557
 10
531.2799834688581
 20
125.1861970491557
  0
LWPOLYLINE
  5
1F1
330
44
100
AcDbEntity
  8
0
  6
Continuous
 62
     7
100
AcDbPolyline
 90
        2
 70
     0
 43
0.15
 10
537.879983433058
 20
129.7847065694556
 10
537.879983433058
 20
125.1861970491557
  0
LWPOLYLINE
  5
1F2
330
44
100
AcDbEntity
  8
0
  6
Continuous
 62
     7
100
AcDbPolyline
 90
        2
 70
     0
 43
0.15
 10
536.379984118558
 20
135.0416276223556
 10
536.379984118558
 20
130.7847085959556
  0
LWPOLYLINE
  5
1F3
330
44
100
AcDbEntity
  8
0
  6
Continuous
 62
     7
100
AcDbPolyline
 90
        2
 70
     0
 43
0.15
 10
539.6299832542579
 20
158.9846271640556
 10
539.629934825458
 20
143.2865369684556
  0
LWPOLYLINE
  5
1F4
330
44
100
AcDbEntity
  8
0
  6
Continuous
 62
     7
100
AcDbPolyline
 90
        2
 70
     0
 43
0.15
 10
622.879988052458
 20
159.9846291906556
 10
540.6299815555581
 20
159.9846291906556
  0
LWPOLYLINE
  5
1F5
330
44
100
AcDbEntity
  8
0
  6
Continuous
 62
     7
100
AcDbPolyline
 90
        2
 70
     0
 43
0.15
 10
540.9799837549581
 20
73.98470915775565
 10
540.9799837549581
 20
138.5847065217556
  0
LWPOLYLINE
  5
1F6
330
44
100
AcDbEntity
  8
0
  6
Continuous
 62
     7
100
AcDbPolyline
 90
        2
 70
     0
 43
0.15
 10
538.129983939758
 20
73.98470915775565
 10
540.9799837549581
 20
73.98470915775565
  0
LWPOLYLINE
  5
1F7
330
44
100
AcDbEntity
  8
0
  6
Continuous
 62
     7
100
AcDbPolyline
 90
        2
 70
     0
 43
0.15
 10
524.3799840142581
 20
76.48425741045563
 10
519.8799842079579
 20
76.48425741045563
  0
LWPOLYLINE
  5
1F8
330
44
100
AcDbEntity
  8
0
  6
Continuous
 62
     7
100
AcDbPolyline
 90
        2
 70
     0
 43
0.15
 10
543.129986621958
 20
156.4850467807557
 10
624.879992105558
 20
156.4850467807557
  0
LWPOLYLINE
  5
1F9
330
44
100
AcDbEntity
  8
0
  6
Continuous
 62
     7
100
AcDbPolyline
 90
        2
 70
     0
 43
0.15
 10
529.279983141058
 20
115.9847076601556
 10
525.379984178158
 20
115.9847076601556
  0
LWPOLYLINE
  5
1FA
330
44
100
AcDbEntity
  8
0
  6
Continuous
 62
     7
100
AcDbPolyline
 90
        2
 70
     0
 43
0.15
 10
533.779984809958
 20
121.6866481668556
 10
537.479984112558
 20
121.6866481668556
  0
LWPOLYLINE
  5
1FB
330
44
100
AcDbEntity
  8
0
  6
Continuous
 62
     7
100
AcDbPolyline
 90
        2
 70
     0
 43
0.15
 10
527.8799855192581
 20
112.4847080178556
 10
531.2799834688581
 20
112.4847080178556
  0
LWPOLYLINE
  5
1FC
330
44
100
AcDbEntity
  8
0
  6
Continuous
 62
     7
100
AcDbPolyline
 90
        2
 70
     0
 43
0.15
 10
519.8799842079579
 20
-0.01529272724437
 10
522.040239073858
 20
-0.01529272724437
  0
LWPOLYLINE
  5
1FD
330
44
100
AcDbEntity
  8
0
  6
Continuous
 62
     7
100
AcDbPolyline
 90
        2
 70
     0
 43
0.15
 10
525.379984178158
 20
72.9847089938556
 10
527.8799855192581
 20
72.9847089938556
  0
LWPOLYLINE
  5
1FE
330
44
100
AcDbEntity
  8
0
  6
Continuous
 62
     7
100
AcDbPolyline
 90
        2
 70
     0
 43
0.15
 10
380.779987670958
 20
73.98470915775565
 10
383.629983760858
 20
73.98470915775565
  0
LWPOLYLINE
  5
1FF
330
44
100
AcDbEntity
  8
0
  6
Continuous
 62
     7
100
AcDbPolyline
 90
        2
 70
     0
 43
0.15
 10
380.779987670958
 20
138.5847065217556
 10
380.779987670958
 20
73.98470915775565
  0
LWPOLYLINE
  5
200
330
44
100
AcDbEntity
  8
0
  6
Continuous
 62
     7
100
AcDbPolyline
 90
        2
 70
     0
 43
0.15
 10
381.129986145058
 20
159.9846291906556
 10
298.879987098758
 20
159.9846291906556
  0
LWPOLYLINE
  5
201
330
44
100
AcDbEntity
  8
0
  6
Continuous
 62
     7
100
AcDbPolyline
 90
        2
 70
     0
 43
0.15
 10
382.130032875158
 20
143.2865369684556
 10
382.129988171658
 20
158.9846271640556
  0
LWPOLYLINE
  5
202
330
44
100
AcDbEntity
  8
0
  6
Continuous
 62
     7
100
AcDbPolyline
 90
        2
 70
     0
 43
0.15
 10
385.379983582058
 20
130.7847085959556
 10
385.379983582058
 20
135.0416276223556
  0
LWPOLYLINE
  5
203
330
44
100
AcDbEntity
  8
0
  6
Continuous
 62
     7
100
AcDbPolyline
 90
        2
 70
     0
 43
0.15
 10
383.879987992858
 20
125.1861970491557
 10
383.879987992858
 20
129.7847065694556
  0
LWPOLYLINE
  5
204
330
44
100
AcDbEntity
  8
0
  6
Continuous
 62
     7
100
AcDbPolyline
 90
        2
 70
     0
 43
0.15
 10
390.479987957058
 20
125.1861970491557
 10
383.879987992858
 20
125.1861970491557
  0
LWPOLYLINE
  5
205
330
44
100
AcDbEntity
  8
0
  6
Continuous
 62
     7
100
AcDbPolyline
 90
        2
 70
     0
 43
0.15
 10
401.8799872179581
 20
76.48425741045563
 10
397.379985549058
 20
76.48425741045563
  0
LWPOLYLINE
  5
206
330
44
100
AcDbEntity
  8
0
  6
Continuous
 62
     7
100
AcDbPolyline
 90
        2
 70
     0
 43
0.15
 10
296.879983045658
 20
156.4850467807557
 10
378.629981078658
 20
156.4850467807557
  0
LWPOLYLINE
  5
207
330
44
100
AcDbEntity
  8
0
  6
Continuous
 62
     7
100
AcDbPolyline
 90
        2
 70
     0
 43
0.15
 10
396.379983522458
 20
115.9847076601556
 10
392.479984559558
 20
115.9847076601556
  0
LWPOLYLINE
  5
208
330
44
100
AcDbEntity
  8
0
  6
Continuous
 62
     7
100
AcDbPolyline
 90
        2
 70
     0
 43
0.15
 10
384.279987313358
 20
121.6866481668556
 10
387.979982890658
 20
121.6866481668556
  0
LWPOLYLINE
  5
209
330
44
100
AcDbEntity
  8
0
  6
Continuous
 62
     7
100
AcDbPolyline
 90
        2
 70
     0
 43
0.15
 10
390.479987957058
 20
112.4847080178556
 10
393.879985906658
 20
112.4847080178556
  0
LWPOLYLINE
  5
20A
330
44
100
AcDbEntity
  8
0
  6
Continuous
 62
     7
100
AcDbPolyline
 90
        2
 70
     0
 43
0.15
 10
399.719728626758
 20
-0.01529272724437
 10
401.8799872179581
 20
-0.01529272724437
  0
LWPOLYLINE
  5
20B
330
44
100
AcDbEntity
  8
0
  6
Continuous
 62
     7
100
AcDbPolyline
 90
        2
 70
     0
 43
0.15
 10
393.879985906658
 20
72.9847089938556
 10
396.379983522458
 20
72.9847089938556
  0
LWPOLYLINE
  5
20C
330
44
100
AcDbEntity
  8
0
  6
Continuous
 62
     7
100
AcDbPolyline
 90
        2
 70
     0
 43
0.15
 10
638.879990675058
 20
159.9846291906556
 10
630.879989363758
 20
159.9846291906556
  0
LWPOLYLINE
  5
20D
330
44
100
AcDbEntity
  8
0
  6
Continuous
 62
     7
100
AcDbPolyline
 90
        2
 70
     0
 43
0.15
 10
640.879979826958
 20
156.4850467807557
 10
640.879979826958
 20
157.9846251375556
  0
LWPOLYLINE
  5
20E
330
44
100
AcDbEntity
  8
0
  6
Continuous
 62
     7
100
AcDbPolyline
 90
        2
 70
     0
 43
0.15
 10
628.879985310658
 20
156.4850467807557
 10
640.879979826958
 20
156.4850467807557
  0
LWPOLYLINE
  5
20F
330
44
100
AcDbEntity
  8
0
  6
Continuous
 62
     7
100
AcDbPolyline
 90
        2
 70
     0
 43
0.15
 10
391.234038867558
 20
151.2846234805556
 10
390.867433049258
 20
151.2846234805556
  0
LWPOLYLINE
  5
210
330
44
100
AcDbEntity
  8
0
  6
Continuous
 62
     7
100
AcDbPolyline
 90
        2
 70
     0
 43
0.15
 10
530.8925570030581
 20
151.2846234805556
 10
530.5259511848581
 20
151.2846234805556
  0
LWPOLYLINE
  5
211
330
44
100
AcDbEntity
  8
0
  6
Continuous
 62
     7
100
AcDbPolyline
 90
        2
 70
     0
 43
0.15
 10
396.120978989158
 20
68.98470903665563
 10
398.379987575558
 20
68.98470903665563
  0
LWPOLYLINE
  5
212
330
44
100
AcDbEntity
  8
0
  6
Continuous
 62
     7
100
AcDbPolyline
 90
        2
 70
     0
 43
0.15
 10
523.3799857129579
 20
68.98470903665563
 10
535.879983105258
 20
68.98470903665563
  0
LWPOLYLINE
  5
213
330
44
100
AcDbEntity
  8
0
  6
Continuous
 62
     7
100
AcDbPolyline
 90
        2
 70
     0
 43
0.15
 10
539.6299832542579
 20
158.9846271640556
 10
536.898063965658
 20
158.9846271640556
  0
LWPOLYLINE
  5
214
330
44
100
AcDbEntity
  8
0
  6
Continuous
 62
     7
100
AcDbPolyline
 90
        2
 70
     0
 43
0.15
 10
384.861907460258
 20
158.9846271640556
 10
382.129988171658
 20
158.9846271640556
  0
LINE
  5
215
330
44
100
AcDbEntity
  8
0
  6
CENTERX2
 62
     7
100
AcDbLine
 10
460.879984800358
 20
235.3604238578556
 30
0.0
 11
460.879984800358
 21
-2.01529295884436
 31
0.0
  0
LWPOLYLINE
  5
216
330
44
100
AcDbEntity
  8
0
  6
Continuous
 62
     7
100
AcDbPolyline
 90
        2
 70
     0
 43
0.15
 10
483.073148414958
 20
235.0846338636556
 10
483.073148414958
 20
235.0846338636556
  0
LWPOLYLINE
  5
217
330
44
100
AcDbEntity
  8
0
  6
Continuous
 62
     7
100
AcDbPolyline
 90
        2
 70
     0
 43
0.15
 10
535.879984800358
 20
100.4847070411556
 42
0.4142135623731
 10
533.879984800358
 20
102.4847070411556
 42
0.4142135623731
  0
LWPOLYLINE
  5
218
330
44
100
AcDbEntity
  8
0
  6
Continuous
 62
     7
100
AcDbPolyline
 90
        2
 70
     0
 43
0.15
 10
387.879984800358
 20
102.4847070411556
 42
0.4142135623731
 10
385.879984800358
 20
100.4847070411556
 42
0.4142135623731
  0
LWPOLYLINE
  5
219
330
44
100
AcDbEntity
  8
0
  6
Continuous
 62
     7
100
AcDbPolyline
 90
        2
 70
     0
 43
0.15
 10
533.879984800358
 20
90.48470704115564
 42
0.4142135623731
 10
535.879984800358
 20
92.48470704115564
 42
0.4142135623731
  0
LWPOLYLINE
  5
21A
330
44
100
AcDbEntity
  8
0
  6
Continuous
 62
     7
100
AcDbPolyline
 90
        2
 70
     0
 43
0.15
 10
385.879984800358
 20
92.48470704115564
 42
0.4142135623731
 10
387.879984800358
 20
90.48470704115564
 42
0.4142135623731
  0
LWPOLYLINE
  5
21B
330
44
100
AcDbEntity
  8
0
  6
Continuous
 62
     7
100
AcDbPolyline
 90
        2
 70
     0
 43
0.15
 10
527.879984800358
 20
92.48470704115564
 42
0.4142135623731
 10
529.879984800358
 20
90.48470704115564
 42
0.4142135623731
  0
LWPOLYLINE
  5
21C
330
44
100
AcDbEntity
  8
0
  6
Continuous
 62
     7
100
AcDbPolyline
 90
        2
 70
     0
 43
0.15
 10
391.879984800358
 20
90.48470704115564
 42
0.4142135623731
 10
393.879984800358
 20
92.48470704115564
 42
0.4142135623731
  0
LWPOLYLINE
  5
21D
330
44
100
AcDbEntity
  8
0
  6
Continuous
 62
     7
100
AcDbPolyline
 90
        2
 70
     0
 43
0.15
 10
529.879984800358
 20
102.4847070411556
 42
0.4142135623731
 10
527.879984800358
 20
100.4847070411556
 42
0.4142135623731
  0
LWPOLYLINE
  5
21E
330
44
100
AcDbEntity
  8
0
  6
Continuous
 62
     7
100
AcDbPolyline
 90
        2
 70
     0
 43
0.15
 10
393.879984800358
 20
100.4847070411556
 42
0.4142135623731
 10
391.879984800358
 20
102.4847070411556
 42
0.4142135623731
  0
LWPOLYLINE
  5
21F
330
44
100
AcDbEntity
  8
0
  6
Continuous
 62
     7
100
AcDbPolyline
 90
        2
 70
     0
 43
0.15
 10
385.479984800358
 20
131.9846271544556
 42
0.4142135623731
 10
386.479984800358
 20
130.9846271544556
 42
0.4142135623731
  0
LWPOLYLINE
  5
220
330
44
100
AcDbEntity
  8
0
  6
Continuous
 62
     7
100
AcDbPolyline
 90
        2
 70
     0
 43
0.15
 10
386.479984800358
 20
132.9846271544556
 42
0.4142135623731
 10
385.479984800358
 20
131.9846271544556
 42
0.4142135623731
  0
LWPOLYLINE
  5
221
330
44
100
AcDbEntity
  8
0
  6
Continuous
 62
     7
100
AcDbPolyline
 90
        2
 70
     0
 43
0.15
 10
412.431402896658
 20
234.9846331544556
 42
0.31529878994921
 10
398.336013564893
 20
225.1149352494556
 42
0.31529878994921
  0
LWPOLYLINE
  5
222
330
44
100
AcDbEntity
  8
0
  6
Continuous
 62
     7
100
AcDbPolyline
 90
        2
 70
     0
 43
0.15
 10
523.423956035823
 20
225.1149352494556
 42
0.31529878994921
 10
509.328566704058
 20
234.9846331544556
 42
0.31529878994921
  0
LWPOLYLINE
  5
223
330
44
100
AcDbEntity
  8
0
  6
Continuous
 62
     7
100
AcDbPolyline
 90
        2
 70
     0
 43
0.15
 10
536.2799848003581
 20
131.9846271544556
 42
0.4142135623731
 10
535.2799848003581
 20
132.9846271544556
 42
0.4142135623731
  0
LWPOLYLINE
  5
224
330
44
100
AcDbEntity
  8
0
  6
Continuous
 62
     7
100
AcDbPolyline
 90
        2
 70
     0
 43
0.15
 10
535.2799848003581
 20
130.9846271544556
 42
0.4142135623731
 10
536.2799848003581
 20
131.9846271544556
 42
0.4142135623731
  0
LWPOLYLINE
  5
225
330
44
100
AcDbEntity
  8
0
  6
Continuous
 62
     7
100
AcDbPolyline
 90
        2
 70
     0
 43
0.15
 10
380.879984800358
 20
71.98470904115564
 42
0.39058548904151
 10
388.22998480036
 20
64.01115901622964
 42
0.39058548904151
  0
LWPOLYLINE
  5
226
330
44
100
AcDbEntity
  8
0
  6
Continuous
 62
     7
100
AcDbPolyline
 90
        2
 70
     0
 43
0.15
 10
533.529984800356
 20
64.01115901622964
 42
0.39058548904151
 10
540.879984800358
 20
71.98470904115564
 42
0.39058548904151
  0
LWPOLYLINE
  5
227
330
44
100
AcDbEntity
  8
0
  6
Continuous
 62
     7
100
AcDbPolyline
 90
        2
 70
     0
 43
0.15
 10
385.879984800358
 20
68.98470904115564
 42
0.4142135623731
 10
388.379984800358
 20
66.48470904115564
 42
0.4142135623731
  0
LWPOLYLINE
  5
228
330
44
100
AcDbEntity
  8
0
  6
Continuous
 62
     7
100
AcDbPolyline
 90
        2
 70
     0
 43
0.15
 10
533.379984800358
 20
66.48470904115564
 42
0.4142135623731
 10
535.879984800358
 20
68.98470904115564
 42
0.4142135623731
  0
LWPOLYLINE
  5
229
330
44
100
AcDbEntity
  8
0
  6
Continuous
 62
     7
100
AcDbPolyline
 90
        2
 70
     0
 43
0.15
 10
393.629984800358
 20
127.1861979128557
 42
0.4142135623731
 10
391.629984800358
 20
125.1861979128557
 42
0.4142135623731
  0
LWPOLYLINE
  5
22A
330
44
100
AcDbEntity
  8
0
  6
Continuous
 62
     7
100
AcDbPolyline
 90
        2
 70
     0
 43
0.15
 10
396.129984800358
 20
127.6861979128557
 42
0.4142135623731
 10
394.129984800358
 20
129.6861979128557
 42
0.4142135623731
  0
LWPOLYLINE
  5
22B
330
44
100
AcDbEntity
  8
0
  6
Continuous
 62
     7
100
AcDbPolyline
 90
        2
 70
     0
 43
0.15
 10
527.629984800358
 20
129.6861979128557
 42
0.4142135623731
 10
525.629984800358
 20
127.6861979128557
 42
0.4142135623731
  0
LWPOLYLINE
  5
22C
330
44
100
AcDbEntity
  8
0
  6
Continuous
 62
     7
100
AcDbPolyline
 90
        2
 70
     0
 43
0.15
 10
530.129984800358
 20
125.1861979128557
 42
0.4142135623731
 10
528.129984800358
 20
127.1861979128557
 42
0.4142135623731
  0
LWPOLYLINE
  5
22D
330
44
100
AcDbEntity
  8
0
  6
Continuous
 62
     7
100
AcDbPolyline
 90
        2
 70
     0
 43
0.15
 10
640.879984800358
 20
157.9846271544556
 42
0.4142135623731
 10
638.879984800358
 20
159.9846271544556
 42
0.4142135623731
  0
LWPOLYLINE
  5
22E
330
44
100
AcDbEntity
  8
0
  6
Continuous
 62
     7
100
AcDbPolyline
 90
        2
 70
     0
 43
0.15
 10
282.879984800358
 20
159.9846271544556
 42
0.4142135623731
 10
280.879984800358
 20
157.9846271544556
 42
0.4142135623731
  0
LWPOLYLINE
  5
22F
330
44
100
AcDbEntity
  8
0
  6
Continuous
 62
     7
100
AcDbPolyline
 90
        2
 70
     0
 43
0.15
 10
540.629981802758
 20
159.9846271544556
 42
0.41421268438055
 10
539.629981802762
 20
158.9846301521106
 42
0.41421268438055
  0
LWPOLYLINE
  5
230
330
44
100
AcDbEntity
  8
0
  6
Continuous
 62
     7
100
AcDbPolyline
 90
        2
 70
     0
 43
0.15
 10
382.129987797954
 20
158.9846301521106
 42
0.41421268438055
 10
381.129987797958
 20
159.9846271544556
 42
0.41421268438055
  0
LWPOLYLINE
  5
231
330
44
100
AcDbEntity
  8
0
  6
Continuous
 62
     7
100
AcDbPolyline
 90
        2
 70
     0
 43
0.15
 10
531.2799848003581
 20
125.1861979128557
 42
0.4142135623731
 10
530.2799848003581
 20
124.1861979128557
 42
0.4142135623731
  0
LWPOLYLINE
  5
232
330
44
100
AcDbEntity
  8
0
  6
Continuous
 62
     7
100
AcDbPolyline
 90
        2
 70
     0
 43
0.15
 10
391.479984800358
 20
124.1861979128557
 42
0.4142135623731
 10
390.479984800358
 20
125.1861979128557
 42
0.4142135623731
  0
LWPOLYLINE
  5
233
330
44
100
AcDbEntity
  8
0
  6
Continuous
 62
     7
100
AcDbPolyline
 90
        2
 70
     0
 43
0.15
 10
529.2799848003581
 20
115.9847070411556
 42
0.4142135623731
 10
530.2799848003581
 20
116.9847070411556
 42
0.4142135623731
  0
LWPOLYLINE
  5
234
330
44
100
AcDbEntity
  8
0
  6
Continuous
 62
     7
100
AcDbPolyline
 90
        2
 70
     0
 43
0.15
 10
391.479984800358
 20
116.9847070411556
 42
0.4142135623731
 10
392.479984800358
 20
115.9847070411556
 42
0.4142135623731
  0
LWPOLYLINE
  5
235
330
44
100
AcDbEntity
  8
0
  6
Continuous
 62
     7
100
AcDbPolyline
 90
        2
 70
     0
 43
0.15
 10
525.379984800358
 20
115.9847070411556
 42
0.4142135623731
 10
524.379984800358
 20
114.9847070411556
 42
0.4142135623731
  0
LWPOLYLINE
  5
236
330
44
100
AcDbEntity
  8
0
  6
Continuous
 62
     7
100
AcDbPolyline
 90
        2
 70
     0
 43
0.15
 10
397.379984800358
 20
114.9847070411556
 42
0.4142135623731
 10
396.379984800358
 20
115.9847070411556
 42
0.4142135623731
  0
LWPOLYLINE
  5
237
330
44
100
AcDbEntity
  8
0
  6
Continuous
 62
     7
100
AcDbPolyline
 90
        2
 70
     0
 43
0.15
 10
387.979984800358
 20
114.9847070411556
 42
0.4142135623731
 10
390.479984800358
 20
112.4847070411556
 42
0.4142135623731
  0
LWPOLYLINE
  5
238
330
44
100
AcDbEntity
  8
0
  6
Continuous
 62
     7
100
AcDbPolyline
 90
        2
 70
     0
 43
0.15
 10
531.2799848003581
 20
112.4847070411556
 42
0.4142135623731
 10
533.7799848003581
 20
114.9847070411556
 42
0.4142135623731
  0
SPLINE
  5
239
330
44
100
AcDbEntity
  8
0
  6
Continuous
 62
     7
100
AcDbSpline
210
0.0
220
0.0
230
1.0
 70
    24
 71
     3
 72
     9
 73
     5
 74
     3
 42
0.0000000001
 43
0.0000000001
 44
0.00000001
 40
0.0
 40
0.0
 40
0.0
 40
0.0
 40
0.2976419018993965
 40
0.5952838037979973
 40
0.5952838037979973
 40
0.5952838037979973
 40
0.5952838037979973
 10
406.308677748028
 20
199.3048703040876
 30
0.0
 10
406.4078917153279
 20
199.3048703040841
 30
0.0
 10
406.6063196499271
 20
199.3048703040771
 30
0.0
 10
406.8047475845265
 20
199.3048703040701
 30
0.0
 10
406.903961551826
 20
199.3048703040666
 30
0.0
 11
406.308677748028
 21
199.3048703040876
 31
0.0
 11
406.6063196499274
 21
199.3048703040771
 31
0.0
 11
406.903961551826
 21
199.3048703040666
 31
0.0
  0
SPLINE
  5
23A
330
44
100
AcDbEntity
  8
0
  6
Continuous
 62
     7
100
AcDbSpline
210
0.0
220
0.0
230
1.0
 70
    24
 71
     3
 72
     9
 73
     5
 74
     3
 42
0.0000000001
 43
0.0000000001
 44
0.00000001
 40
0.0
 40
0.0
 40
0.0
 40
0.0
 40
0.5749999998865292
 40
1.149999999773001
 40
1.149999999773001
 40
1.149999999773001
 40
1.149999999773001
 10
411.644547841595
 20
199.3048703041526
 30
0.0
 10
411.8362145082239
 20
199.3048703041651
 30
0.0
 10
412.2195478414816
 20
199.3048703041902
 30
0.0
 10
412.6028811747391
 20
199.3048703042144
 30
0.0
 10
412.794547841368
 20
199.3048703042266
 30
0.0
 11
411.644547841595
 21
199.3048703041526
 31
0.0
 11
412.2195478414815
 21
199.30487030419
 31
0.0
 11
412.794547841368
 21
199.3048703042266
 31
0.0
  0
SPLINE
  5
23B
330
44
100
AcDbEntity
  8
0
  6
Continuous
 62
     7
100
AcDbSpline
210
0.0
220
0.0
230
1.0
 70
    24
 71
     3
 72
     9
 73
     5
 74
     3
 42
0.0000000001
 43
0.0000000001
 44
0.00000001
 40
0.0
 40
0.0
 40
0.0
 40
0.0
 40
0.8131727984499548
 40
1.626345596899966
 40
1.626345596899966
 40
1.626345596899966
 40
1.626345596899966
 10
420.335731599055
 20
199.3048703040406
 30
0.0
 10
420.6067891985383
 20
199.3048703040328
 30
0.0
 10
421.148904397505
 20
199.3048703040172
 30
0.0
 10
421.6910195964716
 20
199.3048703040014
 30
0.0
 10
421.962077195955
 20
199.3048703039936
 30
0.0
 11
420.335731599055
 21
199.3048703040406
 31
0.0
 11
421.148904397505
 21
199.3048703040171
 31
0.0
 11
421.962077195955
 21
199.3048703039936
 31
0.0
  0
SPLINE
  5
23C
330
44
100
AcDbEntity
  8
0
  6
Continuous
 62
     7
100
AcDbSpline
210
0.0
220
0.0
230
1.0
 70
    24
 71
     3
 72
     9
 73
     5
 74
     3
 42
0.0000000001
 43
0.0000000001
 44
0.00000001
 40
0.0
 40
0.0
 40
0.0
 40
0.0
 40
0.9959292143660718
 40
1.99185842873203
 40
1.99185842873203
 40
1.99185842873203
 40
1.99185842873203
 10
431.789939209114
 20
199.3048703040876
 30
0.0
 10
432.1219156139026
 20
199.3048703040866
 30
0.0
 10
432.7858684234801
 20
199.3048703040847
 30
0.0
 10
433.4498212330573
 20
199.3048703040826
 30
0.0
 10
433.781797637846
 20
199.3048703040816
 30
0.0
 11
431.789939209114
 21
199.3048703040876
 31
0.0
 11
432.7858684234801
 21
199.3048703040846
 31
0.0
 11
433.781797637846
 21
199.3048703040816
 31
0.0
  0
SPLINE
  5
23D
330
44
100
AcDbEntity
  8
0
  6
Continuous
 62
     7
100
AcDbSpline
210
0.0
220
0.0
230
1.0
 70
    24
 71
     3
 72
     9
 73
     5
 74
     3
 42
0.0000000001
 43
0.0000000001
 44
0.00000001
 40
0.0
 40
0.0
 40
0.0
 40
0.0
 40
1.110814700162052
 40
2.221629400324105
 40
2.221629400324105
 40
2.221629400324105
 40
2.221629400324105
 10
445.226585352722
 20
199.3048703040986
 30
0.0
 10
445.5968569194426
 20
199.3048703041015
 30
0.0
 10
446.3374000528839
 20
199.3048703041072
 30
0.0
 10
447.0779431863255
 20
199.3048703041121
 30
0.0
 10
447.4482147530461
 20
199.3048703041146
 30
0.0
 11
445.226585352722
 21
199.3048703040986
 31
0.0
 11
446.337400052884
 21
199.304870304107
 31
0.0
 11
447.4482147530461
 21
199.3048703041146
 31
0.0
  0
SPLINE
  5
23E
330
44
100
AcDbEntity
  8
0
  6
Continuous
 62
     7
100
AcDbSpline
210
0.0
220
0.0
230
1.0
 70
    24
 71
     3
 72
     9
 73
     5
 74
     3
 42
0.0000000001
 43
0.0000000001
 44
0.00000001
 40
0.0
 40
0.0
 40
0.0
 40
0.0
 40
1.150000000029138
 40
2.300000000059015
 40
2.300000000059015
 40
2.300000000059015
 40
2.300000000059015
 10
459.72998480033
 20
199.3048703040927
 30
0.0
 10
460.113318133673
 20
199.3048703040927
 30
0.0
 10
460.8799848003594
 20
199.3048703040927
 30
0.0
 10
461.6466514670457
 20
199.3048703040927
 30
0.0
 10
462.029984800389
 20
199.3048703040927
 30
0.0
 11
459.72998480033
 21
199.3048703040927
 31
0.0
 11
460.8799848003591
 21
199.3048703040927
 31
0.0
 11
462.029984800389
 21
199.3048703040927
 31
0.0
  0
SPLINE
  5
23F
330
44
100
AcDbEntity
  8
0
  6
Continuous
 62
     7
100
AcDbSpline
210
0.0
220
0.0
230
1.0
 70
    24
 71
     3
 72
     9
 73
     5
 74
     3
 42
0.0000000001
 43
0.0000000001
 44
0.00000001
 40
0.0
 40
0.0
 40
0.0
 40
0.0
 40
1.110814700162393
 40
2.221629400324048
 40
2.221629400324048
 40
2.221629400324048
 40
2.221629400324048
 10
474.311754847672
 20
199.3048703041146
 30
0.0
 10
474.6820264143928
 20
199.3048703041121
 30
0.0
 10
475.4225695478341
 20
199.3048703041072
 30
0.0
 10
476.1631126812754
 20
199.3048703041015
 30
0.0
 10
476.533384247996
 20
199.3048703040986
 30
0.0
 11
474.311754847672
 21
199.3048703041146
 31
0.0
 11
475.4225695478344
 21
199.304870304107
 31
0.0
 11
476.533384247996
 21
199.3048703040986
 31
0.0
  0
SPLINE
  5
240
330
44
100
AcDbEntity
  8
0
  6
Continuous
 62
     7
100
AcDbSpline
210
0.0
220
0.0
230
1.0
 70
    24
 71
     3
 72
     9
 73
     5
 74
     3
 42
0.0000000001
 43
0.0000000001
 44
0.00000001
 40
0.0
 40
0.0
 40
0.0
 40
0.0
 40
0.9959292143655034
 40
1.991858428731007
 40
1.991858428731007
 40
1.991858428731007
 40
1.991858428731007
 10
487.978171962873
 20
199.3048703040816
 30
0.0
 10
488.3101483676614
 20
199.3048703040826
 30
0.0
 10
488.9741011772385
 20
199.3048703040847
 30
0.0
 10
489.6380539868155
 20
199.3048703040866
 30
0.0
 10
489.970030391604
 20
199.3048703040876
 30
0.0
 11
487.978171962873
 21
199.3048703040816
 31
0.0
 11
488.9741011772385
 21
199.3048703040847
 31
0.0
 11
489.970030391604
 21
199.3048703040876
 31
0.0
  0
SPLINE
  5
241
330
44
100
AcDbEntity
  8
0
  6
Continuous
 62
     7
100
AcDbSpline
210
0.0
220
0.0
230
1.0
 70
    24
 71
     3
 72
     9
 73
     5
 74
     3
 42
0.0000000001
 43
0.0000000001
 44
0.00000001
 40
0.0
 40
0.0
 40
0.0
 40
0.0
 40
0.8131727984494432
 40
1.626345596899
 40
1.626345596899
 40
1.626345596899
 40
1.626345596899
 10
499.797892404764
 20
199.3048703039936
 30
0.0
 10
500.0689500042472
 20
199.3048703040015
 30
0.0
 10
500.6110652032135
 20
199.3048703040172
 30
0.0
 10
501.1531804021798
 20
199.3048703040328
 30
0.0
 10
501.424238001663
 20
199.3048703040406
 30
0.0
 11
499.797892404764
 21
199.3048703039936
 31
0.0
 11
500.6110652032135
 21
199.3048703040172
 31
0.0
 11
501.424238001663
 21
199.3048703040406
 31
0.0
  0
SPLINE
  5
242
330
44
100
AcDbEntity
  8
0
  6
Continuous
 62
     7
100
AcDbSpline
210
0.0
220
0.0
230
1.0
 70
    24
 71
     3
 72
     9
 73
     5
 74
     3
 42
0.0000000001
 43
0.0000000001
 44
0.00000001
 40
0.0
 40
0.0
 40
0.0
 40
0.0
 40
0.5749999998863586
 40
1.149999999772035
 40
1.149999999772035
 40
1.149999999772035
 40
1.149999999772035
 10
508.965421759351
 20
199.3048703042266
 30
0.0
 10
509.1570884259797
 20
199.3048703042145
 30
0.0
 10
509.5404217592371
 20
199.3048703041902
 30
0.0
 10
509.9237550924945
 20
199.3048703041651
 30
0.0
 10
510.115421759123
 20
199.3048703041526
 30
0.0
 11
508.965421759351
 21
199.3048703042266
 31
0.0
 11
509.5404217592373
 21
199.30487030419
 31
0.0
 11
510.115421759123
 21
199.3048703041526
 31
0.0
  0
SPLINE
  5
243
330
44
100
AcDbEntity
  8
0
  6
Continuous
 62
     7
100
AcDbSpline
210
0.0
220
0.0
230
1.0
 70
    24
 71
     3
 72
     9
 73
     5
 74
     3
 42
0.0000000001
 43
0.0000000001
 44
0.00000001
 40
0.0
 40
0.0
 40
0.0
 40
0.0
 40
0.2976419018992829
 40
0.5952838037979973
 40
0.5952838037979973
 40
0.5952838037979973
 40
0.5952838037979973
 10
514.856008048892
 20
199.3048703040656
 30
0.0
 10
514.9552220161918
 20
199.3048703040694
 30
0.0
 10
515.1536499507913
 20
199.3048703040773
 30
0.0
 10
515.3520778853906
 20
199.3048703040842
 30
0.0
 10
515.45129185269
 20
199.3048703040876
 30
0.0
 11
514.856008048892
 21
199.3048703040656
 31
0.0
 11
515.1536499507913
 21
199.304870304077
 31
0.0
 11
515.45129185269
 21
199.3048703040876
 31
0.0
  0
DIMENSION
  5
25C
330
44
100
AcDbEntity
  8
1
100
AcDbDimension
  2
*D3
 10
280.8799798467856
 20
260.8445047525888
 30
0.0
 11
459.5556049525079
 21
267.844505753619
 31
0.0
 70
    33
  1
<>
 71
     5
 42
-1.0
 53
0.00013888888889
  3
ME10_DIM_10
100
AcDbAlignedDimension
 13
640.879984800358
 23
157.9846271544556
 33
0.0
 14
280.879980423058
 24
157.9846251375556
 34
0.0
  0
DIMENSION
  5
267
330
44
100
AcDbEntity
  8
1
100
AcDbDimension
  2
*D4
 10
398.379987575558
 20
-22.973848895926
 30
0.0
 11
461.316017293909
 21
-15.973848895926
 31
0.0
 70
    33
  1
<>
 71
     5
 42
-1.0
 53
0.00013888888889
  3
ME10_DIM_11
100
AcDbAlignedDimension
 13
523.3799857129579
 23
4.98470995495563
 33
0.0
 14
398.379987575558
 24
4.98470995495563
 34
0.0
  0
DIMENSION
  5
272
330
44
100
AcDbEntity
  8
1
100
AcDbDimension
  2
*D5
 10
380.779987670958
 20
-49.48517093035409
 30
0.0
 11
461.667168254368
 21
-42.48517093035409
 31
0.0
 70
    33
  1
<>
 71
     5
 42
-1.0
 53
0.00013888888889
  3
ME10_DIM_12
100
AcDbAlignedDimension
 13
540.9799837549581
 23
73.98470915775565
 33
0.0
 14
380.779987670958
 24
73.98470915775565
 34
0.0
  0
DIMENSION
  5
27D
330
44
100
AcDbEntity
  8
1
100
AcDbDimension
  2
*D6
 10
262.867771541371
 20
159.9846291906556
 30
0.0
 11
255.867771541371
 21
112.896008063021
 31
0.0
 70
    32
  1
<>
 71
     5
 42
-1.0
 53
90.0
  3
ME10_DIM_13
100
AcDbAlignedDimension
 13
388.22998480036
 23
64.01115901622964
 33
0.0
 14
282.879984476158
 24
159.9846291906556
 34
0.0
 50
90.0
100
AcDbRotatedDimension
  0
DIMENSION
  5
288
330
44
100
AcDbEntity
  8
1
100
AcDbDimension
  2
*D7
 10
240.988190762881
 20
159.9846291906556
 30
0.0
 11
233.988190762881
 21
77.9799433324073
 31
0.0
 70
    32
  1
<>
 71
     5
 42
-1.0
 53
90.0
  3
ME10_DIM_14
100
AcDbAlignedDimension
 13
401.8799872179581
 23
-0.01529272724437
 33
0.0
 14
282.879984476158
 24
159.9846291906556
 34
0.0
 50
90.0
100
AcDbRotatedDimension
  0
HATCH
  5
289
330
44
100
AcDbEntity
  8
0
  6
Continuous
 62
     7
100
AcDbHatch
 10
0.0
 20
0.0
 30
0.0
210
0.0
220
0.0
230
1.0
  2
CUSTOM0
 70
     0
 71
     0
 91
        1
 92
        1
 93
       13
 72
     1
 10
640.879984800358
 20
156.4850480411556
 11
640.879984800358
 21
157.9846271544556
 72
     1
 10
640.879984800358
 20
157.9846271544556
 11
640.8401179560419
 21
158.3819658160666
 72
     1
 10
640.8401179560419
 20
158.3819658160666
 11
640.722106788365
 21
158.7634638390937
 72
     1
 10
640.722106788365
 20
158.7634638390937
 11
640.530656030179
 21
159.1139121012666
 72
     1
 10
640.530656030179
 20
159.1139121012666
 11
640.273398219053
 21
159.4193393362756
 72
     1
 10
640.273398219053
 20
159.4193393362756
 11
639.960589412095
 21
159.6675691240926
 72
     1
 10
639.960589412095
 20
159.6675691240926
 11
639.604700309313
 21
159.8487053264106
 72
     1
 10
639.604700309313
 20
159.8487053264106
 11
639.21991908616
 21
159.9555266144537
 72
     1
 10
639.21991908616
 20
159.9555266144537
 11
638.879984800358
 21
159.9846271544556
 72
     1
 10
638.879984800358
 20
159.9846271544556
 11
630.879984800359
 21
159.9846271544766
 72
     1
 10
630.879984800359
 20
159.9846271544766
 11
628.879984800359
 21
157.9846271544766
 72
     1
 10
628.879984800359
 20
157.9846271544766
 11
628.879984800359
 21
156.4850480411637
 72
     1
 10
628.879984800359
 20
156.4850480411637
 11
640.879984800358
 21
156.4850480411556
 97
        0
 75
     1
 76
     2
 52
0.0
 41
1.0
 77
     0
 78
     1
 53
44.99999999999998
 43
0.0
 44
0.0
 45
-4.490128060534577
 46
0.0000000000000018
 79
     0
 98
        1
 10
0.0
 20
0.0
  0
HATCH
  5
28A
330
44
100
AcDbEntity
  8
0
  6
Continuous
 62
     7
100
AcDbHatch
 10
0.0
 20
0.0
 30
0.0
210
0.0
220
0.0
230
1.0
  2
CUSTOM1
 70
     0
 71
     0
 91
        1
 92
        1
 93
       71
 72
     1
 10
527.879984800359
 20
112.4847070411636
 11
531.2799848003581
 21
112.4847070411556
 72
     1
 10
531.2799848003581
 20
112.4847070411556
 11
531.776658127347
 21
112.5345405965606
 72
     1
 10
531.776658127347
 20
112.5345405965606
 11
532.253530656131
 21
112.6820545561567
 72
     1
 10
532.253530656131
 20
112.6820545561567
 11
532.6915909838469
 21
112.9213680038896
 72
     1
 10
532.6915909838469
 20
112.9213680038896
 11
533.073375027608
 21
113.2429402677956
 72
     1
 10
533.073375027608
 20
113.2429402677956
 11
533.383662262379
 21
113.6339512764936
 72
     1
 10
533.383662262379
 20
113.6339512764936
 11
533.610082515277
 21
114.0788126549726
 72
     1
 10
533.610082515277
 20
114.0788126549726
 11
533.7436091253301
 21
114.5597891839136
 72
     1
 10
533.7436091253301
 20
114.5597891839136
 11
533.7799848003581
 21
114.9847070411556
 72
     1
 10
533.7799848003581
 20
114.9847070411556
 11
533.779984800359
 21
121.6866490411636
 72
     1
 10
533.779984800359
 20
121.6866490411636
 11
537.479984800359
 21
121.6866490411636
 72
     1
 10
537.479984800359
 20
121.6866490411636
 11
538.129984800359
 21
73.98470904116365
 72
     1
 10
538.129984800359
 20
73.98470904116365
 11
540.979984800358
 21
73.98470904115564
 72
     1
 10
540.979984800358
 20
73.98470904115564
 11
540.979984800359
 21
138.5847070411636
 72
     1
 10
540.979984800359
 20
138.5847070411636
 11
543.1299658003591
 21
142.3847070411636
 72
     1
 10
543.1299658003591
 20
142.3847070411636
 11
543.129984800359
 21
156.4850480411637
 72
     1
 10
543.129984800359
 20
156.4850480411637
 11
624.879984800359
 21
156.4850480411637
 72
     1
 10
624.879984800359
 20
156.4850480411637
 11
624.879984800359
 21
157.9846271544766
 72
     1
 10
624.879984800359
 20
157.9846271544766
 11
622.879984800359
 21
159.9846271544766
 72
     1
 10
622.879984800359
 20
159.9846271544766
 11
540.629981802758
 21
159.9846271544556
 72
     1
 10
540.629981802758
 20
159.9846271544556
 11
540.4313124719849
 21
159.9646937323176
 72
     1
 10
540.4313124719849
 20
159.9646937323176
 11
540.240563460471
 21
159.9056881484796
 72
     1
 10
540.240563460471
 20
159.9056881484796
 11
540.065339329385
 21
159.8099627693867
 72
     1
 10
540.065339329385
 20
159.8099627693867
 11
539.9126257118801
 21
159.6813338638237
 72
     1
 10
539.9126257118801
 20
159.6813338638237
 11
539.788510817972
 21
159.5249294603446
 72
     1
 10
539.788510817972
 20
159.5249294603446
 11
539.697942716812
 21
159.3469849089537
 72
     1
 10
539.697942716812
 20
159.3469849089537
 11
539.644532072791
 21
159.1545942973766
 72
     1
 10
539.644532072791
 20
159.1545942973766
 11
539.629981802762
 21
158.9846301521106
 72
     1
 10
539.629981802762
 20
158.9846301521106
 11
539.629934746439
 21
143.2865394744386
 72
     1
 10
539.629934746439
 20
143.2865394744386
 11
535.630073164213
 21
136.3847070411636
 72
     1
 10
535.630073164213
 20
136.3847070411636
 11
535.630073164213
 21
135.4847070411636
 72
     1
 10
535.630073164213
 20
135.4847070411636
 11
536.379984800359
 21
135.0416259128216
 72
     1
 10
536.379984800359
 20
135.0416259128216
 11
536.379984800359
 21
130.7847070411636
 72
     1
 10
536.379984800359
 20
130.7847070411636
 11
537.879984800359
 21
129.7847070411636
 72
     1
 10
537.879984800359
 20
129.7847070411636
 11
537.879984800359
 21
125.1861979128217
 72
     1
 10
537.879984800359
 20
125.1861979128217
 11
531.2799848003581
 21
125.1861979128557
 72
     1
 10
531.2799848003581
 20
125.1861979128557
 11
531.0813154695641
 21
125.1662644906627
 72
     1
 10
531.0813154695641
 20
125.1662644906627
 11
530.890566458051
 21
125.1072589068246
 72
     1
 10
530.890566458051
 20
125.1072589068246
 11
530.715342326964
 21
125.0115335277316
 72
     1
 10
530.715342326964
 20
125.0115335277316
 11
530.56262870946
 21
124.8829046221686
 72
     1
 10
530.56262870946
 20
124.8829046221686
 11
530.438513815551
 21
124.7265002186896
 72
     1
 10
530.438513815551
 20
124.7265002186896
 11
530.3479457143919
 21
124.5485556672986
 72
     1
 10
530.3479457143919
 20
124.5485556672986
 11
530.294535070371
 21
124.3561650557216
 72
     1
 10
530.294535070371
 20
124.3561650557216
 11
530.2799848003581
 21
124.1861979128557
 72
     1
 10
530.2799848003581
 20
124.1861979128557
 11
530.2799848003581
 21
116.9847070411556
 72
     1
 10
530.2799848003581
 20
116.9847070411556
 11
530.2600513782011
 21
116.7860377103686
 72
     1
 10
530.2600513782011
 20
116.7860377103686
 11
530.201045794362
 21
116.5952886988556
 72
     1
 10
530.201045794362
 20
116.5952886988556
 11
530.105320415269
 21
116.4200645677686
 72
     1
 10
530.105320415269
 20
116.4200645677686
 11
529.976691509706
 21
116.2673509502646
 72
     1
 10
529.976691509706
 20
116.2673509502646
 11
529.8202871062269
 21
116.1432360563556
 72
     1
 10
529.8202871062269
 20
116.1432360563556
 11
529.642342554836
 21
116.0526679551967
 72
     1
 10
529.642342554836
 20
116.0526679551967
 11
529.44995194326
 21
115.9992573111756
 72
     1
 10
529.44995194326
 20
115.9992573111756
 11
529.2799848003581
 21
115.9847070411556
 72
     1
 10
529.2799848003581
 20
115.9847070411556
 11
525.379984800358
 21
115.9847070411556
 72
     1
 10
525.379984800358
 20
115.9847070411556
 11
525.181315469564
 21
115.9647736190056
 72
     1
 10
525.181315469564
 20
115.9647736190056
 11
524.990566458051
 21
115.9057680351666
 72
     1
 10
524.990566458051
 20
115.9057680351666
 11
524.815342326964
 21
115.8100426560737
 72
     1
 10
524.815342326964
 20
115.8100426560737
 11
524.66262870946
 21
115.6814137505106
 72
     1
 10
524.66262870946
 20
115.6814137505106
 11
524.538513815551
 21
115.5250093470316
 72
     1
 10
524.538513815551
 20
115.5250093470316
 11
524.4479457143921
 21
115.3470647956407
 72
     1
 10
524.4479457143921
 20
115.3470647956407
 11
524.394535070371
 21
115.1546741840647
 72
     1
 10
524.394535070371
 20
115.1546741840647
 11
524.379984800358
 21
114.9847070411556
 72
     1
 10
524.379984800358
 20
114.9847070411556
 11
524.379984800359
 21
76.4842574836106
 72
     1
 10
524.379984800359
 20
76.4842574836106
 11
519.879984800359
 21
76.4842574836106
 72
     1
 10
519.879984800359
 20
76.4842574836106
 11
519.879984800359
 21
-0.015292958836369
 72
     1
 10
519.879984800359
 20
-0.015292958836369
 11
522.040238838203
 21
-0.015292958836369
 72
     1
 10
522.040238838203
 20
-0.015292958836369
 11
523.379984800358
 21
4.984707041155644
 72
     1
 10
523.379984800358
 20
4.984707041155644
 11
523.379984800359
 21
72.7347070411636
 72
     1
 10
523.379984800359
 20
72.7347070411636
 11
525.379984800359
 21
72.98470904116365
 72
     1
 10
525.379984800359
 20
72.98470904116365
 11
527.879984800359
 21
72.98470904116365
 72
     1
 10
527.879984800359
 20
72.98470904116365
 11
527.879984800359
 21
112.4847070411636
 97
        0
 75
     1
 76
     2
 52
0.0
 41
1.0
 77
     0
 78
     1
 53
44.99999999999998
 43
0.0
 44
0.0
 45
-4.490128060534577
 46
0.0000000000000018
 79
     0
 98
        1
 10
0.0
 20
0.0
  0
HATCH
  5
28B
330
44
100
AcDbEntity
  8
0
  6
Continuous
 62
     7
100
AcDbHatch
 10
0.0
 20
0.0
 30
0.0
210
0.0
220
0.0
230
1.0
  2
CUSTOM2
 70
     0
 71
     0
 91
        1
 92
        1
 93
       71
 72
     1
 10
387.979984800359
 20
121.6866490411636
 11
387.979984800358
 21
114.9847070411556
 72
     1
 10
387.979984800358
 20
114.9847070411556
 11
388.029818355756
 21
114.4880337141766
 72
     1
 10
388.029818355756
 20
114.4880337141766
 11
388.177332315352
 21
114.0111611853926
 72
     1
 10
388.177332315352
 20
114.0111611853926
 11
388.416645763085
 21
113.5731008576766
 72
     1
 10
388.416645763085
 20
113.5731008576766
 11
388.738218026991
 21
113.1913168139147
 72
     1
 10
388.738218026991
 20
113.1913168139147
 11
389.129229035689
 21
112.8810295791446
 72
     1
 10
389.129229035689
 20
112.8810295791446
 11
389.574090414168
 21
112.6546093262456
 72
     1
 10
389.574090414168
 20
112.6546093262456
 11
390.055066943109
 21
112.5210827161926
 72
     1
 10
390.055066943109
 20
112.5210827161926
 11
390.479984800358
 21
112.4847070411556
 72
     1
 10
390.479984800358
 20
112.4847070411556
 11
393.879984800359
 21
112.4847070411636
 72
     1
 10
393.879984800359
 20
112.4847070411636
 11
393.879984800359
 21
72.98470904116365
 72
     1
 10
393.879984800359
 20
72.98470904116365
 11
396.379984800359
 21
72.98470904116365
 72
     1
 10
396.379984800359
 20
72.98470904116365
 11
398.379984800359
 21
72.7347070411636
 72
     1
 10
398.379984800359
 20
72.7347070411636
 11
398.379984800358
 21
4.984707041155644
 72
     1
 10
398.379984800358
 20
4.984707041155644
 11
399.719730762558
 21
-0.0152929588443555
 72
     1
 10
399.719730762558
 20
-0.0152929588443555
 11
401.879984800359
 21
-0.015292958836369
 72
     1
 10
401.879984800359
 20
-0.015292958836369
 11
401.879984800359
 21
76.4842574836106
 72
     1
 10
401.879984800359
 20
76.4842574836106
 11
397.379984800359
 21
76.4842574836106
 72
     1
 10
397.379984800359
 20
76.4842574836106
 11
397.379984800358
 21
114.9847070411556
 72
     1
 10
397.379984800358
 20
114.9847070411556
 11
397.360051378201
 21
115.1833763719586
 72
     1
 10
397.360051378201
 20
115.1833763719586
 11
397.301045794362
 21
115.3741253834726
 72
     1
 10
397.301045794362
 20
115.3741253834726
 11
397.205320415269
 21
115.5493495145587
 72
     1
 10
397.205320415269
 20
115.5493495145587
 11
397.076691509706
 21
115.7020631320636
 72
     1
 10
397.076691509706
 20
115.7020631320636
 11
396.920287106227
 21
115.8261780259716
 72
     1
 10
396.920287106227
 20
115.8261780259716
 11
396.742342554836
 21
115.9167461271316
 72
     1
 10
396.742342554836
 20
115.9167461271316
 11
396.54995194326
 21
115.9701567711526
 72
     1
 10
396.54995194326
 20
115.9701567711526
 11
396.379984800358
 21
115.9847070411556
 72
     1
 10
396.379984800358
 20
115.9847070411556
 11
392.479984800358
 21
115.9847070411556
 72
     1
 10
392.479984800358
 20
115.9847070411556
 11
392.281315469564
 21
116.0046404633227
 72
     1
 10
392.281315469564
 20
116.0046404633227
 11
392.090566458051
 21
116.0636460471606
 72
     1
 10
392.090566458051
 20
116.0636460471606
 11
391.915342326964
 21
116.1593714262546
 72
     1
 10
391.915342326964
 20
116.1593714262546
 11
391.7626287094601
 21
116.2880003318166
 72
     1
 10
391.7626287094601
 20
116.2880003318166
 11
391.638513815551
 21
116.4444047352957
 72
     1
 10
391.638513815551
 20
116.4444047352957
 11
391.547945714392
 21
116.6223492866876
 72
     1
 10
391.547945714392
 20
116.6223492866876
 11
391.494535070371
 21
116.8147398982636
 72
     1
 10
391.494535070371
 20
116.8147398982636
 11
391.479984800358
 21
116.9847070411556
 72
     1
 10
391.479984800358
 20
116.9847070411556
 11
391.479984800358
 21
124.1861979128557
 72
     1
 10
391.479984800358
 20
124.1861979128557
 11
391.460051378201
 21
124.3848672436166
 72
     1
 10
391.460051378201
 20
124.3848672436166
 11
391.401045794362
 21
124.5756162551307
 72
     1
 10
391.401045794362
 20
124.5756162551307
 11
391.305320415269
 21
124.7508403862167
 72
     1
 10
391.305320415269
 20
124.7508403862167
 11
391.176691509706
 21
124.9035540037216
 72
     1
 10
391.176691509706
 20
124.9035540037216
 11
391.020287106227
 21
125.0276688976296
 72
     1
 10
391.020287106227
 20
125.0276688976296
 11
390.842342554836
 21
125.1182369987886
 72
     1
 10
390.842342554836
 20
125.1182369987886
 11
390.64995194326
 21
125.1716476428107
 72
     1
 10
390.64995194326
 20
125.1716476428107
 11
390.479984800358
 21
125.1861979128557
 72
     1
 10
390.479984800358
 20
125.1861979128557
 11
383.879984800359
 21
125.1861979128217
 72
     1
 10
383.879984800359
 20
125.1861979128217
 11
383.879984800359
 21
129.7847070411636
 72
     1
 10
383.879984800359
 20
129.7847070411636
 11
385.379984800359
 21
130.7847070411636
 72
     1
 10
385.379984800359
 20
130.7847070411636
 11
385.379984800359
 21
135.0416259128216
 72
     1
 10
385.379984800359
 20
135.0416259128216
 11
386.129896436505
 21
135.4847070411636
 72
     1
 10
386.129896436505
 20
135.4847070411636
 11
386.129896436505
 21
136.3847070411636
 72
     1
 10
386.129896436505
 20
136.3847070411636
 11
382.13003485428
 21
143.2865394744386
 72
     1
 10
382.13003485428
 20
143.2865394744386
 11
382.129987797954
 21
158.9846301521106
 72
     1
 10
382.129987797954
 20
158.9846301521106
 11
382.110053780233
 21
159.1832994231727
 72
     1
 10
382.110053780233
 20
159.1832994231727
 11
382.051047624595
 21
159.3740482578076
 72
     1
 10
382.051047624595
 20
159.3740482578076
 11
381.9553217202411
 21
159.5492721019416
 72
     1
 10
381.9553217202411
 20
159.5492721019416
 11
381.8266923568961
 21
159.7019853338597
 72
     1
 10
381.8266923568961
 20
159.7019853338597
 11
381.670287581364
 21
159.8260997589206
 72
     1
 10
381.670287581364
 20
159.8260997589206
 11
381.492342758481
 21
159.9166673266637
 72
     1
 10
381.492342758481
 20
159.9166673266637
 11
381.299951986799
 21
159.9700773939636
 72
     1
 10
381.299951986799
 20
159.9700773939636
 11
381.129987797958
 21
159.9846271544556
 72
     1
 10
381.129987797958
 20
159.9846271544556
 11
298.879984800358
 21
159.9846271544556
 72
     1
 10
298.879984800358
 20
159.9846271544556
 11
296.8799848003593
 21
157.9846271544766
 72
     1
 10
296.8799848003593
 20
157.9846271544766
 11
296.8799848003593
 21
156.4850480411637
 72
     1
 10
296.8799848003593
 20
156.4850480411637
 11
378.629984800359
 21
156.4850480411637
 72
     1
 10
378.629984800359
 20
156.4850480411637
 11
378.630003800359
 21
142.3847070411636
 72
     1
 10
378.630003800359
 20
142.3847070411636
 11
380.779984800359
 21
138.5847070411636
 72
     1
 10
380.779984800359
 20
138.5847070411636
 11
380.779984800358
 21
73.98470904115564
 72
     1
 10
380.779984800358
 20
73.98470904115564
 11
383.629984800359
 21
73.98470904116365
 72
     1
 10
383.629984800359
 20
73.98470904116365
 11
384.279984800359
 21
121.6866490411636
 72
     1
 10
384.279984800359
 20
121.6866490411636
 11
387.979984800359
 21
121.6866490411636
 97
        0
 75
     1
 76
     2
 52
0.0
 41
1.0
 77
     0
 78
     1
 53
44.99999999999998
 43
0.0
 44
0.0
 45
-4.490128060534577
 46
0.0000000000000018
 79
     0
 98
        1
 10
0.0
 20
0.0
  0
HATCH
  5
28C
330
44
100
AcDbEntity
  8
0
  6
Continuous
 62
     7
100
AcDbHatch
 10
0.0
 20
0.0
 30
0.0
210
0.0
220
0.0
230
1.0
  2
CUSTOM3
 70
     0
 71
     0
 91
        1
 92
        1
 93
       13
 72
     1
 10
290.8799848003593
 20
159.9846271544766
 11
282.879984800358
 21
159.9846271544556
 72
     1
 10
282.879984800358
 20
159.9846271544556
 11
282.4826461387691
 21
159.9447603101586
 72
     1
 10
282.4826461387691
 20
159.9447603101586
 11
282.101148115742
 21
159.8267491424826
 72
     1
 10
282.101148115742
 20
159.8267491424826
 11
281.7506998535692
 21
159.6352983842956
 72
     1
 10
281.7506998535692
 20
159.6352983842956
 11
281.4452726185602
 21
159.3780405731706
 72
     1
 10
281.4452726185602
 20
159.3780405731706
 11
281.1970428307435
 21
159.0652317662126
 72
     1
 10
281.1970428307435
 20
159.0652317662126
 11
281.0159066284248
 21
158.7093426634296
 72
     1
 10
281.0159066284248
 20
158.7093426634296
 11
280.9090853403823
 21
158.3245614402767
 72
     1
 10
280.9090853403823
 20
158.3245614402767
 11
280.879984800358
 21
157.9846271544556
 72
     1
 10
280.879984800358
 20
157.9846271544556
 11
280.879984800358
 21
156.4850480411556
 72
     1
 10
280.879984800358
 20
156.4850480411556
 11
292.8799848003593
 21
156.4850480411637
 72
     1
 10
292.8799848003593
 20
156.4850480411637
 11
292.8799848003593
 21
157.9846271544766
 72
     1
 10
292.8799848003593
 20
157.9846271544766
 11
290.8799848003593
 21
159.9846271544766
 97
        0
 75
     1
 76
     2
 52
0.0
 41
1.0
 77
     0
 78
     1
 53
44.99999999999998
 43
0.0
 44
0.0
 45
-4.490128060534577
 46
0.0000000000000018
 79
     0
 98
        1
 10
0.0
 20
0.0
  0
HATCH
  5
28D
330
44
100
AcDbEntity
  8
0
  6
Continuous
 62
     7
100
AcDbHatch
 10
0.0
 20
0.0
 30
0.0
210
0.0
220
0.0
230
1.0
  2
CUSTOM4
 70
     0
 71
     0
 91
        1
 92
        1
 93
       22
 72
     1
 10
525.629984800359
 20
127.1861979128217
 11
528.129984800358
 21
127.1861979128557
 72
     1
 10
528.129984800358
 20
127.1861979128557
 11
528.527323461949
 21
127.1463310685046
 72
     1
 10
528.527323461949
 20
127.1463310685046
 11
528.908821484977
 21
127.0283199008277
 72
     1
 10
528.908821484977
 20
127.0283199008277
 11
529.259269747149
 21
126.8368691426406
 72
     1
 10
529.259269747149
 20
126.8368691426406
 11
529.564696982158
 21
126.5796113315156
 72
     1
 10
529.564696982158
 20
126.5796113315156
 11
529.812926769975
 21
126.2668025245576
 72
     1
 10
529.812926769975
 20
126.2668025245576
 11
529.9940629722939
 21
125.9109134217746
 72
     1
 10
529.9940629722939
 20
125.9109134217746
 11
530.100884260336
 21
125.5261321986226
 72
     1
 10
530.100884260336
 20
125.5261321986226
 11
530.129984800358
 21
125.1861979128557
 72
     1
 10
530.129984800358
 20
125.1861979128557
 11
536.9752848003591
 21
125.1861979128217
 72
     1
 10
536.9752848003591
 20
125.1861979128217
 11
538.129984800359
 21
127.1861979128217
 72
     1
 10
538.129984800359
 20
127.1861979128217
 11
538.129984800359
 21
129.6861979128217
 72
     1
 10
538.129984800359
 20
129.6861979128217
 11
527.629984800358
 21
129.6861979128557
 72
     1
 10
527.629984800358
 20
129.6861979128557
 11
527.232646138769
 21
129.6463310685046
 72
     1
 10
527.232646138769
 20
129.6463310685046
 11
526.851148115742
 21
129.5283199008277
 72
     1
 10
526.851148115742
 20
129.5283199008277
 11
526.500699853569
 21
129.3368691426406
 72
     1
 10
526.500699853569
 20
129.3368691426406
 11
526.19527261856
 21
129.0796113315156
 72
     1
 10
526.19527261856
 20
129.0796113315156
 11
525.9470428307429
 21
128.7668025245576
 72
     1
 10
525.9470428307429
 20
128.7668025245576
 11
525.765906628425
 21
128.4109134217746
 72
     1
 10
525.765906628425
 20
128.4109134217746
 11
525.659085340382
 21
128.0261321986226
 72
     1
 10
525.659085340382
 20
128.0261321986226
 11
525.629984800358
 21
127.6861979128557
 72
     1
 10
525.629984800358
 20
127.6861979128557
 11
525.629984800359
 21
127.1861979128217
 97
        0
 75
     1
 76
     2
 52
0.0
 41
1.0
 77
     0
 78
     1
 53
44.99999999999998
 43
0.0
 44
0.0
 45
-4.490128060534577
 46
0.0000000000000018
 79
     0
 98
        1
 10
0.0
 20
0.0
  0
HATCH
  5
28E
330
44
100
AcDbEntity
  8
0
  6
Continuous
 62
     7
100
AcDbHatch
 10
0.0
 20
0.0
 30
0.0
210
0.0
220
0.0
230
1.0
  2
CUSTOM5
 70
     0
 71
     0
 91
        1
 92
        1
 93
       22
 72
     1
 10
393.629984800358
 20
127.1861979128557
 11
396.129984800359
 21
127.1861979128217
 72
     1
 10
396.129984800359
 20
127.1861979128217
 11
396.129984800358
 21
127.6861979128557
 72
     1
 10
396.129984800358
 20
127.6861979128557
 11
396.090117956042
 21
128.0835365744116
 72
     1
 10
396.090117956042
 20
128.0835365744116
 11
395.972106788365
 21
128.4650345974386
 72
     1
 10
395.972106788365
 20
128.4650345974386
 11
395.780656030179
 21
128.8154828596117
 72
     1
 10
395.780656030179
 20
128.8154828596117
 11
395.523398219054
 21
129.1209100946207
 72
     1
 10
395.523398219054
 20
129.1209100946207
 11
395.210589412096
 21
129.3691398824376
 72
     1
 10
395.210589412096
 20
129.3691398824376
 11
394.854700309313
 21
129.5502760847566
 72
     1
 10
394.854700309313
 20
129.5502760847566
 11
394.46991908616
 21
129.6570973727986
 72
     1
 10
394.46991908616
 20
129.6570973727986
 11
394.129984800358
 21
129.6861979128557
 72
     1
 10
394.129984800358
 20
129.6861979128557
 11
383.629984800359
 21
129.6861979128217
 72
     1
 10
383.629984800359
 20
129.6861979128217
 11
383.629984800359
 21
127.1861979128217
 72
     1
 10
383.629984800359
 20
127.1861979128217
 11
384.784684800359
 21
125.1861979128217
 72
     1
 10
384.784684800359
 20
125.1861979128217
 11
391.629984800358
 21
125.1861979128557
 72
     1
 10
391.629984800358
 20
125.1861979128557
 11
391.669851644677
 21
125.5835365744116
 72
     1
 10
391.669851644677
 20
125.5835365744116
 11
391.787862812354
 21
125.9650345974386
 72
     1
 10
391.787862812354
 20
125.9650345974386
 11
391.97931357054
 21
126.3154828596117
 72
     1
 10
391.97931357054
 20
126.3154828596117
 11
392.236571381665
 21
126.6209100946207
 72
     1
 10
392.236571381665
 20
126.6209100946207
 11
392.549380188623
 21
126.8691398824376
 72
     1
 10
392.549380188623
 20
126.8691398824376
 11
392.905269291406
 21
127.0502760847566
 72
     1
 10
392.905269291406
 20
127.0502760847566
 11
393.290050514559
 21
127.1570973727986
 72
     1
 10
393.290050514559
 20
127.1570973727986
 11
393.629984800358
 21
127.1861979128557
 97
        0
 75
     1
 76
     2
 52
0.0
 41
1.0
 77
     0
 78
     1
 53
44.99999999999998
 43
0.0
 44
0.0
 45
-4.490128060534577
 46
0.0000000000000018
 79
     0
 98
        1
 10
0.0
 20
0.0
  0
HATCH
  5
28F
330
44
100
AcDbEntity
  8
0
  6
Continuous
 62
     7
100
AcDbHatch
 10
0.0
 20
0.0
 30
0.0
210
0.0
220
0.0
230
1.0
  2
CUSTOM6
 70
     0
 71
     0
 91
        1
 92
        1
 93
       28
 72
     1
 10
396.729984800359
 20
61.48470904116365
 11
396.729984800359
 21
63.98470904116365
 72
     1
 10
396.729984800359
 20
63.98470904116365
 11
397.879984800359
 21
63.98470904116365
 72
     1
 10
397.879984800359
 20
63.98470904116365
 11
397.879984800359
 21
66.48470904116365
 72
     1
 10
397.879984800359
 20
66.48470904116365
 11
388.379984800358
 21
66.48470904115564
 72
     1
 10
388.379984800358
 20
66.48470904115564
 11
387.883311473372
 21
66.53454259656061
 72
     1
 10
387.883311473372
 20
66.53454259656061
 11
387.406438944588
 21
66.68205655615665
 72
     1
 10
387.406438944588
 20
66.68205655615665
 11
386.968378616872
 21
66.92137000388962
 72
     1
 10
386.968378616872
 20
66.92137000388962
 11
386.58659457311
 21
67.24294226779566
 72
     1
 10
386.58659457311
 20
67.24294226779566
 11
386.27630733834
 21
67.63395327649366
 72
     1
 10
386.27630733834
 20
67.63395327649366
 11
386.049887085441
 21
68.0788146549726
 72
     1
 10
386.049887085441
 20
68.0788146549726
 11
385.9163604753881
 21
68.55979118391363
 72
     1
 10
385.9163604753881
 20
68.55979118391363
 11
385.879984800358
 21
68.98470904115564
 72
     1
 10
385.879984800358
 20
68.98470904115564
 11
385.879984800359
 21
79.98470904116365
 72
     1
 10
385.879984800359
 20
79.98470904116365
 11
384.607925268892
 21
79.98470904116365
 72
     1
 10
384.607925268892
 20
79.98470904116365
 11
383.879984800359
 21
77.98470904116365
 72
     1
 10
383.879984800359
 20
77.98470904116365
 11
383.879984800359
 21
73.98470904116365
 72
     1
 10
383.879984800359
 20
73.98470904116365
 11
380.879984800359
 21
73.98470904116365
 72
     1
 10
380.879984800359
 20
73.98470904116365
 11
380.879984800358
 21
71.98470904115564
 72
     1
 10
380.879984800358
 20
71.98470904115564
 11
381.039452177629
 21
70.3953543948036
 72
     1
 10
381.039452177629
 20
70.3953543948036
 11
381.511496848336
 21
68.86936230269461
 72
     1
 10
381.511496848336
 20
68.86936230269461
 11
382.277299881082
 21
67.46756925400362
 72
     1
 10
382.277299881082
 20
67.46756925400362
 11
383.306331125582
 21
66.24586031396765
 72
     1
 10
383.306331125582
 20
66.24586031396765
 11
384.557566353414
 21
65.25294116270064
 72
     1
 10
384.557566353414
 20
65.25294116270064
 11
385.981122764546
 21
64.52839635342664
 72
     1
 10
385.981122764546
 20
64.52839635342664
 11
387.520247657157
 21
64.10111120125666
 72
     1
 10
387.520247657157
 20
64.10111120125666
 11
388.22998480036
 21
64.01115901622964
 72
     1
 10
388.22998480036
 20
64.01115901622964
 11
388.229984800359
 21
61.48470904116365
 72
     1
 10
388.229984800359
 20
61.48470904116365
 11
396.729984800359
 21
61.48470904116365
 97
        0
 75
     1
 76
     2
 52
0.0
 41
1.0
 77
     0
 78
     1
 53
44.99999999999998
 43
0.0
 44
0.0
 45
-4.490128060534577
 46
0.0000000000000018
 79
     0
 98
        1
 10
0.0
 20
0.0
  0
HATCH
  5
290
330
44
100
AcDbEntity
  8
0
  6
Continuous
 62
     7
100
AcDbHatch
 10
0.0
 20
0.0
 30
0.0
210
0.0
220
0.0
230
1.0
  2
CUSTOM7
 70
     0
 71
     0
 91
        1
 92
        1
 93
       28
 72
     1
 10
523.879984800359
 20
66.48470904116365
 11
523.879984800359
 21
63.98470904116365
 72
     1
 10
523.879984800359
 20
63.98470904116365
 11
525.029984800359
 21
63.98470904116365
 72
     1
 10
525.029984800359
 20
63.98470904116365
 11
525.029984800359
 21
61.48470904116365
 72
     1
 10
525.029984800359
 20
61.48470904116365
 11
533.529984800359
 21
61.48470904116365
 72
     1
 10
533.529984800359
 20
61.48470904116365
 11
533.529984800356
 21
64.01115901622964
 72
     1
 10
533.529984800356
 20
64.01115901622964
 11
535.101127923469
 21
64.29923422000562
 72
     1
 10
535.101127923469
 20
64.29923422000562
 11
536.583721079483
 21
64.89370505197465
 72
     1
 10
536.583721079483
 20
64.89370505197465
 11
537.9186579578641
 21
65.77087183603564
 72
     1
 10
537.9186579578641
 20
65.77087183603564
 11
539.0527188379081
 21
66.89576470056764
 72
     1
 10
539.0527188379081
 20
66.89576470056764
 11
539.940692291063
 21
68.22353771686662
 72
     1
 10
539.940692291063
 20
68.22353771686662
 11
540.5471776179149
 21
69.70125676480265
 72
     1
 10
540.5471776179149
 20
69.70125676480265
 11
540.847996162357
 21
71.27000984914761
 72
     1
 10
540.847996162357
 20
71.27000984914761
 11
540.879984800358
 21
71.98470904115564
 72
     1
 10
540.879984800358
 20
71.98470904115564
 11
540.879984800359
 21
73.98470904116365
 72
     1
 10
540.879984800359
 20
73.98470904116365
 11
537.879984800359
 21
73.98470904116365
 72
     1
 10
537.879984800359
 20
73.98470904116365
 11
537.879984800359
 21
77.98470904116365
 72
     1
 10
537.879984800359
 20
77.98470904116365
 11
537.152044331827
 21
79.98470904116365
 72
     1
 10
537.152044331827
 20
79.98470904116365
 11
535.879984800359
 21
79.98470904116365
 72
     1
 10
535.879984800359
 20
79.98470904116365
 11
535.879984800358
 21
68.98470904115564
 72
     1
 10
535.879984800358
 20
68.98470904115564
 11
535.830151244962
 21
68.48803571417662
 72
     1
 10
535.830151244962
 20
68.48803571417662
 11
535.682637285367
 21
68.01116318539263
 72
     1
 10
535.682637285367
 20
68.01116318539263
 11
535.443323837633
 21
67.57310285767662
 72
     1
 10
535.443323837633
 20
67.57310285767662
 11
535.121751573727
 21
67.19131881391465
 72
     1
 10
535.121751573727
 20
67.19131881391465
 11
534.73074056503
 21
66.8810315791446
 72
     1
 10
534.73074056503
 20
66.8810315791446
 11
534.285879186551
 21
66.65461132624566
 72
     1
 10
534.285879186551
 20
66.65461132624566
 11
533.80490265761
 21
66.52108471619263
 72
     1
 10
533.80490265761
 20
66.52108471619263
 11
533.379984800358
 21
66.48470904115564
 72
     1
 10
533.379984800358
 20
66.48470904115564
 11
523.879984800359
 21
66.48470904116365
 97
        0
 75
     1
 76
     2
 52
0.0
 41
1.0
 77
     0
 78
     1
 53
44.99999999999998
 43
0.0
 44
0.0
 45
-4.490128060534577
 46
0.0000000000000018
 79
     0
 98
        1
 10
0.0
 20
0.0
  0
HATCH
  5
291
330
44
100
AcDbEntity
  8
0
  6
Continuous
 62
     7
100
AcDbHatch
 10
0.0
 20
0.0
 30
0.0
210
0.0
220
0.0
230
1.0
  2
CUSTOM8
 70
     0
 71
     0
 91
        1
 92
        1
 93
      118
 72
     1
 10
517.079984800359
 20
199.2725400542877
 11
517.079984800359
 21
194.5846926544627
 72
     1
 10
517.079984800359
 20
194.5846926544627
 11
518.7862213609869
 21
194.5846926544627
 72
     1
 10
518.7862213609869
 20
194.5846926544627
 11
531.3796130285959
 21
159.9846262004456
 72
     1
 10
531.3796130285959
 20
159.9846262004456
 11
531.379984800359
 21
159.9846271544766
 72
     1
 10
531.379984800359
 20
159.9846271544766
 11
531.379984800359
 21
152.2846271544766
 72
     1
 10
531.379984800359
 20
152.2846271544766
 11
531.879984800359
 21
152.2846271544766
 72
     1
 10
531.879984800359
 20
152.2846271544766
 11
531.879984800359
 21
130.9846271544766
 72
     1
 10
531.879984800359
 20
130.9846271544766
 11
535.2799848003581
 21
130.9846271544556
 72
     1
 10
535.2799848003581
 20
130.9846271544556
 11
535.478654131154
 21
131.0045605766356
 72
     1
 10
535.478654131154
 20
131.0045605766356
 11
535.669403142668
 21
131.0635661604736
 72
     1
 10
535.669403142668
 20
131.0635661604736
 11
535.844627273754
 21
131.1592915395666
 72
     1
 10
535.844627273754
 20
131.1592915395666
 11
535.997340891259
 21
131.2879204451296
 72
     1
 10
535.997340891259
 20
131.2879204451296
 11
536.121455785167
 21
131.4443248486087
 72
     1
 10
536.121455785167
 20
131.4443248486087
 11
536.212023886327
 21
131.6222693999996
 72
     1
 10
536.212023886327
 20
131.6222693999996
 11
536.265434530348
 21
131.8146600115767
 72
     1
 10
536.265434530348
 20
131.8146600115767
 11
536.2799848003581
 21
131.9846271544556
 72
     1
 10
536.2799848003581
 20
131.9846271544556
 11
536.2600513782011
 21
132.1832964852717
 72
     1
 10
536.2600513782011
 20
132.1832964852717
 11
536.201045794362
 21
132.3740454967856
 72
     1
 10
536.201045794362
 20
132.3740454967856
 11
536.105320415269
 21
132.5492696278716
 72
     1
 10
536.105320415269
 20
132.5492696278716
 11
535.976691509706
 21
132.7019832453766
 72
     1
 10
535.976691509706
 20
132.7019832453766
 11
535.8202871062269
 21
132.8260981392847
 72
     1
 10
535.8202871062269
 20
132.8260981392847
 11
535.642342554836
 21
132.9166662404436
 72
     1
 10
535.642342554836
 20
132.9166662404436
 11
535.44995194326
 21
132.9700768844656
 72
     1
 10
535.44995194326
 20
132.9700768844656
 11
535.2799848003581
 21
132.9846271544556
 72
     1
 10
535.2799848003581
 20
132.9846271544556
 11
534.779984800359
 21
132.9846271544766
 72
     1
 10
534.779984800359
 20
132.9846271544766
 11
534.779984800359
 21
159.9846271544766
 72
     1
 10
534.779984800359
 20
159.9846271544766
 11
543.2728826182081
 21
159.9846271544766
 72
     1
 10
543.2728826182081
 20
159.9846271544766
 11
546.465449618208
 21
161.8089511544766
 72
     1
 10
546.465449618208
 20
161.8089511544766
 11
523.423956035823
 21
225.1149352494556
 72
     1
 10
523.423956035823
 20
225.1149352494556
 11
522.1237530058049
 21
227.8129923378556
 72
     1
 10
522.1237530058049
 20
227.8129923378556
 11
520.313446275467
 21
230.1989574494056
 72
     1
 10
520.313446275467
 20
230.1989574494056
 11
518.0652070614101
 21
232.1777096844816
 72
     1
 10
518.0652070614101
 20
232.1777096844816
 11
515.468665566369
 21
233.6703624357847
 72
     1
 10
515.468665566369
 20
233.6703624357847
 11
512.62733770589
 21
234.6174083484576
 72
     1
 10
512.62733770589
 20
234.6174083484576
 11
509.654498255443
 21
234.9810916905387
 72
     1
 10
509.654498255443
 20
234.9810916905387
 11
509.328566704058
 21
234.9846331544556
 72
     1
 10
509.328566704058
 20
234.9846331544556
 11
490.309066842614
 21
234.9846331544767
 72
     1
 10
490.309066842614
 20
234.9846331544767
 11
490.309066842614
 21
235.0846331544766
 72
     1
 10
490.309066842614
 20
235.0846331544766
 11
487.986000323858
 21
235.0846331544766
 72
     1
 10
487.986000323858
 20
235.0846331544766
 11
487.986000323858
 21
234.9846331544767
 72
     1
 10
487.986000323858
 20
234.9846331544767
 11
487.507759391811
 21
234.9846331544767
 72
     1
 10
487.507759391811
 20
234.9846331544767
 11
487.507759391811
 21
235.0846331544766
 72
     1
 10
487.507759391811
 20
235.0846331544766
 11
485.594790391811
 21
235.0846331544766
 72
     1
 10
485.594790391811
 20
235.0846331544766
 11
485.594790391811
 21
234.9846331544767
 72
     1
 10
485.594790391811
 20
234.9846331544767
 11
485.246976585498
 21
234.9846331544767
 72
     1
 10
485.246976585498
 20
234.9846331544767
 11
485.246976585498
 21
235.0846331544766
 72
     1
 10
485.246976585498
 20
235.0846331544766
 11
484.464398891811
 21
235.0846331544766
 72
     1
 10
484.464398891811
 20
235.0846331544766
 11
484.464398891811
 21
234.9846331544767
 72
     1
 10
484.464398891811
 20
234.9846331544767
 11
483.899203391811
 21
234.9846331544767
 72
     1
 10
483.899203391811
 20
234.9846331544767
 11
483.899203391811
 21
235.0846331544766
 72
     1
 10
483.899203391811
 20
235.0846331544766
 11
483.073148694287
 21
235.0846331544766
 72
     1
 10
483.073148694287
 20
235.0846331544766
 11
483.073148694287
 21
234.9846331544767
 72
     1
 10
483.073148694287
 20
234.9846331544767
 11
482.507953391811
 21
234.9846331544767
 72
     1
 10
482.507953391811
 20
234.9846331544767
 11
482.507953391811
 21
235.0846331544766
 72
     1
 10
482.507953391811
 20
235.0846331544766
 11
481.725375391811
 21
235.0846331544766
 72
     1
 10
481.725375391811
 20
235.0846331544766
 11
481.725375391811
 21
234.9846331544767
 72
     1
 10
481.725375391811
 20
234.9846331544767
 11
480.638461391811
 21
234.9846331544767
 72
     1
 10
480.638461391811
 20
234.9846331544767
 11
480.638461391811
 21
235.0846331544766
 72
     1
 10
480.638461391811
 20
235.0846331544766
 11
479.855882391811
 21
235.0846331544766
 72
     1
 10
479.855882391811
 20
235.0846331544766
 11
479.855882391811
 21
234.9846331544767
 72
     1
 10
479.855882391811
 20
234.9846331544767
 11
478.768968391811
 21
234.9846331544767
 72
     1
 10
478.768968391811
 20
234.9846331544767
 11
478.768968391811
 21
235.0846331544766
 72
     1
 10
478.768968391811
 20
235.0846331544766
 11
477.986390391811
 21
235.0846331544766
 72
     1
 10
477.986390391811
 20
235.0846331544766
 11
477.986390391811
 21
234.9846331544767
 72
     1
 10
477.986390391811
 20
234.9846331544767
 11
477.551623891811
 21
234.9846331544767
 72
     1
 10
477.551623891811
 20
234.9846331544767
 11
477.551623891811
 21
235.0846331544766
 72
     1
 10
477.551623891811
 20
235.0846331544766
 11
475.203890391811
 21
235.0846331544766
 72
     1
 10
475.203890391811
 20
235.0846331544766
 11
475.203890391811
 21
234.9846331544767
 72
     1
 10
475.203890391811
 20
234.9846331544767
 11
474.825027391811
 21
234.9846331544767
 72
     1
 10
474.825027391811
 20
234.9846331544767
 11
474.825027391811
 21
235.0846331544766
 72
     1
 10
474.825027391811
 20
235.0846331544766
 11
474.085925891811
 21
235.0846331544766
 72
     1
 10
474.085925891811
 20
235.0846331544766
 11
474.085925891811
 21
234.9846331544767
 72
     1
 10
474.085925891811
 20
234.9846331544767
 11
473.508303391811
 21
234.9846331544767
 72
     1
 10
473.508303391811
 20
234.9846331544767
 11
473.508303391811
 21
235.0846331544766
 72
     1
 10
473.508303391811
 20
235.0846331544766
 11
472.682249391811
 21
235.0846331544766
 72
     1
 10
472.682249391811
 20
235.0846331544766
 11
472.682249391811
 21
234.9846331544767
 72
     1
 10
472.682249391811
 20
234.9846331544767
 11
412.431402896658
 21
234.9846331544556
 72
     1
 10
412.431402896658
 20
234.9846331544556
 11
409.451362934719
 21
234.6856318220956
 72
     1
 10
409.451362934719
 20
234.6856318220956
 11
406.590127762015
 21
233.8005480645196
 72
     1
 10
406.590127762015
 20
233.8005480645196
 11
403.961765795719
 21
232.3646673781217
 72
     1
 10
403.961765795719
 20
232.3646673781217
 11
401.671061533152
 21
230.4352337946847
 72
     1
 10
401.671061533152
 20
230.4352337946847
 11
399.809338124526
 21
228.0891677424986
 72
     1
 10
399.809338124526
 20
228.0891677424986
 11
398.450816607137
 21
225.4199994716267
 72
     1
 10
398.450816607137
 20
225.4199994716267
 11
398.336013564893
 21
225.1149352494556
 72
     1
 10
398.336013564893
 20
225.1149352494556
 11
375.294519982511
 21
161.8089511544766
 72
     1
 10
375.294519982511
 20
161.8089511544766
 11
378.487086982511
 21
159.9846271544766
 72
     1
 10
378.487086982511
 20
159.9846271544766
 11
386.979984800359
 21
159.9846271544766
 72
     1
 10
386.979984800359
 20
159.9846271544766
 11
386.979984800359
 21
132.9846271544766
 72
     1
 10
386.979984800359
 20
132.9846271544766
 11
386.479984800358
 21
132.9846271544556
 72
     1
 10
386.479984800358
 20
132.9846271544556
 11
386.281315469564
 21
132.9646937323176
 72
     1
 10
386.281315469564
 20
132.9646937323176
 11
386.090566458051
 21
132.9056881484796
 72
     1
 10
386.090566458051
 20
132.9056881484796
 11
385.915342326964
 21
132.8099627693867
 72
     1
 10
385.915342326964
 20
132.8099627693867
 11
385.7626287094601
 21
132.6813338638237
 72
     1
 10
385.7626287094601
 20
132.6813338638237
 11
385.638513815551
 21
132.5249294603446
 72
     1
 10
385.638513815551
 20
132.5249294603446
 11
385.547945714392
 21
132.3469849089537
 72
     1
 10
385.547945714392
 20
132.3469849089537
 11
385.494535070371
 21
132.1545942973766
 72
     1
 10
385.494535070371
 20
132.1545942973766
 11
385.479984800358
 21
131.9846271544556
 72
     1
 10
385.479984800358
 20
131.9846271544556
 11
385.499918222518
 21
131.7859578236816
 72
     1
 10
385.499918222518
 20
131.7859578236816
 11
385.558923806356
 21
131.5952088121676
 72
     1
 10
385.558923806356
 20
131.5952088121676
 11
385.65464918545
 21
131.4199846810816
 72
     1
 10
385.65464918545
 20
131.4199846810816
 11
385.783278091012
 21
131.2672710635776
 72
     1
 10
385.783278091012
 20
131.2672710635776
 11
385.939682494491
 21
131.1431561696686
 72
     1
 10
385.939682494491
 20
131.1431561696686
 11
386.117627045883
 21
131.0525880685096
 72
     1
 10
386.117627045883
 20
131.0525880685096
 11
386.310017657459
 21
130.9991774244886
 72
     1
 10
386.310017657459
 20
130.9991774244886
 11
386.479984800358
 21
130.9846271544556
 72
     1
 10
386.479984800358
 20
130.9846271544556
 11
389.879984800359
 21
130.9846271544766
 72
     1
 10
389.879984800359
 20
130.9846271544766
 11
389.879984800359
 21
152.2846271544766
 72
     1
 10
389.879984800359
 20
152.2846271544766
 11
390.379984800359
 21
152.2846271544766
 72
     1
 10
390.379984800359
 20
152.2846271544766
 11
390.379984800359
 21
159.9846271544766
 72
     1
 10
390.379984800359
 20
159.9846271544766
 11
390.380356572122
 21
159.9846262004456
 72
     1
 10
390.380356572122
 20
159.9846262004456
 11
402.973748239732
 21
194.5846926544627
 72
     1
 10
402.973748239732
 20
194.5846926544627
 11
404.679984800359
 21
194.5846926544627
 72
     1
 10
404.679984800359
 20
194.5846926544627
 11
404.679984800359
 21
199.2725400542877
 72
     1
 10
404.679984800359
 20
199.2725400542877
 11
412.431402896645
 21
220.5693906822386
 72
     1
 10
412.431402896645
 20
220.5693906822386
 11
412.431402896645
 21
220.1846331544766
 72
     1
 10
412.431402896645
 20
220.1846331544766
 11
509.328566704074
 21
220.1846331544766
 72
     1
 10
509.328566704074
 20
220.1846331544766
 11
509.328566704074
 21
220.5693906822386
 72
     1
 10
509.328566704074
 20
220.5693906822386
 11
517.079984800359
 21
199.2725400542877
 97
        0
 75
     1
 76
     2
 52
0.0
 41
1.0
 77
     0
 78
     1
 53
44.99999999999998
 43
0.0
 44
0.0
 45
-4.490128060534577
 46
0.0000000000000018
 79
     0
 98
        1
 10
0.0
 20
0.0
  0
HATCH
  5
292
330
44
100
AcDbEntity
  8
0
  6
Continuous
 62
     7
100
AcDbHatch
 10
0.0
 20
0.0
 30
0.0
210
0.0
220
0.0
230
1.0
  2
CUSTOM9
 70
     0
 71
     0
 91
        1
 92
        1
 93
        6
 72
     1
 10
396.120978544314
 20
68.98470904116365
 11
393.280653066374
 21
68.98470904116365
 72
     1
 10
393.280653066374
 20
68.98470904116365
 11
393.280653066374
 21
43.98470904116363
 72
     1
 10
393.280653066374
 20
43.98470904116363
 11
393.995845251468
 21
43.98470904116363
 72
     1
 10
393.995845251468
 20
43.98470904116363
 11
393.995845251468
 21
66.48470904116365
 72
     1
 10
393.995845251468
 20
66.48470904116365
 11
396.120978544314
 21
66.48470904116365
 72
     1
 10
396.120978544314
 20
66.48470904116365
 11
396.120978544314
 21
68.98470904116365
 97
        0
 75
     1
 76
     2
 52
0.0
 41
1.0
 77
     0
 78
     1
 53
44.99999999999998
 43
0.0
 44
0.0
 45
-4.490128060534577
 46
0.0000000000000018
 79
     0
 98
        1
 10
0.0
 20
0.0
  0
HATCH
  5
293
330
44
100
AcDbEntity
  8
0
  6
Continuous
 62
     7
100
AcDbHatch
 10
0.0
 20
0.0
 30
0.0
210
0.0
220
0.0
230
1.0
  2
CUSTOM10
 70
     0
 71
     0
 91
        1
 92
        1
 93
        6
 72
     1
 10
385.646341459224
 20
43.98470904116363
 11
386.361533644318
 21
43.98470904116363
 72
     1
 10
386.361533644318
 20
43.98470904116363
 11
386.361533644318
 21
68.98470904116365
 72
     1
 10
386.361533644318
 20
68.98470904116365
 11
383.521208166379
 21
68.98470904116365
 72
     1
 10
383.521208166379
 20
68.98470904116365
 11
383.521208166379
 21
66.48470904116365
 72
     1
 10
383.521208166379
 20
66.48470904116365
 11
385.646341459224
 21
66.48470904116365
 72
     1
 10
385.646341459224
 20
66.48470904116365
 11
385.646341459224
 21
43.98470904116363
 97
        0
 75
     1
 76
     2
 52
0.0
 41
1.0
 77
     0
 78
     1
 53
44.99999999999998
 43
0.0
 44
0.0
 45
-4.490128060534577
 46
0.0000000000000018
 79
     0
 98
        1
 10
0.0
 20
0.0
  0
HATCH
  5
294
330
44
100
AcDbEntity
  8
0
  6
Continuous
 62
     7
100
AcDbHatch
 10
0.0
 20
0.0
 30
0.0
210
0.0
220
0.0
230
1.0
  2
CUSTOM11
 70
     0
 71
     0
 91
        1
 92
        1
 93
       36
 72
     1
 10
535.879984800358
 20
100.4847070411556
 11
535.8401179560419
 21
100.8820457027536
 72
     1
 10
535.8401179560419
 20
100.8820457027536
 11
535.722106788365
 21
101.2635437257817
 72
     1
 10
535.722106788365
 20
101.2635437257817
 11
535.530656030179
 21
101.6139919879537
 72
     1
 10
535.530656030179
 20
101.6139919879537
 11
535.273398219054
 21
101.9194192229626
 72
     1
 10
535.273398219054
 20
101.9194192229626
 11
534.9605894120959
 21
102.1676490107796
 72
     1
 10
534.9605894120959
 20
102.1676490107796
 11
534.604700309313
 21
102.3487852130986
 72
     1
 10
534.604700309313
 20
102.3487852130986
 11
534.21991908616
 21
102.4556065011406
 72
     1
 10
534.21991908616
 20
102.4556065011406
 11
533.879984800358
 21
102.4847070411556
 72
     1
 10
533.879984800358
 20
102.4847070411556
 11
529.879984800358
 21
102.4847070411556
 72
     1
 10
529.879984800358
 20
102.4847070411556
 11
529.482646138769
 21
102.4448401968466
 72
     1
 10
529.482646138769
 20
102.4448401968466
 11
529.101148115742
 21
102.3268290291697
 72
     1
 10
529.101148115742
 20
102.3268290291697
 11
528.750699853569
 21
102.1353782709836
 72
     1
 10
528.750699853569
 20
102.1353782709836
 11
528.44527261856
 21
101.8781204598587
 72
     1
 10
528.44527261856
 20
101.8781204598587
 11
528.1970428307429
 21
101.5653116529007
 72
     1
 10
528.1970428307429
 20
101.5653116529007
 11
528.015906628425
 21
101.2094225501176
 72
     1
 10
528.015906628425
 20
101.2094225501176
 11
527.909085340382
 21
100.8246413269646
 72
     1
 10
527.909085340382
 20
100.8246413269646
 11
527.879984800358
 21
100.4847070411556
 72
     1
 10
527.879984800358
 20
100.4847070411556
 11
527.879984800358
 21
92.48470704115564
 72
     1
 10
527.879984800358
 20
92.48470704115564
 11
527.919851644677
 21
92.08736837957363
 72
     1
 10
527.919851644677
 20
92.08736837957363
 11
528.0378628123531
 21
91.70587035654663
 72
     1
 10
528.0378628123531
 20
91.70587035654663
 11
528.22931357054
 21
91.35542209437361
 72
     1
 10
528.22931357054
 20
91.35542209437361
 11
528.486571381665
 21
91.0499948593646
 72
     1
 10
528.486571381665
 20
91.0499948593646
 11
528.799380188623
 21
90.80176507154763
 72
     1
 10
528.799380188623
 20
90.80176507154763
 11
529.1552692914061
 21
90.62062886922965
 72
     1
 10
529.1552692914061
 20
90.62062886922965
 11
529.540050514559
 21
90.51380758118663
 72
     1
 10
529.540050514559
 20
90.51380758118663
 11
529.879984800358
 21
90.48470704115564
 72
     1
 10
529.879984800358
 20
90.48470704115564
 11
533.879984800358
 21
90.48470704115564
 72
     1
 10
533.879984800358
 20
90.48470704115564
 11
534.277323461949
 21
90.52457388548166
 72
     1
 10
534.277323461949
 20
90.52457388548166
 11
534.658821484977
 21
90.6425850531576
 72
     1
 10
534.658821484977
 20
90.6425850531576
 11
535.009269747149
 21
90.83403581134465
 72
     1
 10
535.009269747149
 20
90.83403581134465
 11
535.314696982158
 21
91.09129362246964
 72
     1
 10
535.314696982158
 20
91.09129362246964
 11
535.562926769975
 21
91.40410242942764
 72
     1
 10
535.562926769975
 20
91.40410242942764
 11
535.7440629722939
 21
91.75999153221065
 72
     1
 10
535.7440629722939
 20
91.75999153221065
 11
535.850884260336
 21
92.14477275536362
 72
     1
 10
535.850884260336
 20
92.14477275536362
 11
535.879984800358
 21
92.48470704115564
 72
     1
 10
535.879984800358
 20
92.48470704115564
 11
535.879984800358
 21
100.4847070411556
 97
        0
 75
     1
 76
     2
 52
0.0
 41
1.0
 77
     0
 78
     1
 53
44.99999999999998
 43
0.0
 44
0.0
 45
-4.490128060534577
 46
0.0000000000000018
 79
     0
 98
        1
 10
0.0
 20
0.0
  0
HATCH
  5
295
330
44
100
AcDbEntity
  8
0
  6
Continuous
 62
     7
100
AcDbHatch
 10
0.0
 20
0.0
 30
0.0
210
0.0
220
0.0
230
1.0
  2
CUSTOM12
 70
     0
 71
     0
 91
        1
 92
        1
 93
       40
 72
     1
 10
385.879984800358
 20
100.4847070411556
 11
385.879984800358
 21
92.48470704115564
 72
     1
 10
385.879984800358
 20
92.48470704115564
 11
385.919851644677
 21
92.08736837957363
 72
     1
 10
385.919851644677
 20
92.08736837957363
 11
386.037862812354
 21
91.70587035654663
 72
     1
 10
386.037862812354
 20
91.70587035654663
 11
386.22931357054
 21
91.35542209437361
 72
     1
 10
386.22931357054
 20
91.35542209437361
 11
386.486571381665
 21
91.0499948593646
 72
     1
 10
386.486571381665
 20
91.0499948593646
 11
386.799380188623
 21
90.80176507154763
 72
     1
 10
386.799380188623
 20
90.80176507154763
 11
387.155269291406
 21
90.62062886922965
 72
     1
 10
387.155269291406
 20
90.62062886922965
 11
387.540050514559
 21
90.51380758118663
 72
     1
 10
387.540050514559
 20
90.51380758118663
 11
387.879984800358
 21
90.48470704115564
 72
     1
 10
387.879984800358
 20
90.48470704115564
 11
386.928680280737
 21
90.4847070411636
 72
     1
 10
386.928680280737
 20
90.4847070411636
 11
386.928680280737
 21
-109.5152929588362
 72
     1
 10
386.928680280737
 20
-109.5152929588362
 11
392.713506429956
 21
-109.5152929588362
 72
     1
 10
392.713506429956
 20
-109.5152929588362
 11
392.713506429956
 21
90.4847070411636
 72
     1
 10
392.713506429956
 20
90.4847070411636
 11
391.879984800358
 21
90.48470704115564
 72
     1
 10
391.879984800358
 20
90.48470704115564
 11
392.277323461949
 21
90.52457388548166
 72
     1
 10
392.277323461949
 20
90.52457388548166
 11
392.658821484977
 21
90.6425850531576
 72
     1
 10
392.658821484977
 20
90.6425850531576
 11
393.009269747149
 21
90.83403581134465
 72
     1
 10
393.009269747149
 20
90.83403581134465
 11
393.314696982158
 21
91.09129362246964
 72
     1
 10
393.314696982158
 20
91.09129362246964
 11
393.562926769975
 21
91.40410242942764
 72
     1
 10
393.562926769975
 20
91.40410242942764
 11
393.7440629722941
 21
91.75999153221065
 72
     1
 10
393.7440629722941
 20
91.75999153221065
 11
393.850884260336
 21
92.14477275536362
 72
     1
 10
393.850884260336
 20
92.14477275536362
 11
393.879984800358
 21
92.48470704115564
 72
     1
 10
393.879984800358
 20
92.48470704115564
 11
393.879984800358
 21
100.4847070411556
 72
     1
 10
393.879984800358
 20
100.4847070411556
 11
393.840117956042
 21
100.8820457027536
 72
     1
 10
393.840117956042
 20
100.8820457027536
 11
393.722106788365
 21
101.2635437257817
 72
     1
 10
393.722106788365
 20
101.2635437257817
 11
393.530656030179
 21
101.6139919879537
 72
     1
 10
393.530656030179
 20
101.6139919879537
 11
393.273398219054
 21
101.9194192229626
 72
     1
 10
393.273398219054
 20
101.9194192229626
 11
392.960589412096
 21
102.1676490107796
 72
     1
 10
392.960589412096
 20
102.1676490107796
 11
392.604700309313
 21
102.3487852130986
 72
     1
 10
392.604700309313
 20
102.3487852130986
 11
392.21991908616
 21
102.4556065011406
 72
     1
 10
392.21991908616
 20
102.4556065011406
 11
391.879984800358
 21
102.4847070411556
 72
     1
 10
391.879984800358
 20
102.4847070411556
 11
387.879984800358
 21
102.4847070411556
 72
     1
 10
387.879984800358
 20
102.4847070411556
 11
387.482646138769
 21
102.4448401968466
 72
     1
 10
387.482646138769
 20
102.4448401968466
 11
387.101148115742
 21
102.3268290291697
 72
     1
 10
387.101148115742
 20
102.3268290291697
 11
386.750699853569
 21
102.1353782709836
 72
     1
 10
386.750699853569
 20
102.1353782709836
 11
386.44527261856
 21
101.8781204598587
 72
     1
 10
386.44527261856
 20
101.8781204598587
 11
386.197042830743
 21
101.5653116529007
 72
     1
 10
386.197042830743
 20
101.5653116529007
 11
386.015906628425
 21
101.2094225501176
 72
     1
 10
386.015906628425
 20
101.2094225501176
 11
385.909085340382
 21
100.8246413269646
 72
     1
 10
385.909085340382
 20
100.8246413269646
 11
385.879984800358
 21
100.4847070411556
 97
        0
 75
     1
 76
     2
 52
0.0
 41
1.0
 77
     0
 78
     1
 53
44.99999999999998
 43
0.0
 44
0.0
 45
-4.490128060534577
 46
0.0000000000000018
 79
     0
 98
        1
 10
0.0
 20
0.0
  0
ENDBLK
  5
46
330
44
100
AcDbEntity
  8
0
100
AcDbBlockEnd
  0
BLOCK
  5
6B
330
47
100
AcDbEntity
  8
0
100
AcDbBlockBegin
  2
HL_62_1P_2_DN125_Dachablauf
 70
     0
 10
434.9715877816195
 20
81.6271036429598
 30
0.0
  3
HL_62_1P_2_DN125_Dachablauf
  1

  0
INSERT
  5
6A
330
47
100
AcDbEntity
  8
0
100
AcDbBlockReference
  2
HL62_1P_2
 10
434.9715877816195
 20
81.6271036429598
 30
0.0
  0
ENDBLK
  5
6C
330
47
100
AcDbEntity
  8
0
100
AcDbBlockEnd
  0
BLOCK
  5
259
330
251
100
AcDbEntity
  8
0
100
AcDbBlockBegin
  2
*D3
 70
     1
 10
0.0
 20
0.0
 30
0.0
  3
*D3
  1

  0
LINE
  5
252
330
251
100
AcDbEntity
  8
1
  6
Continuous
 62
     4
100
AcDbLine
 10
280.8799798467856
 20
260.8445047525888
 30
0.0
 11
640.8799842240855
 21
260.8445067694888
 31
0.0
  0
LINE
  5
253
330
251
100
AcDbEntity
  8
1
  6
Continuous
 62
     4
100
AcDbLine
 10
280.879980423058
 20
157.9846251375556
 30
0.0
 11
280.8799798355806
 21
262.8445047525888
 31
0.0
  0
LINE
  5
254
330
251
100
AcDbEntity
  8
1
  6
Continuous
 62
     4
100
AcDbLine
 10
640.879984800358
 20
157.9846271544556
 30
0.0
 11
640.8799842128806
 21
262.8445067694888
 31
0.0
  0
SOLID
  5
255
330
251
100
AcDbEntity
  8
1
 62
     4
100
AcDbTrace
 10
290.8799798394098
 20
262.1610297844877
 30
0.0
 11
290.8799798541614
 21
259.5279798327397
 31
0.0
 12
280.8799798467856
 22
260.8445047525888
 32
0.0
 13
280.8799798467856
 23
260.8445047525888
 33
0.0
  0
SOLID
  5
256
330
251
100
AcDbEntity
  8
1
 62
     4
100
AcDbTrace
 10
630.8799842314613
 20
259.52798173759
 30
0.0
 11
630.8799842167098
 21
262.1610316893379
 31
0.0
 12
640.8799842240855
 22
260.8445067694888
 32
0.0
 13
640.8799842240855
 23
260.8445067694888
 33
0.0
  0
MTEXT
  5
258
330
251
100
AcDbEntity
  8
1
 62
     1
100
AcDbMText
 10
437.1556049525561
 20
262.8444659988971
 30
0.0
 40
10.0
 41
0.0
 71
     7
 72
     1
  1
\C1;%%c\C1;360
  7
CONVERTER_11
 11
0.9999999999970619
 21
2.424068405545306E-6
 31
0.0
 73
     1
 44
0.60024009603842
  0
ENDBLK
  5
25A
330
251
100
AcDbEntity
  8
0
100
AcDbBlockEnd
  0
BLOCK
  5
264
330
25D
100
AcDbEntity
  8
0
100
AcDbBlockBegin
  2
*D4
 70
     1
 10
0.0
 20
0.0
 30
0.0
  3
*D4
  1

  0
LINE
  5
25E
330
25D
100
AcDbEntity
  8
1
  6
Continuous
 62
     4
100
AcDbLine
 10
398.379987575558
 20
-22.973848895926
 30
0.0
 11
523.3799857129579
 21
-22.973848895926
 31
0.0
  0
LINE
  5
25F
330
25D
100
AcDbEntity
  8
1
  6
Continuous
 62
     4
100
AcDbLine
 10
398.379987575558
 20
4.98470995495563
 30
0.0
 11
398.379987575558
 21
-24.973848895926
 31
0.0
  0
LINE
  5
260
330
25D
100
AcDbEntity
  8
1
  6
Continuous
 62
     4
100
AcDbLine
 10
523.3799857129579
 20
4.98470995495563
 30
0.0
 11
523.3799857129579
 21
-24.973848895926
 31
0.0
  0
SOLID
  5
261
330
25D
100
AcDbEntity
  8
1
 62
     4
100
AcDbTrace
 10
408.379987575558
 20
-21.65732392005204
 30
0.0
 11
408.379987575558
 21
-24.29037387179996
 31
0.0
 12
398.379987575558
 22
-22.973848895926
 32
0.0
 13
398.379987575558
 23
-22.973848895926
 33
0.0
  0
SOLID
  5
262
330
25D
100
AcDbEntity
  8
1
 62
     4
100
AcDbTrace
 10
513.3799857129579
 20
-24.29037387179996
 30
0.0
 11
513.3799857129579
 21
-21.65732392005204
 31
0.0
 12
523.3799857129579
 22
-22.973848895926
 32
0.0
 13
523.3799857129579
 23
-22.973848895926
 33
0.0
  0
MTEXT
  5
263
330
25D
100
AcDbEntity
  8
1
 62
     1
100
AcDbMText
 10
445.4160172939572
 20
-20.97388865064785
 30
0.0
 40
10.0
 41
0.0
 71
     7
 72
     1
  1
\C1;DN\C1;125
  7
CONVERTER_11
 11
0.9999999999970619
 21
2.424068405545306E-6
 31
0.0
 73
     1
 44
0.60024009603842
  0
ENDBLK
  5
265
330
25D
100
AcDbEntity
  8
0
100
AcDbBlockEnd
  0
BLOCK
  5
26F
330
268
100
AcDbEntity
  8
0
100
AcDbBlockBegin
  2
*D5
 70
     1
 10
0.0
 20
0.0
 30
0.0
  3
*D5
  1

  0
LINE
  5
269
330
268
100
AcDbEntity
  8
1
  6
Continuous
 62
     4
100
AcDbLine
 10
380.779987670958
 20
-49.48517093035409
 30
0.0
 11
540.9799837549581
 21
-49.48517093035409
 31
0.0
  0
LINE
  5
26A
330
268
100
AcDbEntity
  8
1
  6
Continuous
 62
     4
100
AcDbLine
 10
380.779987670958
 20
73.98470915775562
 30
0.0
 11
380.779987670958
 21
-51.48517093035409
 31
0.0
  0
LINE
  5
26B
330
268
100
AcDbEntity
  8
1
  6
Continuous
 62
     4
100
AcDbLine
 10
540.9799837549581
 20
73.98470915775562
 30
0.0
 11
540.9799837549581
 21
-51.48517093035409
 31
0.0
  0
SOLID
  5
26C
330
268
100
AcDbEntity
  8
1
 62
     4
100
AcDbTrace
 10
390.779987670958
 20
-48.16864595448013
 30
0.0
 11
390.779987670958
 21
-50.80169590622805
 31
0.0
 12
380.779987670958
 22
-49.48517093035409
 32
0.0
 13
380.779987670958
 23
-49.48517093035409
 33
0.0
  0
SOLID
  5
26D
330
268
100
AcDbEntity
  8
1
 62
     4
100
AcDbTrace
 10
530.9799837549581
 20
-50.80169590622804
 30
0.0
 11
530.9799837549581
 21
-48.16864595448013
 31
0.0
 12
540.9799837549581
 22
-49.48517093035409
 32
0.0
 13
540.9799837549581
 23
-49.48517093035409
 33
0.0
  0
MTEXT
  5
26E
330
268
100
AcDbEntity
  8
1
 62
     1
100
AcDbMText
 10
440.7671682544162
 20
-47.48521068507594
 30
0.0
 40
10.0
 41
0.0
 71
     7
 72
     1
  1
\C1;%%c\C1;160
  7
CONVERTER_11
 11
0.9999999999970619
 21
2.424068405545306E-6
 31
0.0
 73
     1
 44
0.60024009603842
  0
ENDBLK
  5
270
330
268
100
AcDbEntity
  8
0
100
AcDbBlockEnd
  0
BLOCK
  5
27A
330
273
100
AcDbEntity
  8
0
100
AcDbBlockBegin
  2
*D6
 70
     1
 10
0.0
 20
0.0
 30
0.0
  3
*D6
  1

  0
LINE
  5
274
330
273
100
AcDbEntity
  8
1
  6
Continuous
 62
     4
100
AcDbLine
 10
262.867771541371
 20
159.9846291906556
 30
0.0
 11
262.867771541371
 21
64.01115901622964
 31
0.0
  0
LINE
  5
275
330
273
100
AcDbEntity
  8
1
  6
Continuous
 62
     4
100
AcDbLine
 10
282.879984476158
 20
159.9846291906556
 30
0.0
 11
260.867771541371
 21
159.9846291906556
 31
0.0
  0
LINE
  5
276
330
273
100
AcDbEntity
  8
1
  6
Continuous
 62
     4
100
AcDbLine
 10
388.22998480036
 20
64.01115901622964
 30
0.0
 11
260.867771541371
 21
64.01115901622964
 31
0.0
  0
SOLID
  5
277
330
273
100
AcDbEntity
  8
1
 62
     4
100
AcDbTrace
 10
264.1842965172449
 20
149.9846291906556
 30
0.0
 11
261.551246565497
 21
149.9846291906556
 31
0.0
 12
262.867771541371
 22
159.9846291906556
 32
0.0
 13
262.867771541371
 23
159.9846291906556
 33
0.0
  0
SOLID
  5
278
330
273
100
AcDbEntity
  8
1
 62
     4
100
AcDbTrace
 10
261.551246565497
 20
74.01115901622964
 30
0.0
 11
264.1842965172449
 21
74.01115901622964
 31
0.0
 12
262.867771541371
 22
64.01115901622964
 32
0.0
 13
262.867771541371
 23
64.01115901622964
 33
0.0
  0
MTEXT
  5
279
330
273
100
AcDbEntity
  8
1
 62
     1
100
AcDbMText
 10
260.867771541371
 20
105.396008063021
 30
0.0
 40
10.0
 41
0.0
 71
     7
 72
     1
  1
96
  7
CONVERTER_11
 11
0.0
 21
1.0
 31
0.0
 73
     1
 44
0.60024009603842
  0
ENDBLK
  5
27B
330
273
100
AcDbEntity
  8
0
100
AcDbBlockEnd
  0
BLOCK
  5
285
330
27E
100
AcDbEntity
  8
0
100
AcDbBlockBegin
  2
*D7
 70
     1
 10
0.0
 20
0.0
 30
0.0
  3
*D7
  1

  0
LINE
  5
27F
330
27E
100
AcDbEntity
  8
1
  6
Continuous
 62
     4
100
AcDbLine
 10
240.988190762881
 20
159.9846291906556
 30
0.0
 11
240.988190762881
 21
-0.01529272724437
 31
0.0
  0
LINE
  5
280
330
27E
100
AcDbEntity
  8
1
  6
Continuous
 62
     4
100
AcDbLine
 10
282.879984476158
 20
159.9846291906556
 30
0.0
 11
238.988190762881
 21
159.9846291906556
 31
0.0
  0
LINE
  5
281
330
27E
100
AcDbEntity
  8
1
  6
Continuous
 62
     4
100
AcDbLine
 10
401.879987217958
 20
-0.01529272724437
 30
0.0
 11
238.988190762881
 21
-0.01529272724437
 31
0.0
  0
SOLID
  5
282
330
27E
100
AcDbEntity
  8
1
 62
     4
100
AcDbTrace
 10
242.304715738755
 20
149.9846291906556
 30
0.0
 11
239.671665787007
 21
149.9846291906556
 31
0.0
 12
240.988190762881
 22
159.9846291906556
 32
0.0
 13
240.988190762881
 23
159.9846291906556
 33
0.0
  0
SOLID
  5
283
330
27E
100
AcDbEntity
  8
1
 62
     4
100
AcDbTrace
 10
239.671665787007
 20
9.98470727275563
 30
0.0
 11
242.304715738755
 21
9.98470727275563
 31
0.0
 12
240.988190762881
 22
-0.01529272724437
 32
0.0
 13
240.988190762881
 23
-0.01529272724437
 33
0.0
  0
MTEXT
  5
284
330
27E
100
AcDbEntity
  8
1
 62
     1
100
AcDbMText
 10
238.988190762881
 20
67.4799433324073
 30
0.0
 40
10.0
 41
0.0
 71
     7
 72
     1
  1
160
  7
CONVERTER_11
 11
0.0
 21
1.0
 31
0.0
 73
     1
 44
0.60024009603842
  0
ENDBLK
  5
286
330
27E
100
AcDbEntity
  8
0
100
AcDbBlockEnd
  0
ENDSEC
  0
SECTION
  2
ENTITIES
  0
INSERT
  5
6D
330
1F
100
AcDbEntity
  8
0
100
AcDbBlockReference
  2
HL_62_1P_2_DN125_Dachablauf
 10
434.9715877816195
 20
81.6271036429598
 30
0.0
  0
ENDSEC
  0
SECTION
  2
OBJECTS
  0
DICTIONARY
  5
C
330
0
100
AcDbDictionary
281
     1
  3
ACAD_GROUP
350
D
  3
ACAD_LAYOUT
350
1A
  3
ACAD_MLEADERSTYLE
350
298
  3
ACAD_MLINESTYLE
350
17
  3
ACAD_PLOTSETTINGS
350
19
  3
ACAD_PLOTSTYLENAME
350
E
  3
ACAD_SCALELIST
350
48
  3
ACAD_VISUALSTYLE
350
2A
  3
AcDbVariableDictionary
350
296
  0
DICTIONARY
  5
D
102
{ACAD_REACTORS
330
C
102
}
330
C
100
AcDbDictionary
281
     1
  0
DICTIONARY
  5
1A
102
{ACAD_REACTORS
330
C
102
}
330
C
100
AcDbDictionary
281
     1
  3
Layout1
350
1E
  3
Layout2
350
26
  3
Model
350
22
  0
DICTIONARY
  5
298
102
{ACAD_REACTORS
330
C
102
}
330
C
100
AcDbDictionary
281
     1
  0
DICTIONARY
  5
17
102
{ACAD_REACTORS
330
C
102
}
330
C
100
AcDbDictionary
281
     1
  3
Standard
350
18
  0
DICTIONARY
  5
19
102
{ACAD_REACTORS
330
C
102
}
330
C
100
AcDbDictionary
281
     1
  0
ACDBDICTIONARYWDFLT
  5
E
102
{ACAD_REACTORS
330
C
102
}
330
C
100
AcDbDictionary
281
     1
  3
Normal
350
F
100
AcDbDictionaryWithDefault
340
F
  0
DICTIONARY
  5
48
102
{ACAD_REACTORS
330
C
102
}
330
C
100
AcDbDictionary
281
     1
  3
A0
350
49
  3
A1
350
4A
  3
A2
350
4B
  3
A3
350
4C
  3
A4
350
4D
  3
A5
350
4E
  3
A6
350
4F
  3
A7
350
50
  3
A8
350
51
  3
A9
350
52
  3
B0
350
53
  3
B1
350
54
  3
B2
350
55
  3
B3
350
56
  3
B4
350
57
  3
B5
350
58
  3
B6
350
59
  3
B7
350
5A
  3
B8
350
5B
  3
B9
350
5C
  3
C0
350
5D
  3
C1
350
5E
  3
C2
350
5F
  3
C3
350
60
  3
C4
350
61
  3
C5
350
62
  3
C6
350
63
  3
C7
350
64
  3
C8
350
65
  3
C9
350
66
  3
D0
350
67
  3
D1
350
68
  3
D2
350
69
  0
DICTIONARY
  5
2A
102
{ACAD_REACTORS
330
C
102
}
330
C
100
AcDbDictionary
281
     1
  3
2dWireframe
350
2F
  3
3D Hidden
350
31
  3
3dWireframe
350
30
  3
Basic
350
32
  3
Brighten
350
36
  3
ColorChange
350
3A
  3
Conceptual
350
34
  3
Dim
350
35
  3
Facepattern
350
39
  3
Flat
350
2B
  3
FlatWithEdges
350
2C
  3
Gouraud
350
2D
  3
GouraudWithEdges
350
2E
  3
Linepattern
350
38
  3
Realistic
350
33
  3
Thicken
350
37
  0
DICTIONARY
  5
296
102
{ACAD_REACTORS
330
C
102
}
330
C
100
AcDbDictionary
281
     1
  3
CANNOSCALE
350
299
  0
LAYOUT
  5
1E
102
{ACAD_REACTORS
330
1A
102
}
330
1A
100
AcDbPlotSettings
  1

  2
none_device
  4

  6

 40
0.0
 41
0.0
 42
0.0
 43
0.0
 44
0.0
 45
0.0
 46
0.0
 47
0.0
 48
0.0
 49
0.0
140
0.0
141
0.0
142
1.0
143
1.0
 70
   688
 72
     0
 73
     0
 74
     5
  7

 75
    16
147
1.0
148
0.0
149
0.0
100
AcDbLayout
  1
Layout1
 70
     1
 71
     1
 10
0.0
 20
0.0
 11
12.0
 21
9.0
 12
0.0
 22
0.0
 32
0.0
 14
1.00000000000000E+20
 24
1.00000000000000E+20
 34
1.00000000000000E+20
 15
-1.00000000000000E+20
 25
-1.00000000000000E+20
 35
-1.00000000000000E+20
146
0.0
 13
0.0
 23
0.0
 33
0.0
 16
1.0
 26
0.0
 36
0.0
 17
0.0
 27
1.0
 37
0.0
 76
     0
330
1B
  0
LAYOUT
  5
26
102
{ACAD_REACTORS
330
1A
102
}
330
1A
100
AcDbPlotSettings
  1

  2
none_device
  4

  6

 40
0.0
 41
0.0
 42
0.0
 43
0.0
 44
0.0
 45
0.0
 46
0.0
 47
0.0
 48
0.0
 49
0.0
140
0.0
141
0.0
142
1.0
143
1.0
 70
   688
 72
     0
 73
     0
 74
     5
  7

 75
    16
147
1.0
148
0.0
149
0.0
100
AcDbLayout
  1
Layout2
 70
     1
 71
     2
 10
0.0
 20
0.0
 11
0.0
 21
0.0
 12
0.0
 22
0.0
 32
0.0
 14
0.0
 24
0.0
 34
0.0
 15
0.0
 25
0.0
 35
0.0
146
0.0
 13
0.0
 23
0.0
 33
0.0
 16
1.0
 26
0.0
 36
0.0
 17
0.0
 27
1.0
 37
0.0
 76
     0
330
23
  0
LAYOUT
  5
22
102
{ACAD_REACTORS
330
1A
102
}
330
1A
100
AcDbPlotSettings
  1

  2
none_device
  4

  6

 40
0.0
 41
0.0
 42
0.0
 43
0.0
 44
0.0
 45
0.0
 46
0.0
 47
0.0
 48
0.0
 49
0.0
140
0.0
141
0.0
142
1.0
143
1.0
 70
  1712
 72
     0
 73
     0
 74
     0
  7

 75
     0
147
1.0
148
0.0
149
0.0
100
AcDbLayout
  1
Model
 70
     1
 71
     0
 10
0.0
 20
0.0
 11
12.0
 21
9.0
 12
0.0
 22
0.0
 32
0.0
 14
228.988190762881
 24
-109.5902985685444
 34
0.0
 15
640.954984800358
 25
272.844505854464
 35
0.0
146
0.0
 13
0.0
 23
0.0
 33
0.0
 16
1.0
 26
0.0
 36
0.0
 17
0.0
 27
1.0
 37
0.0
 76
     0
330
1F
331
29
  0
MLINESTYLE
  5
18
102
{ACAD_REACTORS
330
17
102
}
330
17
100
AcDbMlineStyle
  2
Standard
 70
     0
  3

 62
   256
 51
90.0
 52
90.0
 71
     2
 49
0.5
 62
   256
  6
BYLAYER
 49
-0.5
 62
   256
  6
BYLAYER
  0
ACDBPLACEHOLDER
  5
F
102
{ACAD_REACTORS
330
E
102
}
330
E
  0
SCALE
  5
49
102
{ACAD_REACTORS
330
48
102
}
330
48
100
AcDbScale
 70
     0
300
1:1
140
1.0
141
1.0
290
     1
  0
SCALE
  5
4A
102
{ACAD_REACTORS
330
48
102
}
330
48
100
AcDbScale
 70
     0
300
1:2
140
1.0
141
2.0
290
     0
  0
SCALE
  5
4B
102
{ACAD_REACTORS
330
48
102
}
330
48
100
AcDbScale
 70
     0
300
1:4
140
1.0
141
4.0
290
     0
  0
SCALE
  5
4C
102
{ACAD_REACTORS
330
48
102
}
330
48
100
AcDbScale
 70
     0
300
1:5
140
1.0
141
5.0
290
     0
  0
SCALE
  5
4D
102
{ACAD_REACTORS
330
48
102
}
330
48
100
AcDbScale
 70
     0
300
1:8
140
1.0
141
8.0
290
     0
  0
SCALE
  5
4E
102
{ACAD_REACTORS
330
48
102
}
330
48
100
AcDbScale
 70
     0
300
1:10
140
1.0
141
10.0
290
     0
  0
SCALE
  5
4F
102
{ACAD_REACTORS
330
48
102
}
330
48
100
AcDbScale
 70
     0
300
1:16
140
1.0
141
16.0
290
     0
  0
SCALE
  5
50
102
{ACAD_REACTORS
330
48
102
}
330
48
100
AcDbScale
 70
     0
300
1:20
140
1.0
141
20.0
290
     0
  0
SCALE
  5
51
102
{ACAD_REACTORS
330
48
102
}
330
48
100
AcDbScale
 70
     0
300
1:30
140
1.0
141
30.0
290
     0
  0
SCALE
  5
52
102
{ACAD_REACTORS
330
48
102
}
330
48
100
AcDbScale
 70
     0
300
1:40
140
1.0
141
40.0
290
     0
  0
SCALE
  5
53
102
{ACAD_REACTORS
330
48
102
}
330
48
100
AcDbScale
 70
     0
300
1:50
140
1.0
141
50.0
290
     0
  0
SCALE
  5
54
102
{ACAD_REACTORS
330
48
102
}
330
48
100
AcDbScale
 70
     0
300
1:100
140
1.0
141
100.0
290
     0
  0
SCALE
  5
55
102
{ACAD_REACTORS
330
48
102
}
330
48
100
AcDbScale
 70
     0
300
2:1
140
2.0
141
1.0
290
     0
  0
SCALE
  5
56
102
{ACAD_REACTORS
330
48
102
}
330
48
100
AcDbScale
 70
     0
300
4:1
140
4.0
141
1.0
290
     0
  0
SCALE
  5
57
102
{ACAD_REACTORS
330
48
102
}
330
48
100
AcDbScale
 70
     0
300
8:1
140
8.0
141
1.0
290
     0
  0
SCALE
  5
58
102
{ACAD_REACTORS
330
48
102
}
330
48
100
AcDbScale
 70
     0
300
10:1
140
10.0
141
1.0
290
     0
  0
SCALE
  5
59
102
{ACAD_REACTORS
330
48
102
}
330
48
100
AcDbScale
 70
     0
300
100:1
140
100.0
141
1.0
290
     0
  0
SCALE
  5
5A
102
{ACAD_REACTORS
330
48
102
}
330
48
100
AcDbScale
 70
     0
300
1/128" = 1'-0"
140
0.0078125
141
12.0
290
     0
  0
SCALE
  5
5B
102
{ACAD_REACTORS
330
48
102
}
330
48
100
AcDbScale
 70
     0
300
1/64" = 1'-0"
140
0.015625
141
12.0
290
     0
  0
SCALE
  5
5C
102
{ACAD_REACTORS
330
48
102
}
330
48
100
AcDbScale
 70
     0
300
1/32" = 1'-0"
140
0.03125
141
12.0
290
     0
  0
SCALE
  5
5D
102
{ACAD_REACTORS
330
48
102
}
330
48
100
AcDbScale
 70
     0
300
1/16" = 1'-0"
140
0.0625
141
12.0
290
     0
  0
SCALE
  5
5E
102
{ACAD_REACTORS
330
48
102
}
330
48
100
AcDbScale
 70
     0
300
3/32" = 1'-0"
140
0.09375
141
12.0
290
     0
  0
SCALE
  5
5F
102
{ACAD_REACTORS
330
48
102
}
330
48
100
AcDbScale
 70
     0
300
1/8" = 1'-0"
140
0.125
141
12.0
290
     0
  0
SCALE
  5
60
102
{ACAD_REACTORS
330
48
102
}
330
48
100
AcDbScale
 70
     0
300
3/16" = 1'-0"
140
0.1875
141
12.0
290
     0
  0
SCALE
  5
61
102
{ACAD_REACTORS
330
48
102
}
330
48
100
AcDbScale
 70
     0
300
1/4" = 1'-0"
140
0.25
141
12.0
290
     0
  0
SCALE
  5
62
102
{ACAD_REACTORS
330
48
102
}
330
48
100
AcDbScale
 70
     0
300
3/8" = 1'-0"
140
0.375
141
12.0
290
     0
  0
SCALE
  5
63
102
{ACAD_REACTORS
330
48
102
}
330
48
100
AcDbScale
 70
     0
300
1/2" = 1'-0"
140
0.5
141
12.0
290
     0
  0
SCALE
  5
64
102
{ACAD_REACTORS
330
48
102
}
330
48
100
AcDbScale
 70
     0
300
3/4" = 1'-0"
140
0.75
141
12.0
290
     0
  0
SCALE
  5
65
102
{ACAD_REACTORS
330
48
102
}
330
48
100
AcDbScale
 70
     0
300
1" = 1'-0"
140
1.0
141
12.0
290
     0
  0
SCALE
  5
66
102
{ACAD_REACTORS
330
48
102
}
330
48
100
AcDbScale
 70
     0
300
1-1/2" = 1'-0"
140
1.5
141
12.0
290
     0
  0
SCALE
  5
67
102
{ACAD_REACTORS
330
48
102
}
330
48
100
AcDbScale
 70
     0
300
3" = 1'-0"
140
3.0
141
12.0
290
     0
  0
SCALE
  5
68
102
{ACAD_REACTORS
330
48
102
}
330
48
100
AcDbScale
 70
     0
300
6" = 1'-0"
140
6.0
141
12.0
290
     0
  0
SCALE
  5
69
102
{ACAD_REACTORS
330
48
102
}
330
48
100
AcDbScale
 70
     0
300
1'-0" = 1'-0"
140
12.0
141
12.0
290
     0
  0
VISUALSTYLE
  5
2F
102
{ACAD_REACTORS
330
2A
102
}
330
2A
100
AcDbVisualStyle
  2
2dWireframe
 70
     4
 71
     0
 72
     2
 73
     0
 90
        0
 40
-0.6
 41
-30.0
 62
     5
 63
     7
 74
     1
 91
        4
 64
     7
 65
   257
 75
     1
175
     1
 42
1.0
 92
        0
 66
   257
 43
1.0
 76
     1
 77
     6
 78
     2
 67
     7
 79
     5
170
     0
171
     0
290
     0
174
     0
 93
        1
 44
0.0
173
     0
291
     0
 45
0.0
1001
ACAD
1000
AcDbSavedByObjectVersion
1070
     0
  0
VISUALSTYLE
  5
31
102
{ACAD_REACTORS
330
2A
102
}
330
2A
100
AcDbVisualStyle
  2
3D Hidden
 70
     6
 71
     1
 72
     2
 73
     2
 90
        0
 40
-0.6
 41
-30.0
 62
     5
 63
     7
 74
     2
 91
        2
 64
     7
 65
   257
 75
     2
175
     1
 42
40.0
 92
        0
 66
   257
 43
1.0
 76
     1
 77
     6
 78
     2
 67
     7
 79
     3
170
     0
171
     0
290
     0
174
     0
 93
        1
 44
0.0
173
     0
291
     0
 45
0.0
1001
ACAD
1000
AcDbSavedByObjectVersion
1070
     0
  0
VISUALSTYLE
  5
30
102
{ACAD_REACTORS
330
2A
102
}
330
2A
100
AcDbVisualStyle
  2
3dWireframe
 70
     5
 71
     0
 72
     2
 73
     0
 90
        0
 40
-0.6
 41
-30.0
 62
     5
 63
     7
 74
     1
 91
        4
 64
     7
 65
   257
 75
     1
175
     1
 42
1.0
 92
        0
 66
   257
 43
1.0
 76
     1
 77
     6
 78
     2
 67
     7
 79
     5
170
     0
171
     0
290
     0
174
     0
 93
        1
 44
0.0
173
     0
291
     0
 45
0.0
1001
ACAD
1000
AcDbSavedByObjectVersion
1070
     0
  0
VISUALSTYLE
  5
32
102
{ACAD_REACTORS
330
2A
102
}
330
2A
100
AcDbVisualStyle
  2
Basic
 70
     7
 71
     1
 72
     0
 73
     1
 90
        0
 40
-0.6
 41
-30.0
 62
     5
 63
     7
 74
     0
 91
        4
 64
     7
 65
   257
 75
     1
175
     1
 42
1.0
 92
        8
 66
     7
 43
1.0
 76
     1
 77
     6
 78
     2
 67
     7
 79
     5
170
     0
171
     0
290
     0
174
     0
 93
        1
 44
0.0
173
     0
291
     1
 45
0.0
1001
ACAD
1000
AcDbSavedByObjectVersion
1070
     0
  0
VISUALSTYLE
  5
36
102
{ACAD_REACTORS
330
2A
102
}
330
2A
100
AcDbVisualStyle
  2
Brighten
 70
    12
 71
     2
 72
     2
 73
     0
 90
        0
 40
-0.6
 41
-30.0
 62
     5
 63
     7
 74
     1
 91
        4
 64
     7
 65
   257
 75
     1
175
     1
 42
1.0
 92
        8
 66
     7
 43
1.0
 76
     1
 77
     6
 78
     2
 67
     7
 79
     5
170
     0
171
     0
290
     0
174
     0
 93
        1
 44
50.0
173
     0
291
     1
 45
0.0
1001
ACAD
1000
AcDbSavedByObjectVersion
1070
     0
  0
VISUALSTYLE
  5
3A
102
{ACAD_REACTORS
330
2A
102
}
330
2A
100
AcDbVisualStyle
  2
ColorChange
 70
    16
 71
     2
 72
     2
 73
     3
 90
        0
 40
-0.6
 41
-30.0
 62
     5
 63
     8
 74
     1
 91
        4
 64
     7
 65
   257
 75
     1
175
     1
 42
1.0
 92
        8
 66
     8
 43
1.0
 76
     1
 77
     6
 78
     2
 67
     7
 79
     5
170
     0
171
     0
290
     0
174
     0
 93
        1
 44
0.0
173
     0
291
     1
 45
0.0
1001
ACAD
1000
AcDbSavedByObjectVersion
1070
     0
  0
VISUALSTYLE
  5
34
102
{ACAD_REACTORS
330
2A
102
}
330
2A
100
AcDbVisualStyle
  2
Conceptual
 70
     9
 71
     3
 72
     2
 73
     0
 90
        0
 40
-0.6
 41
-30.0
 62
     5
 63
     7
 74
     2
 91
        2
 64
     7
 65
   257
 75
     1
175
     1
 42
40.0
 92
        8
 66
     7
 43
1.0
 76
     1
 77
     6
 78
     2
 67
     7
 79
     3
170
     0
171
     0
290
     0
174
     0
 93
        1
 44
0.0
173
     0
291
     0
 45
0.0
1001
ACAD
1000
AcDbSavedByObjectVersion
1070
     0
  0
VISUALSTYLE
  5
35
102
{ACAD_REACTORS
330
2A
102
}
330
2A
100
AcDbVisualStyle
  2
Dim
 70
    11
 71
     2
 72
     2
 73
     0
 90
        0
 40
-0.6
 41
-30.0
 62
     5
 63
     7
 74
     1
 91
        4
 64
     7
 65
   257
 75
     1
175
     1
 42
1.0
 92
        8
 66
     7
 43
1.0
 76
     1
 77
     6
 78
     2
 67
     7
 79
     5
170
     0
171
     0
290
     0
174
     0
 93
        1
 44
-50.0
173
     0
291
     1
 45
0.0
1001
ACAD
1000
AcDbSavedByObjectVersion
1070
     0
  0
VISUALSTYLE
  5
39
102
{ACAD_REACTORS
330
2A
102
}
330
2A
100
AcDbVisualStyle
  2
Facepattern
 70
    15
 71
     2
 72
     2
 73
     0
 90
        0
 40
-0.6
 41
-30.0
 62
     5
 63
     7
 74
     1
 91
        4
 64
     7
 65
   257
 75
     1
175
     1
 42
1.0
 92
        8
 66
     7
 43
1.0
 76
     1
 77
     6
 78
     2
 67
     7
 79
     5
170
     0
171
     0
290
     0
174
     0
 93
        1
 44
0.0
173
     0
291
     1
 45
0.0
1001
ACAD
1000
AcDbSavedByObjectVersion
1070
     0
  0
VISUALSTYLE
  5
2B
102
{ACAD_REACTORS
330
2A
102
}
330
2A
100
AcDbVisualStyle
  2
Flat
 70
     0
 71
     2
 72
     1
 73
     1
 90
        2
 40
-0.6
 41
30.0
 62
     5
 63
     7
 74
     0
 91
        4
 64
     7
 65
   257
 75
     1
175
     1
 42
1.0
 92
        8
 66
     7
 43
1.0
 76
     1
 77
     6
 78
     2
 67
     7
 79
     5
170
     0
171
     0
290
     0
174
     0
 93
       13
 44
0.0
173
     0
291
     1
 45
0.0
1001
ACAD
1000
AcDbSavedByObjectVersion
1070
     0
  0
VISUALSTYLE
  5
2C
102
{ACAD_REACTORS
330
2A
102
}
330
2A
100
AcDbVisualStyle
  2
FlatWithEdges
 70
     1
 71
     2
 72
     1
 73
     1
 90
        2
 40
-0.6
 41
30.0
 62
     5
 63
     7
 74
     1
 91
        4
 64
     7
 65
   257
 75
     1
175
     1
 42
1.0
 92
        0
 66
   257
 43
1.0
 76
     1
 77
     6
 78
     2
 67
     7
 79
     5
170
     0
171
     0
290
     0
174
     0
 93
       13
 44
0.0
173
     0
291
     1
 45
0.0
1001
ACAD
1000
AcDbSavedByObjectVersion
1070
     0
  0
VISUALSTYLE
  5
2D
102
{ACAD_REACTORS
330
2A
102
}
330
2A
100
AcDbVisualStyle
  2
Gouraud
 70
     2
 71
     2
 72
     2
 73
     1
 90
        2
 40
-0.6
 41
30.0
 62
     5
 63
     7
 74
     0
 91
        4
 64
     7
 65
   257
 75
     1
175
     1
 42
1.0
 92
        0
 66
     7
 43
1.0
 76
     1
 77
     6
 78
     2
 67
     7
 79
     5
170
     0
171
     0
290
     0
174
     0
 93
       13
 44
0.0
173
     0
291
     1
 45
0.0
1001
ACAD
1000
AcDbSavedByObjectVersion
1070
     0
  0
VISUALSTYLE
  5
2E
102
{ACAD_REACTORS
330
2A
102
}
330
2A
100
AcDbVisualStyle
  2
GouraudWithEdges
 70
     3
 71
     2
 72
     2
 73
     1
 90
        2
 40
-0.6
 41
30.0
 62
     5
 63
     7
 74
     1
 91
        4
 64
     7
 65
   257
 75
     1
175
     1
 42
1.0
 92
        0
 66
   257
 43
1.0
 76
     1
 77
     6
 78
     2
 67
     7
 79
     5
170
     0
171
     0
290
     0
174
     0
 93
       13
 44
0.0
173
     0
291
     1
 45
0.0
1001
ACAD
1000
AcDbSavedByObjectVersion
1070
     0
  0
VISUALSTYLE
  5
38
102
{ACAD_REACTORS
330
2A
102
}
330
2A
100
AcDbVisualStyle
  2
Linepattern
 70
    14
 71
     2
 72
     2
 73
     0
 90
        0
 40
-0.6
 41
-30.0
 62
     5
 63
     7
 74
     1
 91
        4
 64
     7
 65
   257
 75
     7
175
     7
 42
1.0
 92
        8
 66
     7
 43
1.0
 76
     1
 77
     6
 78
     2
 67
     7
 79
     5
170
     0
171
     0
290
     0
174
     0
 93
        1
 44
0.0
173
     0
291
     1
 45
0.0
1001
ACAD
1000
AcDbSavedByObjectVersion
1070
     0
  0
VISUALSTYLE
  5
33
102
{ACAD_REACTORS
330
2A
102
}
330
2A
100
AcDbVisualStyle
  2
Realistic
 70
     8
 71
     2
 72
     2
 73
     0
 90
        0
 40
-0.6
 41
-30.0
 62
     5
 63
     7
 74
     1
 91
        0
 64
     7
 65
   257
 75
     1
175
     1
 42
1.0
 92
        8
 66
     8
 43
1.0
 76
     1
 77
     6
 78
     2
 67
     7
 79
     5
170
     0
171
     0
290
     0
174
     0
 93
       13
 44
0.0
173
     0
291
     0
 45
0.0
1001
ACAD
1000
AcDbSavedByObjectVersion
1070
     0
  0
VISUALSTYLE
  5
37
102
{ACAD_REACTORS
330
2A
102
}
330
2A
100
AcDbVisualStyle
  2
Thicken
 70
    13
 71
     2
 72
     2
 73
     0
 90
        0
 40
-0.6
 41
-30.0
 62
     5
 63
     7
 74
     1
 91
        4
 64
     7
 65
   257
 75
     1
175
     1
 42
1.0
 92
       12
 66
     7
 43
1.0
 76
     1
 77
     6
 78
     2
 67
     7
 79
     5
170
     0
171
     0
290
     0
174
     0
 93
        1
 44
0.0
173
     0
291
     1
 45
0.0
1001
ACAD
1000
AcDbSavedByObjectVersion
1070
     0
  0
DICTIONARYVAR
  5
299
102
{ACAD_REACTORS
330
296
102
}
330
296
100
DictionaryVariables
280
     0
  1
1:1
  0
ENDSEC
  0
EOF
