  0
SECTION
  2
HEADER
  9
$ACADVER
  1
AC1015
  9
$ACADMAINTVER
 70
     6
  9
$DWGCODEPAGE
  3
ANSI_1252
  9
$INSBASE
 10
0.0
 20
0.0
 30
0.0
  9
$EXTMIN
 10
-33.0
 20
-419.0595616796114
 30
0.0
  9
$EXTMAX
 10
549.0531367055955
 20
229.003791
 30
0.0
  9
$LIMMIN
 10
0.0
 20
0.0
  9
$LIMMAX
 10
12.0
 20
9.0
  9
$ORTHOMODE
 70
     0
  9
$REGENMODE
 70
     1
  9
$FILLMODE
 70
     1
  9
$QTEXTMODE
 70
     0
  9
$MIRRTEXT
 70
     1
  9
$LTSCALE
 40
1.0
  9
$ATTMODE
 70
     1
  9
$TEXTSIZE
 40
0.2
  9
$TRACEWID
 40
0.05
  9
$TEXTSTYLE
  7
Standard
  9
$CLAYER
  8
0
  9
$CELTYPE
  6
ByLayer
  9
$CECOLOR
 62
   256
  9
$CELTSCALE
 40
1.0
  9
$DISPSILH
 70
     0
  9
$DIMSCALE
 40
1.0
  9
$DIMASZ
 40
0.18
  9
$DIMEXO
 40
0.0625
  9
$DIMDLI
 40
0.38
  9
$DIMRND
 40
0.0
  9
$DIMDLE
 40
0.0
  9
$DIMEXE
 40
0.18
  9
$DIMTP
 40
0.0
  9
$DIMTM
 40
0.0
  9
$DIMTXT
 40
0.18
  9
$DIMCEN
 40
0.09
  9
$DIMTSZ
 40
0.0
  9
$DIMTOL
 70
     0
  9
$DIMLIM
 70
     0
  9
$DIMTIH
 70
     1
  9
$DIMTOH
 70
     1
  9
$DIMSE1
 70
     0
  9
$DIMSE2
 70
     0
  9
$DIMTAD
 70
     0
  9
$DIMZIN
 70
     0
  9
$DIMBLK
  1

  9
$DIMASO
 70
     1
  9
$DIMSHO
 70
     1
  9
$DIMPOST
  1

  9
$DIMAPOST
  1

  9
$DIMALT
 70
     0
  9
$DIMALTD
 70
     2
  9
$DIMALTF
 40
25.4
  9
$DIMLFAC
 40
1.0
  9
$DIMTOFL
 70
     0
  9
$DIMTVP
 40
0.0
  9
$DIMTIX
 70
     0
  9
$DIMSOXD
 70
     0
  9
$DIMSAH
 70
     0
  9
$DIMBLK1
  1

  9
$DIMBLK2
  1

  9
$DIMSTYLE
  2
Standard
  9
$DIMCLRD
 70
     0
  9
$DIMCLRE
 70
     0
  9
$DIMCLRT
 70
     0
  9
$DIMTFAC
 40
1.0
  9
$DIMGAP
 40
0.09
  9
$DIMJUST
 70
     0
  9
$DIMSD1
 70
     0
  9
$DIMSD2
 70
     0
  9
$DIMTOLJ
 70
     1
  9
$DIMTZIN
 70
     0
  9
$DIMALTZ
 70
     0
  9
$DIMALTTZ
 70
     0
  9
$DIMUPT
 70
     0
  9
$DIMDEC
 70
     4
  9
$DIMTDEC
 70
     4
  9
$DIMALTU
 70
     2
  9
$DIMALTTD
 70
     2
  9
$DIMTXSTY
  7
Standard
  9
$DIMAUNIT
 70
     0
  9
$DIMADEC
 70
     0
  9
$DIMALTRND
 40
0.0
  9
$DIMAZIN
 70
     0
  9
$DIMDSEP
 70
    46
  9
$DIMATFIT
 70
     3
  9
$DIMFRAC
 70
     0
  9
$DIMLDRBLK
  1

  9
$DIMLUNIT
 70
     2
  9
$DIMLWD
 70
    -2
  9
$DIMLWE
 70
    -2
  9
$DIMTMOVE
 70
     0
  9
$LUNITS
 70
     2
  9
$LUPREC
 70
     4
  9
$SKETCHINC
 40
0.1
  9
$FILLETRAD
 40
0.5
  9
$AUNITS
 70
     0
  9
$AUPREC
 70
     0
  9
$MENU
  1
.
  9
$ELEVATION
 40
0.0
  9
$PELEVATION
 40
0.0
  9
$THICKNESS
 40
0.0
  9
$LIMCHECK
 70
     0
  9
$CHAMFERA
 40
0.5
  9
$CHAMFERB
 40
0.5
  9
$CHAMFERC
 40
1.0
  9
$CHAMFERD
 40
0.0
  9
$SKPOLY
 70
     0
  9
$TDCREATE
 40
2454706.644977778
  9
$TDUCREATE
 40
2454706.561644444
  9
$TDUPDATE
 40
2454706.644977789
  9
$TDUUPDATE
 40
2454706.561644456
  9
$TDINDWG
 40
0.0000000116
  9
$TDUSRTIMER
 40
0.0000000116
  9
$USRTIMER
 70
     1
  9
$ANGBASE
 50
0.0
  9
$ANGDIR
 70
     0
  9
$PDMODE
 70
     0
  9
$PDSIZE
 40
0.0
  9
$PLINEWID
 40
0.0
  9
$SPLFRAME
 70
     0
  9
$SPLINETYPE
 70
     6
  9
$SPLINESEGS
 70
     8
  9
$HANDSEED
  5
697
  9
$SURFTAB1
 70
     6
  9
$SURFTAB2
 70
     6
  9
$SURFTYPE
 70
     6
  9
$SURFU
 70
     6
  9
$SURFV
 70
     6
  9
$UCSBASE
  2

  9
$UCSNAME
  2

  9
$UCSORG
 10
0.0
 20
0.0
 30
0.0
  9
$UCSXDIR
 10
1.0
 20
0.0
 30
0.0
  9
$UCSYDIR
 10
0.0
 20
1.0
 30
0.0
  9
$UCSORTHOREF
  2

  9
$UCSORTHOVIEW
 70
     0
  9
$UCSORGTOP
 10
0.0
 20
0.0
 30
0.0
  9
$UCSORGBOTTOM
 10
0.0
 20
0.0
 30
0.0
  9
$UCSORGLEFT
 10
0.0
 20
0.0
 30
0.0
  9
$UCSORGRIGHT
 10
0.0
 20
0.0
 30
0.0
  9
$UCSORGFRONT
 10
0.0
 20
0.0
 30
0.0
  9
$UCSORGBACK
 10
0.0
 20
0.0
 30
0.0
  9
$PUCSBASE
  2

  9
$PUCSNAME
  2

  9
$PUCSORG
 10
0.0
 20
0.0
 30
0.0
  9
$PUCSXDIR
 10
1.0
 20
0.0
 30
0.0
  9
$PUCSYDIR
 10
0.0
 20
1.0
 30
0.0
  9
$PUCSORTHOREF
  2

  9
$PUCSORTHOVIEW
 70
     0
  9
$PUCSORGTOP
 10
0.0
 20
0.0
 30
0.0
  9
$PUCSORGBOTTOM
 10
0.0
 20
0.0
 30
0.0
  9
$PUCSORGLEFT
 10
0.0
 20
0.0
 30
0.0
  9
$PUCSORGRIGHT
 10
0.0
 20
0.0
 30
0.0
  9
$PUCSORGFRONT
 10
0.0
 20
0.0
 30
0.0
  9
$PUCSORGBACK
 10
0.0
 20
0.0
 30
0.0
  9
$USERI1
 70
     0
  9
$USERI2
 70
     0
  9
$USERI3
 70
     0
  9
$USERI4
 70
     0
  9
$USERI5
 70
     0
  9
$USERR1
 40
15.5
  9
$USERR2
 40
0.0
  9
$USERR3
 40
0.0
  9
$USERR4
 40
0.0
  9
$USERR5
 40
0.0
  9
$WORLDVIEW
 70
     1
  9
$SHADEDGE
 70
     3
  9
$SHADEDIF
 70
    70
  9
$TILEMODE
 70
     1
  9
$MAXACTVP
 70
    64
  9
$PINSBASE
 10
0.0
 20
0.0
 30
0.0
  9
$PLIMCHECK
 70
     0
  9
$PEXTMIN
 10
1.00000000000000E+20
 20
1.00000000000000E+20
 30
1.00000000000000E+20
  9
$PEXTMAX
 10
-1.00000000000000E+20
 20
-1.00000000000000E+20
 30
-1.00000000000000E+20
  9
$PLIMMIN
 10
0.0
 20
0.0
  9
$PLIMMAX
 10
12.0
 20
9.0
  9
$UNITMODE
 70
     0
  9
$VISRETAIN
 70
     1
  9
$PLINEGEN
 70
     0
  9
$PSLTSCALE
 70
     1
  9
$TREEDEPTH
 70
  3020
  9
$CMLSTYLE
  2
Standard
  9
$CMLJUST
 70
     0
  9
$CMLSCALE
 40
1.0
  9
$PROXYGRAPHICS
 70
     1
  9
$MEASUREMENT
 70
     1
  9
$CELWEIGHT
370
    -1
  9
$ENDCAPS
280
     0
  9
$JOINSTYLE
280
     0
  9
$LWDISPLAY
290
     0
  9
$INSUNITS
 70
     1
  9
$HYPERLINKBASE
  1

  9
$STYLESHEET
  1

  9
$XEDIT
290
     1
  9
$CEPSNTYPE
380
     0
  9
$PSTYLEMODE
290
     1
  9
$FINGERPRINTGUID
  2
{782AC300-0AD9-48D9-9CFA-3A840019A12D}
  9
$VERSIONGUID
  2
{FAEB1C32-E019-11D5-929B-00C0DF256EC4}
  9
$EXTNAMES
290
     1
  9
$PSVPSCALE
 40
0.0
  9
$OLESTARTUP
290
     0
  0
ENDSEC
  0
SECTION
  2
CLASSES
  0
CLASS
  1
ACDBDICTIONARYWDFLT
  2
AcDbDictionaryWithDefault
  3
ObjectDBX Classes
 90
        0
280
     0
281
     0
  0
CLASS
  1
VISUALSTYLE
  2
AcDbVisualStyle
  3
ObjectDBX Classes
 90
     4095
280
     0
281
     0
  0
CLASS
  1

  2
exOdDbCircle
  3

 90
        0
280
     0
281
     1
  0
CLASS
  1

  2
exOdDbPolyline
  3

 90
        0
280
     0
281
     1
  0
CLASS
  1
ACDBPLACEHOLDER
  2
AcDbPlaceHolder
  3
ObjectDBX Classes
 90
        0
280
     0
281
     0
  0
CLASS
  1
LAYOUT
  2
AcDbLayout
  3
ObjectDBX Classes
 90
        0
280
     0
281
     0
  0
ENDSEC
  0
SECTION
  2
TABLES
  0
TABLE
  2
VPORT
  5
8
330
0
100
AcDbSymbolTable
 70
     1
  0
VPORT
  5
29
330
8
100
AcDbSymbolTableRecord
100
AcDbViewportTableRecord
  2
*Active
 70
     0
 10
0.0
 20
0.0
 11
1.0
 21
1.0
 12
258.0265683527978
 22
-95.0278853398057
 13
0.0
 23
0.0
 14
0.5
 24
0.5
 15
0.5
 25
0.5
 16
0.0
 26
0.0
 36
1.0
 17
0.0
 27
0.0
 37
0.0
 40
712.8696879475726
 41
1.60267857142857
 42
50.0
 43
0.0
 44
0.0
 50
0.0
 51
0.0
 71
     0
 72
   100
 73
     1
 74
     3
 75
     0
 76
     0
 77
     0
 78
     0
281
     0
 65
     1
110
0.0
120
0.0
130
0.0
111
1.0
121
0.0
131
0.0
112
0.0
122
1.0
132
0.0
 79
     0
146
0.0
  0
ENDTAB
  0
TABLE
  2
LTYPE
  5
5
330
0
100
AcDbSymbolTable
 70
    10
  0
LTYPE
  5
14
330
5
100
AcDbSymbolTableRecord
100
AcDbLinetypeTableRecord
  2
ByBlock
 70
     0
  3

 72
    65
 73
     0
 40
0.0
  0
LTYPE
  5
15
330
5
100
AcDbSymbolTableRecord
100
AcDbLinetypeTableRecord
  2
ByLayer
 70
     0
  3

 72
    65
 73
     0
 40
0.0
  0
LTYPE
  5
16
330
5
100
AcDbSymbolTableRecord
100
AcDbLinetypeTableRecord
  2
Continuous
 70
     0
  3
Solid line
 72
    65
 73
     0
 40
0.0
  0
LTYPE
  5
3B
330
5
100
AcDbSymbolTableRecord
100
AcDbLinetypeTableRecord
  2
DASHED
 70
     0
  3
Dashed
 72
    65
 73
     2
 40
15.0
 49
7.0
 74
     0
 49
-8.0
 74
     0
  0
LTYPE
  5
3C
330
5
100
AcDbSymbolTableRecord
100
AcDbLinetypeTableRecord
  2
DOTTED
 70
     0
  3
Dotted
 72
    65
 73
     2
 40
1.0
 49
0.0
 74
     0
 49
-1.0
 74
     0
  0
LTYPE
  5
3D
330
5
100
AcDbSymbolTableRecord
100
AcDbLinetypeTableRecord
  2
DOT_CENTER
 70
     0
  3
Dot_Center
 72
    65
 73
     4
 40
14.0
 49
12.0
 74
     0
 49
-1.0
 74
     0
 49
0.0
 74
     0
 49
-1.0
 74
     0
  0
LTYPE
  5
3E
330
5
100
AcDbSymbolTableRecord
100
AcDbLinetypeTableRecord
  2
LONG_DASHED
 70
     0
  3
Long_Dashed
 72
    65
 73
     2
 40
15.0
 49
10.0
 74
     0
 49
-5.0
 74
     0
  0
LTYPE
  5
3F
330
5
100
AcDbSymbolTableRecord
100
AcDbLinetypeTableRecord
  2
DASH_CENTER
 70
     0
  3
Dash_Center
 72
    65
 73
     4
 40
14.0
 49
11.0
 74
     0
 49
-1.0
 74
     0
 49
1.0
 74
     0
 49
-1.0
 74
     0
  0
LTYPE
  5
40
330
5
100
AcDbSymbolTableRecord
100
AcDbLinetypeTableRecord
  2
PHANTOM
 70
     0
  3
Phantom
 72
    65
 73
     6
 40
13.0
 49
10.0
 74
     0
 49
-1.0
 74
     0
 49
0.0
 74
     0
 49
-1.0
 74
     0
 49
0.0
 74
     0
 49
-1.0
 74
     0
  0
LTYPE
  5
41
330
5
100
AcDbSymbolTableRecord
100
AcDbLinetypeTableRecord
  2
CENTER_DASH_DASH
 70
     0
  3
Center_Dash_Dash
 72
    65
 73
     6
 40
14.0
 49
9.0
 74
     0
 49
-1.0
 74
     0
 49
1.0
 74
     0
 49
-1.0
 74
     0
 49
1.0
 74
     0
 49
-1.0
 74
     0
  0
LTYPE
  5
42
330
5
100
AcDbSymbolTableRecord
100
AcDbLinetypeTableRecord
  2
DASHDOT
 70
     0
  3
DASHDOT
 72
    65
 73
     4
 40
16.0
 49
10.0
 74
     0
 49
-3.0
 74
     0
 49
0.0
 74
     0
 49
-3.0
 74
     0
  0
LTYPE
  5
43
330
5
100
AcDbSymbolTableRecord
100
AcDbLinetypeTableRecord
  2
CENTERX2
 70
     0
  3
CENTERX2
 72
    65
 73
     4
 40
22.0
 49
13.0
 74
     0
 49
-3.0
 74
     0
 49
3.0
 74
     0
 49
-3.0
 74
     0
  0
ENDTAB
  0
TABLE
  2
LAYER
  5
2
330
0
100
AcDbSymbolTable
 70
     6
  0
LAYER
  5
10
330
2
100
AcDbSymbolTableRecord
100
AcDbLayerTableRecord
  2
0
 70
     0
 62
     7
  6
Continuous
370
    -3
390
F
  0
LAYER
  5
44
330
2
100
AcDbSymbolTableRecord
100
AcDbLayerTableRecord
  2
1
 70
     0
 62
     7
  6
Continuous
370
    -3
390
F
  0
LAYER
  5
45
330
2
100
AcDbSymbolTableRecord
100
AcDbLayerTableRecord
  2
LC-001-002-----0
 70
     0
 62
     7
  6
Continuous
370
    -3
390
F
  0
LAYER
  5
46
330
2
100
AcDbSymbolTableRecord
100
AcDbLayerTableRecord
  2
LC-002-002-RND-0
 70
     0
 62
     7
  6
Continuous
370
    -3
390
F
  0
LAYER
  5
47
330
2
100
AcDbSymbolTableRecord
100
AcDbLayerTableRecord
  2
LC-003-003-----0
 70
     0
 62
     7
  6
Continuous
370
    -3
390
F
  0
LAYER
  5
48
330
2
100
AcDbSymbolTableRecord
100
AcDbLayerTableRecord
  2
LC-006-007-KH--0
 70
     0
 62
     7
  6
Continuous
370
    -3
390
F
  0
ENDTAB
  0
TABLE
  2
STYLE
  5
3
330
0
100
AcDbSymbolTable
 70
     2
  0
STYLE
  5
11
330
3
100
AcDbSymbolTableRecord
100
AcDbTextStyleTableRecord
  2
Standard
 70
     0
 40
0.0
 41
1.0
 50
0.0
 71
     0
 42
0.2
  3
txt
  4

  0
STYLE
  5
659
330
3
100
AcDbSymbolTableRecord
100
AcDbTextStyleTableRecord
  2
CONVERTER_11
 70
     0
 40
0.0
 41
0.9
 50
0.0
 71
     0
 42
0.2
  3
txt.shx
  4

  0
ENDTAB
  0
TABLE
  2
VIEW
  5
6
330
0
100
AcDbSymbolTable
 70
     0
  0
ENDTAB
  0
TABLE
  2
UCS
  5
7
330
0
100
AcDbSymbolTable
 70
     0
  0
ENDTAB
  0
TABLE
  2
APPID
  5
9
330
0
100
AcDbSymbolTable
 70
     1
  0
APPID
  5
12
330
9
100
AcDbSymbolTableRecord
100
AcDbRegAppTableRecord
  2
ACAD
 70
     0
  0
ENDTAB
  0
TABLE
  2
DIMSTYLE
  5
A
330
0
100
AcDbSymbolTable
 70
     7
100
AcDbDimStyleTable
  0
DIMSTYLE
105
27
330
A
100
AcDbSymbolTableRecord
100
AcDbDimStyleTableRecord
  2
Standard
 70
     0
340
11
  0
DIMSTYLE
105
65D
102
{ACAD_REACTORS
330
65E
102
}
330
A
100
AcDbSymbolTableRecord
100
AcDbDimStyleTableRecord
  2
ME10_DIM_10
 70
     0
 41
15.0
 42
0.0
 44
2.0
 73
     0
 74
     0
 77
     1
 78
     8
140
15.0
147
2.0
172
     1
173
     1
176
     4
177
     4
178
     1
271
     2
340
659
  0
DIMSTYLE
105
668
102
{ACAD_REACTORS
330
669
102
}
330
A
100
AcDbSymbolTableRecord
100
AcDbDimStyleTableRecord
  2
ME10_DIM_11
 70
     0
  3
DN<>
 41
15.0
 42
0.0
 44
2.0
 73
     0
 74
     0
 77
     1
 78
     8
140
15.0
147
2.0
172
     1
173
     1
176
     4
177
     4
178
     1
271
     2
340
659
  0
DIMSTYLE
105
673
102
{ACAD_REACTORS
330
674
102
}
330
A
100
AcDbSymbolTableRecord
100
AcDbDimStyleTableRecord
  2
ME10_DIM_12
 70
     0
 41
15.0
 42
0.0
 44
2.0
 73
     0
 74
     0
 77
     1
 78
     8
140
15.0
147
2.0
172
     1
173
     1
176
     4
177
     4
178
     1
271
     2
340
659
  0
DIMSTYLE
105
67E
102
{ACAD_REACTORS
330
67F
102
}
330
A
100
AcDbSymbolTableRecord
100
AcDbDimStyleTableRecord
  2
ME10_DIM_13
 70
     0
  3
DN<>
 41
15.0
 42
0.0
 44
2.0
 73
     0
 74
     0
 77
     1
 78
     8
140
15.0
147
2.0
172
     1
173
     1
176
     4
177
     4
178
     1
271
     2
340
659
  0
DIMSTYLE
105
689
102
{ACAD_REACTORS
330
68A
102
}
330
A
100
AcDbSymbolTableRecord
100
AcDbDimStyleTableRecord
  2
ME10_DIM_14
 70
     0
 41
15.0
 42
0.0
 44
2.0
 73
     0
 74
     0
 77
     1
 78
     8
140
15.0
147
2.0
172
     1
173
     1
176
     4
177
     4
178
     1
271
     2
340
659
  0
DIMSTYLE
105
694
102
{ACAD_REACTORS
330
695
102
}
330
A
100
AcDbSymbolTableRecord
100
AcDbDimStyleTableRecord
  2
ME10_DIM_15
 70
     0
  3
220-<>
 41
15.0
 42
0.0
 44
2.0
 73
     0
 74
     0
 77
     1
 78
     8
140
15.0
147
2.0
172
     1
173
     1
176
     4
177
     4
178
     1
271
     2
340
659
  0
ENDTAB
  0
TABLE
  2
BLOCK_RECORD
  5
1
330
0
100
AcDbSymbolTable
 70
     9
  0
BLOCK_RECORD
  5
1F
330
1
100
AcDbSymbolTableRecord
100
AcDbBlockTableRecord
  2
*Model_Space
340
22
  0
BLOCK_RECORD
  5
1B
330
1
100
AcDbSymbolTableRecord
100
AcDbBlockTableRecord
  2
*Paper_Space
340
1E
  0
BLOCK_RECORD
  5
23
330
1
100
AcDbSymbolTableRecord
100
AcDbBlockTableRecord
  2
*Paper_Space0
340
26
  0
BLOCK_RECORD
  5
49
330
1
100
AcDbSymbolTableRecord
100
AcDbBlockTableRecord
  2
HL_710_2_Rückstauverschluss__1
340
0
102
{BLKREFS
331
4F
102
}
  0
BLOCK_RECORD
  5
4C
330
1
100
AcDbSymbolTableRecord
100
AcDbBlockTableRecord
  2
HL710_2-Draufsicht
340
0
102
{BLKREFS
331
50
102
}
  0
BLOCK_RECORD
  5
651
330
1
100
AcDbSymbolTableRecord
100
AcDbBlockTableRecord
  2
*D3
340
0
  0
BLOCK_RECORD
  5
65F
330
1
100
AcDbSymbolTableRecord
100
AcDbBlockTableRecord
  2
*D4
340
0
  0
BLOCK_RECORD
  5
66A
330
1
100
AcDbSymbolTableRecord
100
AcDbBlockTableRecord
  2
*D5
340
0
  0
BLOCK_RECORD
  5
675
330
1
100
AcDbSymbolTableRecord
100
AcDbBlockTableRecord
  2
*D6
340
0
  0
BLOCK_RECORD
  5
680
330
1
100
AcDbSymbolTableRecord
100
AcDbBlockTableRecord
  2
*D7
340
0
  0
BLOCK_RECORD
  5
68B
330
1
100
AcDbSymbolTableRecord
100
AcDbBlockTableRecord
  2
*D8
340
0
  0
ENDTAB
  0
ENDSEC
  0
SECTION
  2
BLOCKS
  0
BLOCK
  5
20
330
1F
100
AcDbEntity
  8
0
100
AcDbBlockBegin
  2
*Model_Space
 70
     0
 71
     0
 10
0.0
 20
0.0
 30
0.0
  3
*Model_Space
  1

  0
ENDBLK
  5
21
330
1F
100
AcDbEntity
  8
0
100
AcDbBlockEnd
  0
BLOCK
  5
1C
330
1B
100
AcDbEntity
 67
     1
  8
0
100
AcDbBlockBegin
  2
*Paper_Space
 70
     0
 71
     0
 10
0.0
 20
0.0
 30
0.0
  3
*Paper_Space
  1

  0
ENDBLK
  5
1D
330
1B
100
AcDbEntity
 67
     1
  8
0
100
AcDbBlockEnd
  0
BLOCK
  5
24
330
23
100
AcDbEntity
  8
0
100
AcDbBlockBegin
  2
*Paper_Space0
 70
     0
 71
     0
 10
0.0
 20
0.0
 30
0.0
  3
*Paper_Space0
  1

  0
ENDBLK
  5
25
330
23
100
AcDbEntity
  8
0
100
AcDbBlockEnd
  0
BLOCK
  5
4A
330
49
100
AcDbEntity
  8
0
100
AcDbBlockBegin
  2
HL_710_2_Rückstauverschluss__1
 70
     0
 71
     0
 10
-659.290850392019
 20
-890.4358168735074
 30
0.0
  3
HL_710_2_Rückstauverschluss__1
  1

  0
POINT
  5
51
330
49
100
AcDbEntity
  8
LC-003-003-----0
 62
     7
100
AcDbPoint
 10
279.943097
 20
-90.999367
 30
0.0
  0
POINT
  5
52
330
49
100
AcDbEntity
  8
LC-003-003-----0
 62
     7
100
AcDbPoint
 10
301.442144
 20
229.003791
 30
0.0
  0
POINT
  5
53
330
49
100
AcDbEntity
  8
LC-003-003-----0
 62
     7
100
AcDbPoint
 10
0.5
 20
-59.45000000000005
 30
0.0
  0
POINT
  5
54
330
49
100
AcDbEntity
  8
LC-003-003-----0
 62
     7
100
AcDbPoint
 10
0.5
 20
59.44999999999999
 30
0.0
  0
POINT
  5
55
330
49
100
AcDbEntity
  8
LC-003-003-----0
 62
     7
100
AcDbPoint
 10
424.917611
 20
-30.99834200000009
 30
0.0
  0
POINT
  5
56
330
49
100
AcDbEntity
  8
LC-003-003-----0
 62
     7
100
AcDbPoint
 10
59.02756799999997
 20
0.0
 30
0.0
  0
POINT
  5
57
330
49
100
AcDbEntity
  8
LC-003-003-----0
 62
     7
100
AcDbPoint
 10
490.0
 20
-84.72032300000001
 30
0.0
  0
POINT
  5
58
330
49
100
AcDbEntity
  8
LC-003-003-----0
 62
     7
100
AcDbPoint
 10
0.0
 20
-55.45000000000005
 30
0.0
  0
POINT
  5
59
330
49
100
AcDbEntity
  8
LC-003-003-----0
 62
     7
100
AcDbPoint
 10
431.022713
 20
101.496358
 30
0.0
  0
POINT
  5
5A
330
49
100
AcDbEntity
  8
LC-003-003-----0
 62
     7
100
AcDbPoint
 10
53.01974399999995
 20
116.245725
 30
0.0
  0
POINT
  5
5B
330
49
100
AcDbEntity
  8
LC-003-003-----0
 62
     7
100
AcDbPoint
 10
485.500285
 20
24.00233499999996
 30
0.0
  0
POINT
  5
5C
330
49
100
AcDbEntity
  8
LC-003-003-----0
 62
     7
100
AcDbPoint
 10
485.48394
 20
-85.99783900000011
 30
0.0
  0
LINE
  5
5D
330
49
100
AcDbEntity
  8
1
  6
Continuous
 62
     3
100
AcDbLine
 10
16.5
 20
-60.75
 30
0.0
 11
16.5
 21
60.75
 31
0.0
  0
LINE
  5
5E
330
49
100
AcDbEntity
  8
1
  6
Continuous
 62
     3
100
AcDbLine
 10
6.5
 20
60.75
 30
0.0
 11
6.5
 21
-60.75
 31
0.0
  0
LINE
  5
5F
330
49
100
AcDbEntity
  8
1
  6
DOT_CENTER
 62
     2
100
AcDbLine
 10
-6.0
 20
-55.0
 30
0.0
 11
-3.0
 21
-55.0
 31
0.0
  0
LINE
  5
60
330
49
100
AcDbEntity
  8
1
  6
DOT_CENTER
 62
     2
100
AcDbLine
 10
-6.0
 20
55.0
 30
0.0
 11
-3.0
 21
55.0
 31
0.0
  0
LINE
  5
61
330
49
100
AcDbEntity
  8
1
  6
PHANTOM
 62
     2
100
AcDbLine
 10
415.1091006060376
 20
-30.99913390357665
 30
0.0
 11
499.7270434322697
 21
-30.99787842912531
 31
0.0
  0
LINE
  5
62
330
49
100
AcDbEntity
  8
1
  6
PHANTOM
 62
     2
100
AcDbLine
 10
-6.0
 20
0.0
 30
0.0
 11
75.05531021013797
 21
0.0
 31
0.0
  0
LINE
  5
63
330
49
100
AcDbEntity
  8
LC-001-002-----0
  6
Continuous
 62
     7
100
AcDbLine
 10
400.367431
 20
104.496358
 30
0.0
 11
427.952713
 21
104.496358
 31
0.0
  0
LINE
  5
64
330
49
100
AcDbEntity
  8
LC-001-002-----0
  6
Continuous
 62
     7
100
AcDbLine
 10
292.367431
 20
104.496358
 30
0.0
 11
381.367746
 21
104.496358
 31
0.0
  0
LINE
  5
65
330
49
100
AcDbEntity
  8
LC-001-002-----0
  6
Continuous
 62
     7
100
AcDbLine
 10
210.715026
 20
119.245725
 30
0.0
 11
238.300308
 21
119.245725
 31
0.0
  0
LINE
  5
66
330
49
100
AcDbEntity
  8
LC-001-002-----0
  6
Continuous
 62
     7
100
AcDbLine
 10
102.715026
 20
119.245725
 30
0.0
 11
191.715342
 21
119.245725
 31
0.0
  0
LINE
  5
67
330
49
100
AcDbEntity
  8
LC-001-002-----0
  6
Continuous
 62
     7
100
AcDbLine
 10
234.221704
 20
-81.74939900000004
 30
0.0
 11
232.221704
 21
-81.74939900000004
 31
0.0
  0
LINE
  5
68
330
49
100
AcDbEntity
  8
LC-001-002-----0
  6
Continuous
 62
     7
100
AcDbLine
 10
234.221704
 20
-64.74939900000004
 30
0.0
 11
232.221704
 21
-64.74939900000004
 31
0.0
  0
LINE
  5
69
330
49
100
AcDbEntity
  8
LC-001-002-----0
  6
Continuous
 62
     7
100
AcDbLine
 10
231.268917
 20
-78.15687600000001
 30
0.0
 11
226.174499
 21
-78.15687600000001
 31
0.0
  0
LINE
  5
6A
330
49
100
AcDbEntity
  8
LC-001-002-----0
  6
Continuous
 62
     7
100
AcDbLine
 10
231.268917
 20
-68.34192200000007
 30
0.0
 11
226.174499
 21
-68.34192200000007
 31
0.0
  0
LINE
  5
6B
330
49
100
AcDbEntity
  8
LC-001-002-----0
  6
Continuous
 62
     7
100
AcDbLine
 10
226.174499
 20
-83.0643540000001
 30
0.0
 11
231.268909
 21
-83.0643540000001
 31
0.0
  0
LINE
  5
6C
330
49
100
AcDbEntity
  8
LC-001-002-----0
  6
Continuous
 62
     7
100
AcDbLine
 10
226.174506
 20
-63.43444399999999
 30
0.0
 11
231.268909
 21
-63.43444399999999
 31
0.0
  0
LINE
  5
6D
330
49
100
AcDbEntity
  8
LC-001-002-----0
  6
Continuous
 62
     7
100
AcDbLine
 10
232.221704
 20
-80.610636
 30
0.0
 11
232.221704
 21
-65.88818300000003
 31
0.0
  0
LINE
  5
6E
330
49
100
AcDbEntity
  8
LC-001-002-----0
  6
Continuous
 62
     7
100
AcDbLine
 10
225.221704
 20
-80.61070900000004
 30
0.0
 11
225.221704
 21
-65.88824399999999
 31
0.0
  0
LINE
  5
6F
330
49
100
AcDbEntity
  8
LC-001-002-----0
  6
Continuous
 62
     7
100
AcDbLine
 10
225.221704
 20
-77.24939900000004
 30
0.0
 11
220.602897
 21
-77.24939900000004
 31
0.0
  0
LINE
  5
70
330
49
100
AcDbEntity
  8
LC-001-002-----0
  6
Continuous
 62
     7
100
AcDbLine
 10
255.650111
 20
-78.15687600000001
 30
0.0
 11
249.602897
 21
-78.15687600000001
 31
0.0
  0
LINE
  5
71
330
49
100
AcDbEntity
  8
LC-001-002-----0
  6
Continuous
 62
     7
100
AcDbLine
 10
255.650111
 20
-68.34192200000007
 30
0.0
 11
249.602897
 21
-68.34192200000007
 31
0.0
  0
LINE
  5
72
330
49
100
AcDbEntity
  8
LC-001-002-----0
  6
Continuous
 62
     7
100
AcDbLine
 10
249.602897
 20
-83.0643540000001
 30
0.0
 11
255.650102
 21
-83.0643540000001
 31
0.0
  0
LINE
  5
73
330
49
100
AcDbEntity
  8
LC-001-002-----0
  6
Continuous
 62
     7
100
AcDbLine
 10
249.602897
 20
-63.43444399999999
 30
0.0
 11
255.650102
 21
-63.43444399999999
 31
0.0
  0
LINE
  5
74
330
49
100
AcDbEntity
  8
LC-001-002-----0
  6
Continuous
 62
     7
100
AcDbLine
 10
256.602897
 20
-80.610636
 30
0.0
 11
256.602897
 21
-65.88818300000003
 31
0.0
  0
LINE
  5
75
330
49
100
AcDbEntity
  8
LC-001-002-----0
  6
Continuous
 62
     7
100
AcDbLine
 10
249.602897
 20
-83.0643540000001
 30
0.0
 11
249.602897
 21
-63.43444399999999
 31
0.0
  0
LINE
  5
76
330
49
100
AcDbEntity
  8
LC-001-002-----0
  6
Continuous
 62
     7
100
AcDbLine
 10
220.602897
 20
-69.24939900000004
 30
0.0
 11
220.602897
 21
-77.24939900000004
 31
0.0
  0
LINE
  5
77
330
49
100
AcDbEntity
  8
LC-001-002-----0
  6
Continuous
 62
     7
100
AcDbLine
 10
220.602897
 20
-77.24939900000004
 30
0.0
 11
219.602897
 21
-76.24939900000004
 31
0.0
  0
LINE
  5
78
330
49
100
AcDbEntity
  8
LC-001-002-----0
  6
Continuous
 62
     7
100
AcDbLine
 10
220.602897
 20
-69.24939900000004
 30
0.0
 11
219.602897
 21
-70.24939900000004
 31
0.0
  0
LINE
  5
79
330
49
100
AcDbEntity
  8
LC-001-002-----0
  6
Continuous
 62
     7
100
AcDbLine
 10
219.602897
 20
-76.24939900000004
 30
0.0
 11
219.602897
 21
-70.24939900000004
 31
0.0
  0
LINE
  5
7A
330
49
100
AcDbEntity
  8
LC-001-002-----0
  6
Continuous
 62
     7
100
AcDbLine
 10
225.221704
 20
-69.24939900000004
 30
0.0
 11
220.602897
 21
-69.24939900000004
 31
0.0
  0
LINE
  5
7B
330
49
100
AcDbEntity
  8
LC-003-003-----0
  6
Continuous
 62
     2
100
AcDbLine
 10
219.602897
 20
-76.24939900000004
 30
0.0
 11
225.221704
 21
-76.24939900000004
 31
0.0
  0
LINE
  5
7C
330
49
100
AcDbEntity
  8
LC-001-002-----0
  6
Continuous
 62
     7
100
AcDbLine
 10
225.221704
 20
59.75331699999998
 30
0.0
 11
220.602897
 21
59.75331699999998
 31
0.0
  0
LINE
  5
7D
330
49
100
AcDbEntity
  8
LC-003-003-----0
  6
Continuous
 62
     2
100
AcDbLine
 10
219.602897
 20
-70.24939900000004
 30
0.0
 11
225.221704
 21
-70.24939900000004
 31
0.0
  0
LINE
  5
7E
330
49
100
AcDbEntity
  8
LC-001-002-----0
  6
Continuous
 62
     7
100
AcDbLine
 10
255.650111
 20
50.84583999999995
 30
0.0
 11
249.602897
 21
50.84583999999995
 31
0.0
  0
LINE
  5
7F
330
49
100
AcDbEntity
  8
LC-001-002-----0
  6
Continuous
 62
     7
100
AcDbLine
 10
255.650111
 20
60.66079499999995
 30
0.0
 11
249.602897
 21
60.66079499999995
 31
0.0
  0
LINE
  5
80
330
49
100
AcDbEntity
  8
LC-001-002-----0
  6
Continuous
 62
     7
100
AcDbLine
 10
231.268917
 20
50.84583999999995
 30
0.0
 11
226.174499
 21
50.84583999999995
 31
0.0
  0
LINE
  5
81
330
49
100
AcDbEntity
  8
LC-001-002-----0
  6
Continuous
 62
     7
100
AcDbLine
 10
231.268917
 20
60.66079499999995
 30
0.0
 11
226.174499
 21
60.66079499999995
 31
0.0
  0
LINE
  5
82
330
49
100
AcDbEntity
  8
LC-001-002-----0
  6
Continuous
 62
     7
100
AcDbLine
 10
226.174499
 20
45.93836299999998
 30
0.0
 11
231.268909
 21
45.93836299999998
 31
0.0
  0
LINE
  5
83
330
49
100
AcDbEntity
  8
LC-001-002-----0
  6
Continuous
 62
     7
100
AcDbLine
 10
226.174506
 20
65.56827199999998
 30
0.0
 11
231.268909
 21
65.56827199999998
 31
0.0
  0
LINE
  5
84
330
49
100
AcDbEntity
  8
LC-001-002-----0
  6
Continuous
 62
     7
100
AcDbLine
 10
232.221704
 20
48.39207999999996
 30
0.0
 11
232.221704
 21
63.11453299999999
 31
0.0
  0
LINE
  5
85
330
49
100
AcDbEntity
  8
LC-001-002-----0
  6
Continuous
 62
     7
100
AcDbLine
 10
225.221704
 20
48.39200699999998
 30
0.0
 11
225.221704
 21
63.11447199999998
 31
0.0
  0
LINE
  5
86
330
49
100
AcDbEntity
  8
LC-001-002-----0
  6
Continuous
 62
     7
100
AcDbLine
 10
249.602897
 20
45.93836299999998
 30
0.0
 11
255.650102
 21
45.93836299999998
 31
0.0
  0
LINE
  5
87
330
49
100
AcDbEntity
  8
LC-001-002-----0
  6
Continuous
 62
     7
100
AcDbLine
 10
249.602897
 20
65.56827199999998
 30
0.0
 11
255.650102
 21
65.56827199999998
 31
0.0
  0
LINE
  5
88
330
49
100
AcDbEntity
  8
LC-001-002-----0
  6
Continuous
 62
     7
100
AcDbLine
 10
256.602897
 20
48.39207999999996
 30
0.0
 11
256.602897
 21
63.11453299999999
 31
0.0
  0
LINE
  5
89
330
49
100
AcDbEntity
  8
LC-001-002-----0
  6
Continuous
 62
     7
100
AcDbLine
 10
249.602897
 20
45.93836299999998
 30
0.0
 11
249.602897
 21
65.56827199999998
 31
0.0
  0
LINE
  5
8A
330
49
100
AcDbEntity
  8
LC-001-002-----0
  6
Continuous
 62
     7
100
AcDbLine
 10
220.602897
 20
59.75331699999998
 30
0.0
 11
220.602897
 21
51.75331699999998
 31
0.0
  0
LINE
  5
8B
330
49
100
AcDbEntity
  8
LC-001-002-----0
  6
Continuous
 62
     7
100
AcDbLine
 10
220.602897
 20
51.75331699999998
 30
0.0
 11
219.602897
 21
52.75331699999998
 31
0.0
  0
LINE
  5
8C
330
49
100
AcDbEntity
  8
LC-001-002-----0
  6
Continuous
 62
     7
100
AcDbLine
 10
220.602897
 20
59.75331699999998
 30
0.0
 11
219.602897
 21
58.75331699999998
 31
0.0
  0
LINE
  5
8D
330
49
100
AcDbEntity
  8
LC-001-002-----0
  6
Continuous
 62
     7
100
AcDbLine
 10
219.602897
 20
52.75331699999998
 30
0.0
 11
219.602897
 21
58.75331699999998
 31
0.0
  0
LINE
  5
8E
330
49
100
AcDbEntity
  8
LC-003-003-----0
  6
Continuous
 62
     2
100
AcDbLine
 10
219.602897
 20
58.75331699999998
 30
0.0
 11
225.221704
 21
58.75331699999998
 31
0.0
  0
LINE
  5
8F
330
49
100
AcDbEntity
  8
LC-003-003-----0
  6
Continuous
 62
     2
100
AcDbLine
 10
219.602897
 20
52.75331699999998
 30
0.0
 11
225.221704
 21
52.75331699999998
 31
0.0
  0
LINE
  5
90
330
49
100
AcDbEntity
  8
LC-001-002-----0
  6
Continuous
 62
     7
100
AcDbLine
 10
234.221704
 20
47.25331699999998
 30
0.0
 11
232.221704
 21
47.25331699999998
 31
0.0
  0
LINE
  5
91
330
49
100
AcDbEntity
  8
LC-001-002-----0
  6
Continuous
 62
     7
100
AcDbLine
 10
380.867431
 20
89.99635799999999
 30
0.0
 11
380.867431
 21
96.99635799999999
 31
0.0
  0
LINE
  5
92
330
49
100
AcDbEntity
  8
LC-001-002-----0
  6
Continuous
 62
     7
100
AcDbLine
 10
400.867431
 20
89.99635799999999
 30
0.0
 11
400.867431
 21
96.99635799999999
 31
0.0
  0
LINE
  5
93
330
49
100
AcDbEntity
  8
LC-001-002-----0
  6
Continuous
 62
     7
100
AcDbLine
 10
272.867431
 20
89.99635799999999
 30
0.0
 11
272.867431
 21
96.99635799999999
 31
0.0
  0
LINE
  5
94
330
49
100
AcDbEntity
  8
LC-001-002-----0
  6
Continuous
 62
     7
100
AcDbLine
 10
292.867431
 20
89.99635799999999
 30
0.0
 11
292.867431
 21
96.99635799999999
 31
0.0
  0
LINE
  5
95
330
49
100
AcDbEntity
  8
LC-001-002-----0
  6
Continuous
 62
     7
100
AcDbLine
 10
381.367431
 20
97.49635799999999
 30
0.0
 11
400.367431
 21
97.49635799999999
 31
0.0
  0
LINE
  5
96
330
49
100
AcDbEntity
  8
LC-001-002-----0
  6
Continuous
 62
     7
100
AcDbLine
 10
273.367431
 20
97.49635799999999
 30
0.0
 11
292.367431
 21
97.49635799999999
 31
0.0
  0
LINE
  5
97
330
49
100
AcDbEntity
  8
LC-001-002-----0
  6
Continuous
 62
     7
100
AcDbLine
 10
431.022713
 20
101.496358
 30
0.0
 11
431.022713
 21
89.99635799999999
 31
0.0
  0
LINE
  5
98
330
49
100
AcDbEntity
  8
LC-001-002-----0
  6
Continuous
 62
     7
100
AcDbLine
 10
242.712149
 20
101.496358
 30
0.0
 11
242.712149
 21
89.99635799999999
 31
0.0
  0
LINE
  5
99
330
49
100
AcDbEntity
  8
LC-001-002-----0
  6
Continuous
 62
     7
100
AcDbLine
 10
245.712149
 20
104.496358
 30
0.0
 11
273.367746
 21
104.496358
 31
0.0
  0
LINE
  5
9A
330
49
100
AcDbEntity
  8
LC-001-002-----0
  6
Continuous
 62
     7
100
AcDbLine
 10
305.942144
 20
110.996358
 30
0.0
 11
305.942144
 21
105.496358
 31
0.0
  0
LINE
  5
9B
330
49
100
AcDbEntity
  8
LC-001-002-----0
  6
Continuous
 62
     7
100
AcDbLine
 10
305.442144
 20
111.496358
 30
0.0
 11
304.842144
 21
111.496358
 31
0.0
  0
LINE
  5
9C
330
49
100
AcDbEntity
  8
LC-001-002-----0
  6
Continuous
 62
     7
100
AcDbLine
 10
292.367431
 20
111.496358
 30
0.0
 11
304.842144
 21
111.496358
 31
0.0
  0
LINE
  5
9D
330
49
100
AcDbEntity
  8
LC-001-002-----0
  6
Continuous
 62
     7
100
AcDbLine
 10
243.212149
 20
89.49635799999999
 30
0.0
 11
430.522713
 21
89.49635799999999
 31
0.0
  0
LINE
  5
9E
330
49
100
AcDbEntity
  8
LC-001-002-----0
  6
Continuous
 62
     7
100
AcDbLine
 10
273.367742
 20
97.49636499999997
 30
0.0
 11
273.367755
 21
117.496365
 31
0.0
  0
LINE
  5
9F
330
49
100
AcDbEntity
  8
LC-001-002-----0
  6
Continuous
 62
     7
100
AcDbLine
 10
303.367431
 20
122.200361
 30
0.0
 11
303.367431
 21
125.7838449999999
 31
0.0
  0
LINE
  5
A0
330
49
100
AcDbEntity
  8
LC-001-002-----0
  6
Continuous
 62
     7
100
AcDbLine
 10
273.367755
 20
97.49636499999997
 30
0.0
 11
292.367431
 21
97.49635199999994
 31
0.0
  0
LINE
  5
A1
330
49
100
AcDbEntity
  8
LC-001-002-----0
  6
Continuous
 62
     7
100
AcDbLine
 10
292.367431
 20
97.49635199999994
 30
0.0
 11
292.367431
 21
117.496481
 31
0.0
  0
LINE
  5
A2
330
49
100
AcDbEntity
  8
LC-001-002-----0
  6
Continuous
 62
     7
100
AcDbLine
 10
273.367755
 20
117.496365
 30
0.0
 11
282.867755
 21
117.496358
 31
0.0
  0
LINE
  5
A3
330
49
100
AcDbEntity
  8
LC-001-002-----0
  6
Continuous
 62
     7
100
AcDbLine
 10
273.367755
 20
117.496365
 30
0.0
 11
263.025737
 21
121.260559
 31
0.0
  0
LINE
  5
A4
330
49
100
AcDbEntity
  8
LC-001-002-----0
  6
Continuous
 62
     7
100
AcDbLine
 10
292.367431
 20
117.496481
 30
0.0
 11
282.867431
 21
117.496481
 31
0.0
  0
LINE
  5
A5
330
49
100
AcDbEntity
  8
LC-001-002-----0
  6
Continuous
 62
     7
100
AcDbLine
 10
242.412301
 20
-72.46509200000003
 30
0.0
 11
244.102897
 21
-72.46509200000003
 31
0.0
  0
LINE
  5
A6
330
49
100
AcDbEntity
  8
LC-001-002-----0
  6
Continuous
 62
     7
100
AcDbLine
 10
242.412301
 20
51.25322199999999
 30
0.0
 11
244.102897
 21
51.25322199999999
 31
0.0
  0
LINE
  5
A7
330
49
100
AcDbEntity
  8
LC-001-002-----0
  6
Continuous
 62
     7
100
AcDbLine
 10
292.367431
 20
117.496481
 30
0.0
 11
302.7094509999999
 21
121.260668
 31
0.0
  0
LINE
  5
A8
330
49
100
AcDbEntity
  8
LC-001-002-----0
  6
Continuous
 62
     7
100
AcDbLine
 10
285.367758
 20
121.760544
 30
0.0
 11
285.36776
 21
126.230988
 31
0.0
  0
LINE
  5
A9
330
49
100
AcDbEntity
  8
LC-001-002-----0
  6
Continuous
 62
     7
100
AcDbLine
 10
249.353608
 20
-82.24939900000004
 30
0.0
 11
242.412301
 21
-82.24939900000004
 31
0.0
  0
LINE
  5
AA
330
49
100
AcDbEntity
  8
LC-001-002-----0
  6
Continuous
 62
     7
100
AcDbLine
 10
241.912301
 20
-64.74939900000004
 30
0.0
 11
241.912301
 21
-81.74939900000004
 31
0.0
  0
LINE
  5
AB
330
49
100
AcDbEntity
  8
LC-001-002-----0
  6
Continuous
 62
     7
100
AcDbLine
 10
238.212301
 20
-80.51388399999996
 30
0.0
 11
238.212301
 21
47.98611599999998
 31
0.0
  0
LINE
  5
AC
330
49
100
AcDbEntity
  8
LC-001-002-----0
  6
Continuous
 62
     7
100
AcDbLine
 10
241.912301
 20
-81.01388399999996
 30
0.0
 11
238.712301
 21
-81.01388399999996
 31
0.0
  0
LINE
  5
AD
330
49
100
AcDbEntity
  8
LC-001-002-----0
  6
Continuous
 62
     7
100
AcDbLine
 10
241.912301
 20
48.48611599999998
 30
0.0
 11
238.712301
 21
48.48611599999998
 31
0.0
  0
LINE
  5
AE
330
49
100
AcDbEntity
  8
LC-001-002-----0
  6
Continuous
 62
     7
100
AcDbLine
 10
242.412301
 20
-64.24939900000004
 30
0.0
 11
244.102897
 21
-64.24939900000004
 31
0.0
  0
LINE
  5
AF
330
49
100
AcDbEntity
  8
LC-001-002-----0
  6
Continuous
 62
     7
100
AcDbLine
 10
244.602897
 20
16.05426699999998
 30
0.0
 11
249.102897
 21
16.05426699999998
 31
0.0
  0
LINE
  5
B0
330
49
100
AcDbEntity
  8
LC-001-002-----0
  6
Continuous
 62
     7
100
AcDbLine
 10
242.412301
 20
64.75331699999998
 30
0.0
 11
249.102897
 21
64.75331699999998
 31
0.0
  0
LINE
  5
B1
330
49
100
AcDbEntity
  8
LC-001-002-----0
  6
Continuous
 62
     7
100
AcDbLine
 10
249.602897
 20
16.55426699999998
 30
0.0
 11
249.602897
 21
64.25331699999998
 31
0.0
  0
LINE
  5
B2
330
49
100
AcDbEntity
  8
LC-001-002-----0
  6
Continuous
 62
     7
100
AcDbLine
 10
244.602897
 20
-71.96509200000003
 30
0.0
 11
244.602897
 21
50.91312699999997
 31
0.0
  0
LINE
  5
B3
330
49
100
AcDbEntity
  8
LC-001-002-----0
  6
Continuous
 62
     7
100
AcDbLine
 10
249.102897
 20
-40.57741099999998
 30
0.0
 11
244.602897
 21
-40.57741099999998
 31
0.0
  0
LINE
  5
B4
330
49
100
AcDbEntity
  8
LC-001-002-----0
  6
Continuous
 62
     7
100
AcDbLine
 10
249.602897
 20
-82.31597699999998
 30
0.0
 11
249.602897
 21
-41.07741099999998
 31
0.0
  0
LINE
  5
B5
330
49
100
AcDbEntity
  8
LC-001-002-----0
  6
Continuous
 62
     7
100
AcDbLine
 10
234.221704
 20
64.25331699999998
 30
0.0
 11
232.221704
 21
64.25331699999998
 31
0.0
  0
LINE
  5
B6
330
49
100
AcDbEntity
  8
LC-001-002-----0
  6
Continuous
 62
     7
100
AcDbLine
 10
249.912903
 20
-86.08614200000011
 30
0.0
 11
249.853529
 21
-82.74052700000004
 31
0.0
  0
LINE
  5
B7
330
49
100
AcDbEntity
  8
LC-001-002-----0
  6
Continuous
 62
     7
100
AcDbLine
 10
423.809546
 20
-85.99869899999999
 30
0.0
 11
425.723154
 21
9.00073899999995
 31
0.0
  0
LINE
  5
B8
330
49
100
AcDbEntity
  8
LC-001-002-----0
  6
Continuous
 62
     7
100
AcDbLine
 10
485.500285
 20
-85.99851399999989
 30
0.0
 11
490.0
 21
-84.72032300000001
 31
0.0
  0
LINE
  5
B9
330
49
100
AcDbEntity
  8
LC-001-002-----0
  6
Continuous
 62
     7
100
AcDbLine
 10
485.500285
 20
24.00233499999996
 30
0.0
 11
490.0
 21
22.79663999999997
 31
0.0
  0
LINE
  5
BA
330
49
100
AcDbEntity
  8
LC-001-002-----0
  6
Continuous
 62
     7
100
AcDbLine
 10
490.0
 20
22.79663999999997
 30
0.0
 11
490.0
 21
-84.72032300000001
 31
0.0
  0
LINE
  5
BB
330
49
100
AcDbEntity
  8
LC-001-002-----0
  6
Continuous
 62
     7
100
AcDbLine
 10
280.443097
 20
-8.13212700000008
 30
0.0
 11
280.443097
 21
-85.99912400000005
 31
0.0
  0
LINE
  5
BC
330
49
100
AcDbEntity
  8
LC-001-002-----0
  6
Continuous
 62
     7
100
AcDbLine
 10
254.912149
 20
-90.999367
 30
0.0
 11
279.943097
 21
-90.999367
 31
0.0
  0
LINE
  5
BD
330
49
100
AcDbEntity
  8
LC-001-002-----0
  6
Continuous
 62
     7
100
AcDbLine
 10
285.36776
 20
126.230988
 30
0.0
 11
280.36776
 21
126.230991
 31
0.0
  0
LINE
  5
BE
330
49
100
AcDbEntity
  8
LC-001-002-----0
  6
Continuous
 62
     7
100
AcDbLine
 10
280.367758
 20
121.760547
 30
0.0
 11
280.36776
 21
126.230991
 31
0.0
  0
LINE
  5
BF
330
49
100
AcDbEntity
  8
LC-001-002-----0
  6
Continuous
 62
     7
100
AcDbLine
 10
285.367758
 20
121.760544
 30
0.0
 11
280.388099
 21
121.760547
 31
0.0
  0
LINE
  5
C0
330
49
100
AcDbEntity
  8
LC-001-002-----0
  6
Continuous
 62
     7
100
AcDbLine
 10
280.443097
 20
-85.99912400000005
 30
0.0
 11
485.500285
 21
-85.99851399999989
 31
0.0
  0
LINE
  5
C1
330
49
100
AcDbEntity
  8
LC-001-002-----0
  6
Continuous
 62
     7
100
AcDbLine
 10
242.412301
 20
46.75331699999998
 30
0.0
 11
244.102897
 21
46.75331699999998
 31
0.0
  0
LINE
  5
C2
330
49
100
AcDbEntity
  8
LC-001-002-----0
  6
Continuous
 62
     7
100
AcDbLine
 10
485.500285
 20
24.00233499999996
 30
0.0
 11
425.723154
 21
24.00073899999995
 31
0.0
  0
LINE
  5
C3
330
49
100
AcDbEntity
  8
LC-001-002-----0
  6
Continuous
 62
     7
100
AcDbLine
 10
392.363889
 20
57.36890699999998
 30
0.0
 11
389.363889
 21
57.36890699999998
 31
0.0
  0
LINE
  5
C4
330
49
100
AcDbEntity
  8
LC-001-002-----0
  6
Continuous
 62
     7
100
AcDbLine
 10
281.363889
 20
57.36890699999998
 30
0.0
 11
284.363889
 21
57.36890699999998
 31
0.0
  0
LINE
  5
C5
330
49
100
AcDbEntity
  8
LC-001-002-----0
  6
Continuous
 62
     7
100
AcDbLine
 10
389.363889
 20
81.49635799999999
 30
0.0
 11
389.363889
 21
57.36890699999998
 31
0.0
  0
LINE
  5
C6
330
49
100
AcDbEntity
  8
LC-001-002-----0
  6
Continuous
 62
     7
100
AcDbLine
 10
392.363889
 20
81.49635799999999
 30
0.0
 11
392.363889
 21
57.36890699999998
 31
0.0
  0
LINE
  5
C7
330
49
100
AcDbEntity
  8
LC-001-002-----0
  6
Continuous
 62
     7
100
AcDbLine
 10
284.363889
 20
81.49635799999999
 30
0.0
 11
284.363889
 21
57.36890699999998
 31
0.0
  0
LINE
  5
C8
330
49
100
AcDbEntity
  8
LC-001-002-----0
  6
Continuous
 62
     7
100
AcDbLine
 10
400.76231
 20
81.99635799999999
 30
0.0
 11
400.76231
 21
88.99635799999999
 31
0.0
  0
LINE
  5
C9
330
49
100
AcDbEntity
  8
LC-001-002-----0
  6
Continuous
 62
     7
100
AcDbLine
 10
380.76231
 20
88.99635799999999
 30
0.0
 11
380.76231
 21
81.99635799999999
 31
0.0
  0
LINE
  5
CA
330
49
100
AcDbEntity
  8
LC-001-002-----0
  6
Continuous
 62
     7
100
AcDbLine
 10
292.76231
 20
81.99635799999999
 30
0.0
 11
292.76231
 21
88.99635799999999
 31
0.0
  0
LINE
  5
CB
330
49
100
AcDbEntity
  8
LC-001-002-----0
  6
Continuous
 62
     7
100
AcDbLine
 10
272.76231
 20
88.99635799999999
 30
0.0
 11
272.76231
 21
81.99635799999999
 31
0.0
  0
LINE
  5
CC
330
49
100
AcDbEntity
  8
LC-001-002-----0
  6
Continuous
 62
     7
100
AcDbLine
 10
381.26231
 20
81.49635799999999
 30
0.0
 11
400.26231
 21
81.49635799999999
 31
0.0
  0
LINE
  5
CD
330
49
100
AcDbEntity
  8
LC-001-002-----0
  6
Continuous
 62
     7
100
AcDbLine
 10
273.26231
 20
81.49635799999999
 30
0.0
 11
292.26231
 21
81.49635799999999
 31
0.0
  0
LINE
  5
CE
330
49
100
AcDbEntity
  8
LC-001-002-----0
  6
Continuous
 62
     7
100
AcDbLine
 10
281.363889
 20
81.49635799999999
 30
0.0
 11
281.363889
 21
57.36890699999998
 31
0.0
  0
LINE
  5
CF
330
49
100
AcDbEntity
  8
LC-001-002-----0
  6
Continuous
 62
     7
100
AcDbLine
 10
485.500285
 20
24.00233499999996
 30
0.0
 11
485.500285
 21
-85.99851399999989
 31
0.0
  0
LINE
  5
D0
330
49
100
AcDbEntity
  8
LC-001-002-----0
  6
Continuous
 62
     7
100
AcDbLine
 10
241.912301
 20
47.25331699999998
 30
0.0
 11
241.912301
 21
64.25331699999998
 31
0.0
  0
LINE
  5
D1
330
49
100
AcDbEntity
  8
LC-001-002-----0
  6
Continuous
 62
     7
100
AcDbLine
 10
191.215026
 20
104.745725
 30
0.0
 11
191.215026
 21
111.745725
 31
0.0
  0
LINE
  5
D2
330
49
100
AcDbEntity
  8
LC-001-002-----0
  6
Continuous
 62
     7
100
AcDbLine
 10
211.215026
 20
104.745725
 30
0.0
 11
211.215026
 21
111.745725
 31
0.0
  0
LINE
  5
D3
330
49
100
AcDbEntity
  8
LC-001-002-----0
  6
Continuous
 62
     7
100
AcDbLine
 10
83.21502599999997
 20
104.745725
 30
0.0
 11
83.21502599999997
 21
111.745725
 31
0.0
  0
LINE
  5
D4
330
49
100
AcDbEntity
  8
LC-001-002-----0
  6
Continuous
 62
     7
100
AcDbLine
 10
103.215026
 20
104.745725
 30
0.0
 11
103.215026
 21
111.745725
 31
0.0
  0
LINE
  5
D5
330
49
100
AcDbEntity
  8
LC-001-002-----0
  6
Continuous
 62
     7
100
AcDbLine
 10
191.715026
 20
112.245725
 30
0.0
 11
210.715026
 21
112.245725
 31
0.0
  0
LINE
  5
D6
330
49
100
AcDbEntity
  8
LC-001-002-----0
  6
Continuous
 62
     7
100
AcDbLine
 10
302.942144
 20
208.003791
 30
0.0
 11
302.942144
 21
116.176408
 31
0.0
  0
LINE
  5
D7
330
49
100
AcDbEntity
  8
LC-001-002-----0
  6
Continuous
 62
     7
100
AcDbLine
 10
303.942144
 20
212.503791
 30
0.0
 11
303.942144
 21
210.503791
 31
0.0
  0
LINE
  5
D8
330
49
100
AcDbEntity
  8
LC-001-002-----0
  6
Continuous
 62
     7
100
AcDbLine
 10
302.942144
 20
208.003791
 30
0.0
 11
305.203611
 21
208.201643
 31
0.0
  0
LINE
  5
D9
330
49
100
AcDbEntity
  8
LC-001-002-----0
  6
Continuous
 62
     7
100
AcDbLine
 10
262.367758
 20
122.200252
 30
0.0
 11
262.36776
 21
125.780321
 31
0.0
  0
LINE
  5
DA
330
49
100
AcDbEntity
  8
LC-001-002-----0
  6
Continuous
 62
     7
100
AcDbLine
 10
300.767832
 20
114.184018
 30
0.0
 11
292.367431
 21
114.918958
 31
0.0
  0
LINE
  5
DB
330
49
100
AcDbEntity
  8
LC-001-002-----0
  6
Continuous
 62
     7
100
AcDbLine
 10
302.942144
 20
208.003791
 30
0.0
 11
290.942144
 21
208.003791
 31
0.0
  0
LINE
  5
DC
330
49
100
AcDbEntity
  8
LC-001-002-----0
  6
Continuous
 62
     7
100
AcDbLine
 10
303.442144
 20
210.003791
 30
0.0
 11
290.942144
 21
210.003791
 31
0.0
  0
LINE
  5
DD
330
49
100
AcDbEntity
  8
LC-001-002-----0
  6
Continuous
 62
     7
100
AcDbLine
 10
288.942144
 20
208.003791
 30
0.0
 11
288.942144
 21
129.6973899999999
 31
0.0
  0
LINE
  5
DE
330
49
100
AcDbEntity
  8
LC-001-002-----0
  6
Continuous
 62
     7
100
AcDbLine
 10
381.367742
 20
97.49636499999997
 30
0.0
 11
381.367755
 21
117.496365
 31
0.0
  0
LINE
  5
DF
330
49
100
AcDbEntity
  8
LC-001-002-----0
  6
Continuous
 62
     7
100
AcDbLine
 10
307.193599
 20
211.271804
 30
0.0
 11
307.443843
 21
210.837596
 31
0.0
  0
LINE
  5
E0
330
49
100
AcDbEntity
  8
LC-001-002-----0
  6
Continuous
 62
     7
100
AcDbLine
 10
247.294688
 20
64.75331699999998
 30
0.0
 11
246.865207
 21
89.49635799999999
 31
0.0
  0
LINE
  5
E1
330
49
100
AcDbEntity
  8
LC-001-002-----0
  6
Continuous
 62
     7
100
AcDbLine
 10
303.442144
 20
214.003791
 30
0.0
 11
303.442144
 21
212.503791
 31
0.0
  0
LINE
  5
E2
330
49
100
AcDbEntity
  8
LC-001-002-----0
  6
Continuous
 62
     7
100
AcDbLine
 10
278.442144
 20
193.503791
 30
0.0
 11
278.442144
 21
227.003791
 31
0.0
  0
LINE
  5
E3
330
49
100
AcDbEntity
  8
LC-001-002-----0
  6
Continuous
 62
     7
100
AcDbLine
 10
286.442144
 20
191.503791
 30
0.0
 11
280.442144
 21
191.503791
 31
0.0
  0
LINE
  5
E4
330
49
100
AcDbEntity
  8
LC-001-002-----0
  6
Continuous
 62
     7
100
AcDbLine
 10
288.442144
 20
208.503791
 30
0.0
 11
288.442144
 21
193.503791
 31
0.0
  0
LINE
  5
E5
330
49
100
AcDbEntity
  8
LC-001-002-----0
  6
Continuous
 62
     7
100
AcDbLine
 10
301.442144
 20
210.503791
 30
0.0
 11
290.442144
 21
210.503791
 31
0.0
  0
LINE
  5
E6
330
49
100
AcDbEntity
  8
LC-001-002-----0
  6
Continuous
 62
     7
100
AcDbLine
 10
303.442144
 20
227.003791
 30
0.0
 11
303.442144
 21
220.985911
 31
0.0
  0
LINE
  5
E7
330
49
100
AcDbEntity
  8
LC-001-002-----0
  6
Continuous
 62
     7
100
AcDbLine
 10
280.442144
 20
229.003791
 30
0.0
 11
301.442144
 21
229.003791
 31
0.0
  0
LINE
  5
E8
330
49
100
AcDbEntity
  8
LC-001-002-----0
  6
Continuous
 62
     7
100
AcDbLine
 10
83.71502599999997
 20
112.245725
 30
0.0
 11
102.715026
 21
112.245725
 31
0.0
  0
LINE
  5
E9
330
49
100
AcDbEntity
  8
LC-001-002-----0
  6
Continuous
 62
     7
100
AcDbLine
 10
411.367431
 20
122.200361
 30
0.0
 11
411.367431
 21
125.7838449999999
 31
0.0
  0
LINE
  5
EA
330
49
100
AcDbEntity
  8
LC-001-002-----0
  6
Continuous
 62
     7
100
AcDbLine
 10
381.367755
 20
97.49636499999997
 30
0.0
 11
400.367431
 21
97.49635199999994
 31
0.0
  0
LINE
  5
EB
330
49
100
AcDbEntity
  8
LC-006-007-KH--0
  6
DASHDOT
 62
     7
100
AcDbLine
 10
241.912301
 20
-72.46499700000004
 30
0.0
 11
241.912301
 21
-72.62499700000001
 31
0.0
  0
LINE
  5
EC
330
49
100
AcDbEntity
  8
LC-001-002-----0
  6
Continuous
 62
     7
100
AcDbLine
 10
239.721704
 20
51.25322199999999
 30
0.0
 11
241.412301
 21
51.25322199999999
 31
0.0
  0
LINE
  5
ED
330
49
100
AcDbEntity
  8
LC-001-002-----0
  6
DASHDOT
 62
     2
100
AcDbLine
 10
295.942144
 20
208.003791
 30
0.0
 11
295.942144
 21
104.496358
 31
0.0
  0
LINE
  5
EE
330
49
100
AcDbEntity
  8
LC-001-002-----0
  6
DASHDOT
 62
     2
100
AcDbLine
 10
390.872796
 20
129.996359
 30
0.0
 11
390.872796
 21
57.36890699999998
 31
0.0
  0
LINE
  5
EF
330
49
100
AcDbEntity
  8
LC-001-002-----0
  6
Continuous
 62
     7
100
AcDbLine
 10
241.912301
 20
-64.74930400000005
 30
0.0
 11
241.912301
 21
-81.74930400000005
 31
0.0
  0
LINE
  5
F0
330
49
100
AcDbEntity
  8
LC-001-002-----0
  6
Continuous
 62
     7
100
AcDbLine
 10
241.912301
 20
47.25331699999998
 30
0.0
 11
241.912301
 21
64.25331699999998
 31
0.0
  0
LINE
  5
F1
330
49
100
AcDbEntity
  8
LC-001-002-----0
  6
Continuous
 62
     7
100
AcDbLine
 10
400.367431
 20
97.49635199999994
 30
0.0
 11
400.367431
 21
117.496481
 31
0.0
  0
LINE
  5
F2
330
49
100
AcDbEntity
  8
LC-001-002-----0
  6
Continuous
 62
     7
100
AcDbLine
 10
381.367755
 20
117.496365
 30
0.0
 11
390.867755
 21
117.496358
 31
0.0
  0
LINE
  5
F3
330
49
100
AcDbEntity
  8
LC-001-002-----0
  6
DASHDOT
 62
     2
100
AcDbLine
 10
282.872796
 20
129.996359
 30
0.0
 11
282.872796
 21
57.36890699999998
 31
0.0
  0
LINE
  5
F4
330
49
100
AcDbEntity
  8
LC-001-002-----0
  6
Continuous
 62
     7
100
AcDbLine
 10
225.221704
 20
51.75331699999998
 30
0.0
 11
220.602897
 21
51.75331699999998
 31
0.0
  0
LINE
  5
F5
330
49
100
AcDbEntity
  8
LC-001-002-----0
  6
Continuous
 62
     7
100
AcDbLine
 10
239.221704
 20
50.75322199999999
 30
0.0
 11
239.221704
 21
48.48611599999998
 31
0.0
  0
LINE
  5
F6
330
49
100
AcDbEntity
  8
LC-001-002-----0
  6
DASHDOT
 62
     2
100
AcDbLine
 10
93.22039099999995
 20
144.745725
 30
0.0
 11
93.22039099999995
 21
70.81305099999997
 31
0.0
  0
LINE
  5
F7
330
49
100
AcDbEntity
  8
LC-001-002-----0
  6
Continuous
 62
     7
100
AcDbLine
 10
238.212301
 20
-24.38128900000004
 30
0.0
 11
234.721704
 21
-24.38128900000004
 31
0.0
  0
LINE
  5
F8
330
49
100
AcDbEntity
  8
LC-001-002-----0
  6
Continuous
 62
     7
100
AcDbLine
 10
234.221704
 20
15.44973199999998
 30
0.0
 11
234.221704
 21
64.25331699999998
 31
0.0
  0
LINE
  5
F9
330
49
100
AcDbEntity
  8
LC-001-002-----0
  6
Continuous
 62
     7
100
AcDbLine
 10
238.212301
 20
14.94973199999998
 30
0.0
 11
234.721704
 21
14.94973199999998
 31
0.0
  0
LINE
  5
FA
330
49
100
AcDbEntity
  8
LC-001-002-----0
  6
Continuous
 62
     7
100
AcDbLine
 10
381.367755
 20
117.496365
 30
0.0
 11
371.0257369999999
 21
121.260559
 31
0.0
  0
LINE
  5
FB
330
49
100
AcDbEntity
  8
LC-001-002-----0
  6
Continuous
 62
     7
100
AcDbLine
 10
236.535506
 20
65.26201399999997
 30
0.0
 11
237.213687
 21
104.245725
 31
0.0
  0
LINE
  5
FC
330
49
100
AcDbEntity
  8
LC-001-002-----0
  6
Continuous
 62
     7
100
AcDbLine
 10
234.721704
 20
64.75331699999998
 30
0.0
 11
241.412301
 21
64.75331699999998
 31
0.0
  0
LINE
  5
FD
330
49
100
AcDbEntity
  8
LC-001-002-----0
  6
Continuous
 62
     7
100
AcDbLine
 10
234.721704
 20
-82.24930400000005
 30
0.0
 11
241.412301
 21
-82.24930400000005
 31
0.0
  0
LINE
  5
FE
330
49
100
AcDbEntity
  8
LC-001-002-----0
  6
Continuous
 62
     7
100
AcDbLine
 10
234.221704
 20
-24.88128900000004
 30
0.0
 11
234.221704
 21
-81.74930400000005
 31
0.0
  0
LINE
  5
FF
330
49
100
AcDbEntity
  8
LC-001-002-----0
  6
Continuous
 62
     7
100
AcDbLine
 10
90.79423399999996
 20
6.61723899999998
 30
0.0
 11
90.79423399999996
 21
-75.75
 31
0.0
  0
LINE
  5
100
330
49
100
AcDbEntity
  8
LC-001-002-----0
  6
Continuous
 62
     7
100
AcDbLine
 10
65.27693099999999
 20
-76.25
 30
0.0
 11
90.29423399999996
 21
-76.25
 31
0.0
  0
LINE
  5
101
330
49
100
AcDbEntity
  8
LC-001-002-----0
  6
Continuous
 62
     7
100
AcDbLine
 10
21.5
 20
59.44999999999999
 30
0.0
 11
56.97225699999996
 21
59.44999999999999
 31
0.0
  0
LINE
  5
102
330
49
100
AcDbEntity
  8
LC-001-002-----0
  6
Continuous
 62
     7
100
AcDbLine
 10
91.29423399999996
 20
-71.24975600000005
 30
0.0
 11
219.602897
 21
-71.24975600000005
 31
0.0
  0
LINE
  5
103
330
49
100
AcDbEntity
  8
LC-001-002-----0
  6
Continuous
 62
     7
100
AcDbLine
 10
16.5
 20
64.75
 30
0.0
 11
6.5
 21
64.75
 31
0.0
  0
LINE
  5
104
330
49
100
AcDbEntity
  8
LC-001-002-----0
  6
Continuous
 62
     7
100
AcDbLine
 10
2.5
 20
60.75
 30
0.0
 11
2.5
 21
-60.75
 31
0.0
  0
LINE
  5
105
330
49
100
AcDbEntity
  8
LC-001-002-----0
  6
Continuous
 62
     7
100
AcDbLine
 10
20.5
 20
60.75
 30
0.0
 11
20.5
 21
-60.75
 31
0.0
  0
LINE
  5
106
330
49
100
AcDbEntity
  8
LC-001-002-----0
  6
Continuous
 62
     7
100
AcDbLine
 10
0.0
 20
58.94999999999999
 30
0.0
 11
0.0
 21
-58.95000000000005
 31
0.0
  0
LINE
  5
107
330
49
100
AcDbEntity
  8
LC-001-002-----0
  6
Continuous
 62
     7
100
AcDbLine
 10
400.367431
 20
117.496481
 30
0.0
 11
390.867431
 21
117.496481
 31
0.0
  0
LINE
  5
108
330
49
100
AcDbEntity
  8
LC-001-002-----0
  6
Continuous
 62
     7
100
AcDbLine
 10
400.367431
 20
117.496481
 30
0.0
 11
410.7094509999999
 21
121.260668
 31
0.0
  0
LINE
  5
109
330
49
100
AcDbEntity
  8
LC-001-002-----0
  6
Continuous
 62
     7
100
AcDbLine
 10
0.0
 20
-55.45000000000005
 30
0.0
 11
0.0
 21
-58.95000000000005
 31
0.0
  0
LINE
  5
10A
330
49
100
AcDbEntity
  8
LC-001-002-----0
  6
Continuous
 62
     7
100
AcDbLine
 10
202.711485
 20
70.81305099999997
 30
0.0
 11
199.711485
 21
70.81305099999997
 31
0.0
  0
LINE
  5
10B
330
49
100
AcDbEntity
  8
LC-001-002-----0
  6
Continuous
 62
     7
100
AcDbLine
 10
91.71148499999998
 20
70.81305099999997
 30
0.0
 11
94.71148499999998
 21
70.81305099999997
 31
0.0
  0
LINE
  5
10C
330
49
100
AcDbEntity
  8
LC-001-002-----0
  6
Continuous
 62
     7
100
AcDbLine
 10
21.5
 20
-59.45000000000005
 30
0.0
 11
59.08257399999997
 21
-59.45000000000005
 31
0.0
  0
LINE
  5
10D
330
49
100
AcDbEntity
  8
LC-001-002-----0
  6
Continuous
 62
     7
100
AcDbLine
 10
199.711485
 20
96.245725
 30
0.0
 11
199.711485
 21
70.81305099999997
 31
0.0
  0
LINE
  5
10E
330
49
100
AcDbEntity
  8
LC-001-002-----0
  6
Continuous
 62
     7
100
AcDbLine
 10
16.5
 20
-64.75
 30
0.0
 11
6.5
 21
-64.75
 31
0.0
  0
LINE
  5
10F
330
49
100
AcDbEntity
  8
LC-001-002-----0
  6
Continuous
 62
     7
100
AcDbLine
 10
393.367758
 20
121.760544
 30
0.0
 11
393.36776
 21
126.230988
 31
0.0
  0
LINE
  5
110
330
49
100
AcDbEntity
  8
LC-001-002-----0
  6
Continuous
 62
     7
100
AcDbLine
 10
1.5
 20
-59.45000000000005
 30
0.0
 11
0.5
 21
-59.45000000000005
 31
0.0
  0
LINE
  5
111
330
49
100
AcDbEntity
  8
LC-001-002-----0
  6
Continuous
 62
     7
100
AcDbLine
 10
202.711485
 20
96.245725
 30
0.0
 11
202.711485
 21
70.81305099999997
 31
0.0
  0
LINE
  5
112
330
49
100
AcDbEntity
  8
LC-001-002-----0
  6
Continuous
 62
     7
100
AcDbLine
 10
94.71148499999998
 20
96.245725
 30
0.0
 11
94.71148499999998
 21
70.81305099999997
 31
0.0
  0
LINE
  5
113
330
49
100
AcDbEntity
  8
LC-001-002-----0
  6
Continuous
 62
     7
100
AcDbLine
 10
1.5
 20
59.44999999999999
 30
0.0
 11
0.5
 21
59.44999999999999
 31
0.0
  0
LINE
  5
114
330
49
100
AcDbEntity
  8
LC-001-002-----0
  6
Continuous
 62
     7
100
AcDbLine
 10
211.109905
 20
96.745725
 30
0.0
 11
211.109905
 21
103.745725
 31
0.0
  0
LINE
  5
115
330
49
100
AcDbEntity
  8
LC-001-002-----0
  6
Continuous
 62
     7
100
AcDbLine
 10
191.109905
 20
103.745725
 30
0.0
 11
191.109905
 21
96.745725
 31
0.0
  0
LINE
  5
116
330
49
100
AcDbEntity
  8
LC-001-002-----0
  6
Continuous
 62
     7
100
AcDbLine
 10
393.36776
 20
126.230988
 30
0.0
 11
388.36776
 21
126.230991
 31
0.0
  0
LINE
  5
117
330
49
100
AcDbEntity
  8
LC-001-002-----0
  6
Continuous
 62
     7
100
AcDbLine
 10
388.367758
 20
121.760547
 30
0.0
 11
388.36776
 21
126.230991
 31
0.0
  0
LINE
  5
118
330
49
100
AcDbEntity
  8
LC-001-002-----0
  6
Continuous
 62
     7
100
AcDbLine
 10
393.367758
 20
121.760544
 30
0.0
 11
388.388099
 21
121.760547
 31
0.0
  0
LINE
  5
119
330
49
100
AcDbEntity
  8
LC-001-002-----0
  6
DASHDOT
 62
     2
100
AcDbLine
 10
201.215026
 20
144.745725
 30
0.0
 11
201.215026
 21
70.81305099999997
 31
0.0
  0
LINE
  5
11A
330
49
100
AcDbEntity
  8
LC-001-002-----0
  6
DASHDOT
 62
     2
100
AcDbLine
 10
219.602897
 20
55.75331699999998
 30
0.0
 11
256.602897
 21
55.75331699999998
 31
0.0
  0
LINE
  5
11B
330
49
100
AcDbEntity
  8
LC-001-002-----0
  6
Continuous
 62
     7
100
AcDbLine
 10
241.370308
 20
116.245725
 30
0.0
 11
241.370308
 21
104.745725
 31
0.0
  0
LINE
  5
11C
330
49
100
AcDbEntity
  8
LC-001-002-----0
  6
Continuous
 62
     7
100
AcDbLine
 10
53.01974399999995
 20
116.245725
 30
0.0
 11
53.01974399999995
 21
104.745725
 31
0.0
  0
LINE
  5
11D
330
49
100
AcDbEntity
  8
LC-001-002-----0
  6
Continuous
 62
     7
100
AcDbLine
 10
56.01974399999995
 20
119.245725
 30
0.0
 11
83.71534199999996
 21
119.245725
 31
0.0
  0
LINE
  5
11E
330
49
100
AcDbEntity
  8
LC-001-002-----0
  6
Continuous
 62
     7
100
AcDbLine
 10
280.443097
 20
-86.49912199999994
 30
0.0
 11
280.443097
 21
-90.499367
 31
0.0
  0
LINE
  5
11F
330
49
100
AcDbEntity
  8
LC-001-002-----0
  6
Continuous
 62
     7
100
AcDbLine
 10
425.723154
 20
9.00073899999995
 30
0.0
 11
426.8625499999999
 21
89.49635799999999
 31
0.0
  0
LINE
  5
120
330
49
100
AcDbEntity
  8
LC-001-002-----0
  6
Continuous
 62
     7
100
AcDbLine
 10
280.443097
 20
-86.49912199999994
 30
0.0
 11
280.443097
 21
-90.499367
 31
0.0
  0
LINE
  5
121
330
49
100
AcDbEntity
  8
LC-001-002-----0
  6
Continuous
 62
     7
100
AcDbLine
 10
191.715337
 20
112.245731
 30
0.0
 11
191.71535
 21
132.245731
 31
0.0
  0
LINE
  5
122
330
49
100
AcDbEntity
  8
LC-001-002-----0
  6
Continuous
 62
     7
100
AcDbLine
 10
370.367758
 20
122.200252
 30
0.0
 11
370.36776
 21
125.780321
 31
0.0
  0
LINE
  5
123
330
49
100
AcDbEntity
  8
LC-001-002-----0
  6
Continuous
 62
     7
100
AcDbLine
 10
221.715026
 20
136.9497269999999
 30
0.0
 11
221.715026
 21
140.5332109999999
 31
0.0
  0
LINE
  5
124
330
49
100
AcDbEntity
  8
LC-001-002-----0
  6
Continuous
 62
     7
100
AcDbLine
 10
191.71535
 20
112.245731
 30
0.0
 11
210.715026
 21
112.245718
 31
0.0
  0
LINE
  5
125
330
49
100
AcDbEntity
  8
LC-001-002-----0
  6
Continuous
 62
     7
100
AcDbLine
 10
210.715026
 20
112.245718
 30
0.0
 11
210.715026
 21
132.245847
 31
0.0
  0
LINE
  5
126
330
49
100
AcDbEntity
  8
LC-001-002-----0
  6
Continuous
 62
     7
100
AcDbLine
 10
191.71535
 20
132.245731
 30
0.0
 11
201.21535
 21
132.245725
 31
0.0
  0
LINE
  5
127
330
49
100
AcDbEntity
  8
LC-001-002-----0
  6
Continuous
 62
     7
100
AcDbLine
 10
191.71535
 20
132.245731
 30
0.0
 11
181.373332
 21
136.009925
 31
0.0
  0
LINE
  5
128
330
49
100
AcDbEntity
  8
LC-001-002-----0
  6
Continuous
 62
     7
100
AcDbLine
 10
210.715026
 20
132.245847
 30
0.0
 11
201.215026
 21
132.245847
 31
0.0
  0
LINE
  5
129
330
49
100
AcDbEntity
  8
LC-001-002-----0
  6
Continuous
 62
     7
100
AcDbLine
 10
210.715026
 20
132.245847
 30
0.0
 11
221.057046
 21
136.010034
 31
0.0
  0
LINE
  5
12A
330
49
100
AcDbEntity
  8
LC-001-002-----0
  6
Continuous
 62
     7
100
AcDbLine
 10
203.715353
 20
136.50991
 30
0.0
 11
203.715356
 21
140.9803539999999
 31
0.0
  0
LINE
  5
12B
330
49
100
AcDbEntity
  8
LC-001-002-----0
  6
Continuous
 62
     7
100
AcDbLine
 10
203.715356
 20
140.9803539999999
 30
0.0
 11
198.715356
 21
140.980357
 31
0.0
  0
LINE
  5
12C
330
49
100
AcDbEntity
  8
LC-001-002-----0
  6
Continuous
 62
     7
100
AcDbLine
 10
198.715353
 20
136.509914
 30
0.0
 11
198.715356
 21
140.980357
 31
0.0
  0
LINE
  5
12D
330
49
100
AcDbEntity
  8
LC-001-002-----0
  6
Continuous
 62
     7
100
AcDbLine
 10
203.715353
 20
136.50991
 30
0.0
 11
198.735695
 21
136.509914
 31
0.0
  0
LINE
  5
12E
330
49
100
AcDbEntity
  8
LC-001-002-----0
  6
Continuous
 62
     7
100
AcDbLine
 10
180.715353
 20
136.949618
 30
0.0
 11
180.715356
 21
140.529688
 31
0.0
  0
LINE
  5
12F
330
49
100
AcDbEntity
  8
LC-001-002-----0
  6
Continuous
 62
     7
100
AcDbLine
 10
83.71533699999998
 20
112.245731
 30
0.0
 11
83.71535
 21
132.245731
 31
0.0
  0
LINE
  5
130
330
49
100
AcDbEntity
  8
LC-001-002-----0
  6
Continuous
 62
     7
100
AcDbLine
 10
113.715026
 20
136.9497269999999
 30
0.0
 11
113.715026
 21
140.5332109999999
 31
0.0
  0
LINE
  5
131
330
49
100
AcDbEntity
  8
LC-001-002-----0
  6
Continuous
 62
     7
100
AcDbLine
 10
83.71535
 20
112.245731
 30
0.0
 11
102.715026
 21
112.245718
 31
0.0
  0
LINE
  5
132
330
49
100
AcDbEntity
  8
LC-001-002-----0
  6
Continuous
 62
     7
100
AcDbLine
 10
102.715026
 20
112.245718
 30
0.0
 11
102.715026
 21
132.245847
 31
0.0
  0
LINE
  5
133
330
49
100
AcDbEntity
  8
LC-001-002-----0
  6
Continuous
 62
     7
100
AcDbLine
 10
83.71535
 20
132.245731
 30
0.0
 11
93.21535
 21
132.245725
 31
0.0
  0
LINE
  5
134
330
49
100
AcDbEntity
  8
LC-001-002-----0
  6
Continuous
 62
     7
100
AcDbLine
 10
83.71535
 20
132.245731
 30
0.0
 11
73.37333199999995
 21
136.009925
 31
0.0
  0
LINE
  5
135
330
49
100
AcDbEntity
  8
LC-001-002-----0
  6
Continuous
 62
     7
100
AcDbLine
 10
102.715026
 20
132.245847
 30
0.0
 11
93.21502599999997
 21
132.245847
 31
0.0
  0
LINE
  5
136
330
49
100
AcDbEntity
  8
LC-001-002-----0
  6
Continuous
 62
     7
100
AcDbLine
 10
102.715026
 20
132.245847
 30
0.0
 11
113.057046
 21
136.010034
 31
0.0
  0
LINE
  5
137
330
49
100
AcDbEntity
  8
LC-001-002-----0
  6
Continuous
 62
     7
100
AcDbLine
 10
95.715353
 20
136.50991
 30
0.0
 11
95.71535599999999
 21
140.9803539999999
 31
0.0
  0
LINE
  5
138
330
49
100
AcDbEntity
  8
LC-001-002-----0
  6
Continuous
 62
     7
100
AcDbLine
 10
95.71535599999999
 20
140.9803539999999
 30
0.0
 11
90.71535599999999
 21
140.980357
 31
0.0
  0
LINE
  5
139
330
49
100
AcDbEntity
  8
LC-001-002-----0
  6
Continuous
 62
     7
100
AcDbLine
 10
90.715353
 20
136.509914
 30
0.0
 11
90.71535599999999
 21
140.980357
 31
0.0
  0
LINE
  5
13A
330
49
100
AcDbEntity
  8
LC-001-002-----0
  6
Continuous
 62
     7
100
AcDbLine
 10
53.51974399999995
 20
104.245725
 30
0.0
 11
240.870308
 21
104.245725
 31
0.0
  0
LINE
  5
13B
330
49
100
AcDbEntity
  8
LC-001-002-----0
  6
Continuous
 62
     7
100
AcDbLine
 10
299.942144
 20
111.496358
 30
0.0
 11
299.942144
 21
114.256257
 31
0.0
  0
LINE
  5
13C
330
49
100
AcDbEntity
  8
LC-001-002-----0
  6
Continuous
 62
     7
100
AcDbLine
 10
103.109905
 20
96.745725
 30
0.0
 11
103.109905
 21
103.745725
 31
0.0
  0
LINE
  5
13D
330
49
100
AcDbEntity
  8
LC-001-002-----0
  6
Continuous
 62
     7
100
AcDbLine
 10
83.10990499999997
 20
103.745725
 30
0.0
 11
83.10990499999997
 21
96.745725
 31
0.0
  0
LINE
  5
13E
330
49
100
AcDbEntity
  8
LC-001-002-----0
  6
Continuous
 62
     7
100
AcDbLine
 10
191.609905
 20
96.245725
 30
0.0
 11
210.609905
 21
96.245725
 31
0.0
  0
LINE
  5
13F
330
49
100
AcDbEntity
  8
LC-001-002-----0
  6
Continuous
 62
     7
100
AcDbLine
 10
83.60990499999997
 20
96.245725
 30
0.0
 11
102.609905
 21
96.245725
 31
0.0
  0
LINE
  5
140
330
49
100
AcDbEntity
  8
LC-001-002-----0
  6
Continuous
 62
     7
100
AcDbLine
 10
91.71148499999998
 20
96.245725
 30
0.0
 11
91.71148499999998
 21
70.81305099999997
 31
0.0
  0
LINE
  5
141
330
49
100
AcDbEntity
  8
LC-001-002-----0
  6
Continuous
 62
     7
100
AcDbLine
 10
60.27712799999995
 20
-71.33727199999998
 30
0.0
 11
57.21231499999999
 21
104.245725
 31
0.0
  0
LINE
  5
142
330
49
100
AcDbEntity
  8
LC-001-002-----0
  6
DASHDOT
 62
     2
100
AcDbLine
 10
219.602897
 20
-73.24930400000005
 30
0.0
 11
256.602897
 21
-73.24930400000005
 31
0.0
  0
LINE
  5
143
330
49
100
AcDbEntity
  8
LC-001-002-----0
  6
Continuous
 62
     7
100
AcDbLine
 10
95.715353
 20
136.50991
 30
0.0
 11
90.73569499999996
 21
136.509914
 31
0.0
  0
LINE
  5
144
330
49
100
AcDbEntity
  8
LC-001-002-----0
  6
Continuous
 62
     7
100
AcDbLine
 10
72.715353
 20
136.949618
 30
0.0
 11
72.71535599999999
 21
140.529688
 31
0.0
  0
ARC
  5
145
330
49
100
AcDbEntity
  8
LC-001-002-----0
  6
Continuous
 62
     7
100
AcDbCircle
 10
226.397067
 20
-82.18057500000009
 30
0.0
 40
0.911370999999855
100
AcDbArc
 50
-169.5624999999899
 51
-104.1347299999733
  0
ARC
  5
146
330
49
100
AcDbEntity
  8
LC-001-002-----0
  6
Continuous
 62
     7
100
AcDbCircle
 10
230.217559
 20
-80.6970490000001
 30
0.0
 40
4.996603000000366
100
AcDbArc
 50
179.0089399999962
 51
-160.7342160000064
  0
ARC
  5
147
330
49
100
AcDbEntity
  8
LC-001-002-----0
  6
Continuous
 62
     7
100
AcDbCircle
 10
230.217604
 20
-80.5241880000001
 30
0.0
 40
4.996646999999956
100
AcDbArc
 50
160.7344950000015
 51
-179.0087839999958
  0
ARC
  5
148
330
49
100
AcDbEntity
  8
LC-001-002-----0
  6
Continuous
 62
     7
100
AcDbCircle
 10
226.397084
 20
-79.04067200000009
 30
0.0
 40
0.9113940000005982
100
AcDbArc
 50
104.136002000019
 51
169.562613000015
  0
ARC
  5
149
330
49
100
AcDbEntity
  8
LC-001-002-----0
  6
Continuous
 62
     7
100
AcDbCircle
 10
226.309517
 20
-77.66036400000007
 30
0.0
 40
0.5145430000000684
100
AcDbArc
 50
-166.1750920000514
 51
-105.2127470000048
  0
ARC
  5
14A
330
49
100
AcDbEntity
  8
LC-001-002-----0
  6
Continuous
 62
     7
100
AcDbCircle
 10
230.215734
 20
-75.92630200000008
 30
0.0
 40
4.781218000000162
100
AcDbArc
 50
-170.4504399999953
 51
-157.1451590000029
  0
ARC
  5
14B
330
49
100
AcDbEntity
  8
LC-001-002-----0
  6
Continuous
 62
     7
100
AcDbCircle
 10
244.500413
 20
-73.44527700000003
 30
0.0
 40
19.27970400000038
100
AcDbArc
 50
179.4178760000003
 51
-170.2221839999994
  0
ARC
  5
14C
330
49
100
AcDbEntity
  8
LC-001-002-----0
  6
Continuous
 62
     7
100
AcDbCircle
 10
244.500413
 20
-73.05352100000005
 30
0.0
 40
19.27970400000038
100
AcDbArc
 50
170.2221839999994
 51
-179.4178760000003
  0
ARC
  5
14D
330
49
100
AcDbEntity
  8
LC-001-002-----0
  6
Continuous
 62
     7
100
AcDbCircle
 10
230.215734
 20
-70.572496
 30
0.0
 40
4.781217999999627
100
AcDbArc
 50
157.1451590000029
 51
170.4504399999953
  0
ARC
  5
14E
330
49
100
AcDbEntity
  8
LC-001-002-----0
  6
Continuous
 62
     7
100
AcDbCircle
 10
226.309517
 20
-68.838434
 30
0.0
 40
0.5145429999996882
100
AcDbArc
 50
105.2127470000048
 51
166.1750920000514
  0
ARC
  5
14F
330
49
100
AcDbEntity
  8
LC-001-002-----0
  6
Continuous
 62
     7
100
AcDbCircle
 10
226.397083
 20
-67.458126
 30
0.0
 40
0.9113939999995428
100
AcDbArc
 50
-169.562605000011
 51
-104.135998
  0
ARC
  5
150
330
49
100
AcDbEntity
  8
LC-001-002-----0
  6
Continuous
 62
     7
100
AcDbCircle
 10
230.217603
 20
-65.97460999999998
 30
0.0
 40
4.996646000000448
100
AcDbArc
 50
179.0087900000037
 51
-160.7344889999968
  0
ARC
  5
151
330
49
100
AcDbEntity
  8
LC-001-002-----0
  6
Continuous
 62
     7
100
AcDbCircle
 10
230.217561
 20
-65.80175000000008
 30
0.0
 40
4.99660499999997
100
AcDbArc
 50
160.7342299999947
 51
-179.008936000003
  0
ARC
  5
152
330
49
100
AcDbEntity
  8
LC-001-002-----0
  6
Continuous
 62
     7
100
AcDbCircle
 10
226.397068
 20
-64.3182240000001
 30
0.0
 40
0.9113730000004572
100
AcDbArc
 50
104.1348159999666
 51
169.5625000000266
  0
ARC
  5
153
330
49
100
AcDbEntity
  8
LC-001-002-----0
  6
Continuous
 62
     7
100
AcDbCircle
 10
231.046324
 20
-79.04067200000009
 30
0.0
 40
0.9113939999999537
100
AcDbArc
 50
10.43738699998504
 51
75.863997999981
  0
ARC
  5
154
330
49
100
AcDbEntity
  8
LC-001-002-----0
  6
Continuous
 62
     7
100
AcDbCircle
 10
227.225804
 20
-80.5241880000001
 30
0.0
 40
4.996646999999781
100
AcDbArc
 50
-0.99121600000424
 51
19.26550499999858
  0
ARC
  5
155
330
49
100
AcDbEntity
  8
LC-001-002-----0
  6
Continuous
 62
     7
100
AcDbCircle
 10
227.225849
 20
-80.6970490000001
 30
0.0
 40
4.996602999999932
100
AcDbArc
 50
-19.2657839999936
 51
0.99106000000385
  0
ARC
  5
156
330
49
100
AcDbEntity
  8
LC-001-002-----0
  6
Continuous
 62
     7
100
AcDbCircle
 10
231.046341
 20
-82.18057500000009
 30
0.0
 40
0.9113710000000429
100
AcDbArc
 50
-75.86527000002845
 51
-10.43750000001013
  0
ARC
  5
157
330
49
100
AcDbEntity
  8
LC-001-002-----0
  6
Continuous
 62
     7
100
AcDbCircle
 10
231.133891
 20
-68.838434
 30
0.0
 40
0.5145430000000684
100
AcDbArc
 50
13.82490799994858
 51
74.78725299999823
  0
ARC
  5
158
330
49
100
AcDbEntity
  8
LC-001-002-----0
  6
Continuous
 62
     7
100
AcDbCircle
 10
227.227674
 20
-70.572496
 30
0.0
 40
4.781218000000162
100
AcDbArc
 50
9.54956000000466
 51
22.85484099999709
  0
ARC
  5
159
330
49
100
AcDbEntity
  8
LC-001-002-----0
  6
Continuous
 62
     7
100
AcDbCircle
 10
212.942995
 20
-73.05352100000005
 30
0.0
 40
19.27970400000038
100
AcDbArc
 50
-0.58212399999969
 51
9.7778160000006
  0
ARC
  5
15A
330
49
100
AcDbEntity
  8
LC-001-002-----0
  6
Continuous
 62
     7
100
AcDbCircle
 10
212.942995
 20
-73.44527700000003
 30
0.0
 40
19.27970400000038
100
AcDbArc
 50
-9.7778160000006
 51
0.58212399999969
  0
ARC
  5
15B
330
49
100
AcDbEntity
  8
LC-001-002-----0
  6
Continuous
 62
     7
100
AcDbCircle
 10
227.227674
 20
-75.92630200000008
 30
0.0
 40
4.781217999999627
100
AcDbArc
 50
-22.85484099999709
 51
-9.54956000000466
  0
ARC
  5
15C
330
49
100
AcDbEntity
  8
LC-001-002-----0
  6
Continuous
 62
     7
100
AcDbCircle
 10
231.133891
 20
-77.66036400000007
 30
0.0
 40
0.5145429999996808
100
AcDbArc
 50
-74.78725299999823
 51
-13.82490799994858
  0
ARC
  5
15D
330
49
100
AcDbEntity
  8
LC-001-002-----0
  6
Continuous
 62
     7
100
AcDbCircle
 10
231.04634
 20
-64.3182240000001
 30
0.0
 40
0.9113729999995339
100
AcDbArc
 50
10.4374999999731
 51
75.86518400003162
  0
ARC
  5
15E
330
49
100
AcDbEntity
  8
LC-001-002-----0
  6
Continuous
 62
     7
100
AcDbCircle
 10
227.225846
 20
-65.80175000000008
 30
0.0
 40
4.996605000000051
100
AcDbArc
 50
-0.99106399999698
 51
19.26577000000529
  0
ARC
  5
15F
330
49
100
AcDbEntity
  8
LC-001-002-----0
  6
Continuous
 62
     7
100
AcDbCircle
 10
227.225805
 20
-65.97460999999998
 30
0.0
 40
4.996646000000399
100
AcDbArc
 50
-19.2655110000032
 51
0.99120999999632
  0
ARC
  5
160
330
49
100
AcDbEntity
  8
LC-001-002-----0
  6
Continuous
 62
     7
100
AcDbCircle
 10
231.046324
 20
-67.458126
 30
0.0
 40
0.9113940000001169
100
AcDbArc
 50
-75.86400200000004
 51
-10.437394999989
  0
ARC
  5
161
330
49
100
AcDbEntity
  8
LC-001-002-----0
  6
Continuous
 62
     7
100
AcDbCircle
 10
255.5150839999999
 20
-68.838434
 30
0.0
 40
0.5145430000001788
100
AcDbArc
 50
13.82490799994556
 51
74.78725299998295
  0
ARC
  5
162
330
49
100
AcDbEntity
  8
LC-001-002-----0
  6
Continuous
 62
     7
100
AcDbCircle
 10
251.608868
 20
-70.572496
 30
0.0
 40
4.781218000000133
100
AcDbArc
 50
9.54956000000471
 51
22.85484099999709
  0
ARC
  5
163
330
49
100
AcDbEntity
  8
LC-001-002-----0
  6
Continuous
 62
     7
100
AcDbCircle
 10
237.324189
 20
-73.05352100000005
 30
0.0
 40
19.27970400000027
100
AcDbArc
 50
-0.5821239999997
 51
9.77781600000058
  0
ARC
  5
164
330
49
100
AcDbEntity
  8
LC-001-002-----0
  6
Continuous
 62
     7
100
AcDbCircle
 10
237.324189
 20
-73.44527700000003
 30
0.0
 40
19.27970400000041
100
AcDbArc
 50
-9.77781600000058
 51
0.5821239999997
  0
ARC
  5
165
330
49
100
AcDbEntity
  8
LC-001-002-----0
  6
Continuous
 62
     7
100
AcDbCircle
 10
251.608868
 20
-75.92630200000008
 30
0.0
 40
4.781217999999627
100
AcDbArc
 50
-22.85484099999709
 51
-9.54956000000471
  0
ARC
  5
166
330
49
100
AcDbEntity
  8
LC-001-002-----0
  6
Continuous
 62
     7
100
AcDbCircle
 10
255.5150839999999
 20
-77.66036400000007
 30
0.0
 40
0.5145429999997181
100
AcDbArc
 50
-74.78725299998295
 51
-13.82490799994556
  0
ARC
  5
167
330
49
100
AcDbEntity
  8
LC-001-002-----0
  6
Continuous
 62
     7
100
AcDbCircle
 10
255.427534
 20
-64.3182240000001
 30
0.0
 40
0.9113729999995339
100
AcDbArc
 50
10.4374999999731
 51
75.86518400003337
  0
ARC
  5
168
330
49
100
AcDbEntity
  8
LC-001-002-----0
  6
Continuous
 62
     7
100
AcDbCircle
 10
251.60704
 20
-65.80175000000008
 30
0.0
 40
4.996605000000023
100
AcDbArc
 50
-0.99106399999699
 51
19.26577000000529
  0
ARC
  5
169
330
49
100
AcDbEntity
  8
LC-001-002-----0
  6
Continuous
 62
     7
100
AcDbCircle
 10
251.606999
 20
-65.97460999999998
 30
0.0
 40
4.996646000000372
100
AcDbArc
 50
-19.26551100000331
 51
0.99120999999631
  0
ARC
  5
16A
330
49
100
AcDbEntity
  8
LC-001-002-----0
  6
Continuous
 62
     7
100
AcDbCircle
 10
255.427518
 20
-67.458126
 30
0.0
 40
0.9113940000001169
100
AcDbArc
 50
-75.86400200000004
 51
-10.437394999989
  0
ARC
  5
16B
330
49
100
AcDbEntity
  8
LC-001-002-----0
  6
Continuous
 62
     7
100
AcDbCircle
 10
226.397067
 20
46.82214199999999
 30
0.0
 40
0.9113709999998768
100
AcDbArc
 50
-169.5624999999824
 51
-104.1347299999724
  0
ARC
  5
16C
330
49
100
AcDbEntity
  8
LC-001-002-----0
  6
Continuous
 62
     7
100
AcDbCircle
 10
230.217559
 20
48.30566799999997
 30
0.0
 40
4.996603000000366
100
AcDbArc
 50
179.0089399999962
 51
-160.7342160000058
  0
ARC
  5
16D
330
49
100
AcDbEntity
  8
LC-001-002-----0
  6
Continuous
 62
     7
100
AcDbCircle
 10
230.217604
 20
48.47852799999998
 30
0.0
 40
4.996646999999939
100
AcDbArc
 50
160.7344950000021
 51
-179.0087839999958
  0
ARC
  5
16E
330
49
100
AcDbEntity
  8
LC-001-002-----0
  6
Continuous
 62
     7
100
AcDbCircle
 10
226.397084
 20
49.96204399999999
 30
0.0
 40
0.911394000000488
100
AcDbArc
 50
104.1360020000208
 51
169.5626130000185
  0
ARC
  5
16F
330
49
100
AcDbEntity
  8
LC-001-002-----0
  6
Continuous
 62
     7
100
AcDbCircle
 10
226.309517
 20
51.34235199999995
 30
0.0
 40
0.5145430000000684
100
AcDbArc
 50
-166.1750920000514
 51
-105.2127470000065
  0
ARC
  5
170
330
49
100
AcDbEntity
  8
LC-001-002-----0
  6
Continuous
 62
     7
100
AcDbCircle
 10
230.215734
 20
53.076414
 30
0.0
 40
4.78121800000018
100
AcDbArc
 50
-170.450439999994
 51
-157.1451590000023
  0
ARC
  5
171
330
49
100
AcDbEntity
  8
LC-001-002-----0
  6
Continuous
 62
     7
100
AcDbCircle
 10
244.500413
 20
55.55743899999999
 30
0.0
 40
19.27970400000038
100
AcDbArc
 50
179.4178760000003
 51
-170.2221839999992
  0
ARC
  5
172
330
49
100
AcDbEntity
  8
LC-001-002-----0
  6
Continuous
 62
     7
100
AcDbCircle
 10
244.500413
 20
55.94919499999998
 30
0.0
 40
19.27970400000039
100
AcDbArc
 50
170.2221839999993
 51
-179.4178760000003
  0
ARC
  5
173
330
49
100
AcDbEntity
  8
LC-001-002-----0
  6
Continuous
 62
     7
100
AcDbCircle
 10
230.215734
 20
58.43021999999996
 30
0.0
 40
4.781217999999648
100
AcDbArc
 50
157.1451590000023
 51
170.4504399999947
  0
ARC
  5
174
330
49
100
AcDbEntity
  8
LC-001-002-----0
  6
Continuous
 62
     7
100
AcDbCircle
 10
226.309517
 20
60.16428199999996
 30
0.0
 40
0.5145429999996882
100
AcDbArc
 50
105.2127470000048
 51
166.1750920000453
  0
ARC
  5
175
330
49
100
AcDbEntity
  8
LC-001-002-----0
  6
Continuous
 62
     7
100
AcDbCircle
 10
226.397083
 20
61.54459099999997
 30
0.0
 40
0.9113939999995428
100
AcDbArc
 50
-169.562605000011
 51
-104.1359980000009
  0
ARC
  5
176
330
49
100
AcDbEntity
  8
LC-001-002-----0
  6
Continuous
 62
     7
100
AcDbCircle
 10
230.217603
 20
63.02810599999998
 30
0.0
 40
4.996646000000449
100
AcDbArc
 50
179.0087900000031
 51
-160.7344889999968
  0
ARC
  5
177
330
49
100
AcDbEntity
  8
LC-001-002-----0
  6
Continuous
 62
     7
100
AcDbCircle
 10
230.217561
 20
63.20096699999999
 30
0.0
 40
4.996604999999951
100
AcDbArc
 50
160.7342299999953
 51
-179.0089360000011
  0
ARC
  5
178
330
49
100
AcDbEntity
  8
LC-001-002-----0
  6
Continuous
 62
     7
100
AcDbCircle
 10
226.397068
 20
64.68449199999998
 30
0.0
 40
0.9113730000003469
100
AcDbArc
 50
104.1348159999684
 51
169.5624999999633
  0
ARC
  5
179
330
49
100
AcDbEntity
  8
LC-001-002-----0
  6
Continuous
 62
     7
100
AcDbCircle
 10
255.427518
 20
49.96204399999999
 30
0.0
 40
0.9113939999999435
100
AcDbArc
 50
10.43738699998153
 51
75.86399799997926
  0
ARC
  5
17A
330
49
100
AcDbEntity
  8
LC-001-002-----0
  6
Continuous
 62
     7
100
AcDbCircle
 10
251.606998
 20
48.47852799999998
 30
0.0
 40
4.996646999999781
100
AcDbArc
 50
-0.99121600000424
 51
19.26550499999794
  0
ARC
  5
17B
330
49
100
AcDbEntity
  8
LC-001-002-----0
  6
Continuous
 62
     7
100
AcDbCircle
 10
251.607042
 20
48.30566799999997
 30
0.0
 40
4.996602999999923
100
AcDbArc
 50
-19.26578399999432
 51
0.99106000000386
  0
ARC
  5
17C
330
49
100
AcDbEntity
  8
LC-001-002-----0
  6
Continuous
 62
     7
100
AcDbCircle
 10
255.427535
 20
46.82214199999999
 30
0.0
 40
0.911371000000105
100
AcDbArc
 50
-75.86527000002759
 51
-10.43750000001728
  0
ARC
  5
17D
330
49
100
AcDbEntity
  8
LC-001-002-----0
  6
Continuous
 62
     7
100
AcDbCircle
 10
255.5150839999999
 20
60.16428199999996
 30
0.0
 40
0.5145430000001924
100
AcDbArc
 50
13.8249079999517
 51
74.78725299998295
  0
ARC
  5
17E
330
49
100
AcDbEntity
  8
LC-001-002-----0
  6
Continuous
 62
     7
100
AcDbCircle
 10
251.608868
 20
58.43021999999996
 30
0.0
 40
4.781218000000143
100
AcDbArc
 50
9.54956000000539
 51
22.85484099999772
  0
ARC
  5
17F
330
49
100
AcDbEntity
  8
LC-001-002-----0
  6
Continuous
 62
     7
100
AcDbCircle
 10
237.324189
 20
55.94919499999998
 30
0.0
 40
19.27970400000027
100
AcDbArc
 50
-0.5821239999997
 51
9.77781600000073
  0
ARC
  5
180
330
49
100
AcDbEntity
  8
LC-001-002-----0
  6
Continuous
 62
     7
100
AcDbCircle
 10
237.324189
 20
55.55743899999999
 30
0.0
 40
19.27970400000042
100
AcDbArc
 50
-9.77781600000075
 51
0.5821239999997
  0
ARC
  5
181
330
49
100
AcDbEntity
  8
LC-001-002-----0
  6
Continuous
 62
     7
100
AcDbCircle
 10
251.608868
 20
53.076414
 30
0.0
 40
4.781217999999648
100
AcDbArc
 50
-22.85484099999772
 51
-9.54956000000606
  0
ARC
  5
182
330
49
100
AcDbEntity
  8
LC-001-002-----0
  6
Continuous
 62
     7
100
AcDbCircle
 10
255.5150839999999
 20
51.34235199999995
 30
0.0
 40
0.5145429999996632
100
AcDbArc
 50
-74.7872529999813
 51
-13.82490799994556
  0
ARC
  5
183
330
49
100
AcDbEntity
  8
LC-001-002-----0
  6
Continuous
 62
     7
100
AcDbCircle
 10
255.427534
 20
64.68449199999998
 30
0.0
 40
0.9113729999997193
100
AcDbArc
 50
10.43750000003637
 51
75.8651840000316
  0
ARC
  5
184
330
49
100
AcDbEntity
  8
LC-001-002-----0
  6
Continuous
 62
     7
100
AcDbCircle
 10
251.60704
 20
63.20096699999999
 30
0.0
 40
4.996605000000025
100
AcDbArc
 50
-0.99106399999894
 51
19.26577000000467
  0
ARC
  5
185
330
49
100
AcDbEntity
  8
LC-001-002-----0
  6
Continuous
 62
     7
100
AcDbCircle
 10
251.606999
 20
63.02810599999998
 30
0.0
 40
4.996646000000372
100
AcDbArc
 50
-19.26551100000331
 51
0.99120999999688
  0
ARC
  5
186
330
49
100
AcDbEntity
  8
LC-001-002-----0
  6
Continuous
 62
     7
100
AcDbCircle
 10
255.427518
 20
61.54459099999997
 30
0.0
 40
0.9113940000000549
100
AcDbArc
 50
-75.86400199999906
 51
-10.437394999989
  0
ARC
  5
187
330
49
100
AcDbEntity
  8
LC-001-002-----0
  6
Continuous
 62
     7
100
AcDbCircle
 10
231.046324
 20
49.96204399999999
 30
0.0
 40
0.9113939999999435
100
AcDbArc
 50
10.43738699998153
 51
75.86399799997926
  0
ARC
  5
188
330
49
100
AcDbEntity
  8
LC-001-002-----0
  6
Continuous
 62
     7
100
AcDbCircle
 10
227.225804
 20
48.47852799999998
 30
0.0
 40
4.996646999999781
100
AcDbArc
 50
-0.99121600000424
 51
19.26550499999805
  0
ARC
  5
189
330
49
100
AcDbEntity
  8
LC-001-002-----0
  6
Continuous
 62
     7
100
AcDbCircle
 10
227.225849
 20
48.30566799999997
 30
0.0
 40
4.996602999999951
100
AcDbArc
 50
-19.26578399999422
 51
0.99106000000385
  0
ARC
  5
18A
330
49
100
AcDbEntity
  8
LC-001-002-----0
  6
Continuous
 62
     7
100
AcDbCircle
 10
231.046341
 20
46.82214199999999
 30
0.0
 40
0.9113710000000981
100
AcDbArc
 50
-75.86527000002933
 51
-10.4375000000176
  0
ARC
  5
18B
330
49
100
AcDbEntity
  8
LC-001-002-----0
  6
Continuous
 62
     7
100
AcDbCircle
 10
231.04634
 20
64.68449199999998
 30
0.0
 40
0.9113729999997193
100
AcDbArc
 50
10.43750000003637
 51
75.86518400002987
  0
ARC
  5
18C
330
49
100
AcDbEntity
  8
LC-001-002-----0
  6
Continuous
 62
     7
100
AcDbCircle
 10
227.225846
 20
63.20096699999999
 30
0.0
 40
4.996605000000054
100
AcDbArc
 50
-0.99106399999894
 51
19.26577000000467
  0
ARC
  5
18D
330
49
100
AcDbEntity
  8
LC-001-002-----0
  6
Continuous
 62
     7
100
AcDbCircle
 10
227.225805
 20
63.02810599999998
 30
0.0
 40
4.996646000000399
100
AcDbArc
 50
-19.2655110000032
 51
0.99120999999689
  0
ARC
  5
18E
330
49
100
AcDbEntity
  8
LC-001-002-----0
  6
Continuous
 62
     7
100
AcDbCircle
 10
231.046324
 20
61.54459099999997
 30
0.0
 40
0.9113940000000549
100
AcDbArc
 50
-75.86400199999906
 51
-10.437394999989
  0
ARC
  5
18F
330
49
100
AcDbEntity
  8
LC-001-002-----0
  6
Continuous
 62
     7
100
AcDbCircle
 10
255.427518
 20
-79.04067200000009
 30
0.0
 40
0.9113939999999537
100
AcDbArc
 50
10.43738699998504
 51
75.863997999981
  0
ARC
  5
190
330
49
100
AcDbEntity
  8
LC-001-002-----0
  6
Continuous
 62
     7
100
AcDbCircle
 10
251.606998
 20
-80.5241880000001
 30
0.0
 40
4.996646999999781
100
AcDbArc
 50
-0.99121600000424
 51
19.26550499999848
  0
ARC
  5
191
330
49
100
AcDbEntity
  8
LC-001-002-----0
  6
Continuous
 62
     7
100
AcDbCircle
 10
251.607042
 20
-80.6970490000001
 30
0.0
 40
4.996602999999904
100
AcDbArc
 50
-19.26578399999371
 51
0.99106000000386
  0
ARC
  5
192
330
49
100
AcDbEntity
  8
LC-001-002-----0
  6
Continuous
 62
     7
100
AcDbCircle
 10
255.427535
 20
-82.18057500000009
 30
0.0
 40
0.9113710000000499
100
AcDbArc
 50
-75.86527000002671
 51
-10.43750000000981
  0
ARC
  5
193
330
49
100
AcDbEntity
  8
LC-002-002-RND-0
  6
Continuous
 62
     7
100
AcDbCircle
 10
400.367431
 20
89.99635799999999
 30
0.0
 40
0.5
100
AcDbArc
 50
-90.0
 51
0.0
  0
ARC
  5
194
330
49
100
AcDbEntity
  8
LC-002-002-RND-0
  6
Continuous
 62
     7
100
AcDbCircle
 10
381.367431
 20
89.99635799999999
 30
0.0
 40
0.5
100
AcDbArc
 50
180.0
 51
-90.0
  0
ARC
  5
195
330
49
100
AcDbEntity
  8
LC-002-002-RND-0
  6
Continuous
 62
     7
100
AcDbCircle
 10
292.367431
 20
89.99635799999999
 30
0.0
 40
0.5
100
AcDbArc
 50
-90.0
 51
0.0
  0
ARC
  5
196
330
49
100
AcDbEntity
  8
LC-002-002-RND-0
  6
Continuous
 62
     7
100
AcDbCircle
 10
273.367431
 20
89.99635799999999
 30
0.0
 40
0.5
100
AcDbArc
 50
180.0
 51
-90.0
  0
ARC
  5
197
330
49
100
AcDbEntity
  8
LC-002-002-RND-0
  6
Continuous
 62
     7
100
AcDbCircle
 10
400.367431
 20
96.99635799999999
 30
0.0
 40
0.5
100
AcDbArc
 50
0.0
 51
90.0
  0
ARC
  5
198
330
49
100
AcDbEntity
  8
LC-002-002-RND-0
  6
Continuous
 62
     7
100
AcDbCircle
 10
381.367431
 20
96.99635799999999
 30
0.0
 40
0.5
100
AcDbArc
 50
90.0
 51
180.0
  0
ARC
  5
199
330
49
100
AcDbEntity
  8
LC-002-002-RND-0
  6
Continuous
 62
     7
100
AcDbCircle
 10
292.367431
 20
96.99635799999999
 30
0.0
 40
0.5
100
AcDbArc
 50
0.0
 51
90.0
  0
ARC
  5
19A
330
49
100
AcDbEntity
  8
LC-002-002-RND-0
  6
Continuous
 62
     7
100
AcDbCircle
 10
273.367431
 20
96.99635799999999
 30
0.0
 40
0.5
100
AcDbArc
 50
90.0
 51
180.0
  0
ARC
  5
19B
330
49
100
AcDbEntity
  8
LC-002-002-RND-0
  6
Continuous
 62
     7
100
AcDbCircle
 10
430.522713
 20
89.99635799999999
 30
0.0
 40
0.5
100
AcDbArc
 50
-90.0
 51
0.0
  0
ARC
  5
19C
330
49
100
AcDbEntity
  8
LC-002-002-RND-0
  6
Continuous
 62
     7
100
AcDbCircle
 10
428.022713
 20
101.496358
 30
0.0
 40
3.0
100
AcDbArc
 50
0.0
 51
90.0
  0
ARC
  5
19D
330
49
100
AcDbEntity
  8
LC-002-002-RND-0
  6
Continuous
 62
     7
100
AcDbCircle
 10
305.442144
 20
110.996358
 30
0.0
 40
0.5
100
AcDbArc
 50
0.0
 51
90.0
  0
ARC
  5
19E
330
49
100
AcDbEntity
  8
LC-002-002-RND-0
  6
Continuous
 62
     7
100
AcDbCircle
 10
306.942144
 20
105.496358
 30
0.0
 40
1.0
100
AcDbArc
 50
180.0
 51
-90.0
  0
ARC
  5
19F
330
49
100
AcDbEntity
  8
LC-002-002-RND-0
  6
Continuous
 62
     7
100
AcDbCircle
 10
245.712149
 20
101.496358
 30
0.0
 40
3.0
100
AcDbArc
 50
90.0
 51
180.0
  0
ARC
  5
1A0
330
49
100
AcDbEntity
  8
LC-002-002-RND-0
  6
Continuous
 62
     7
100
AcDbCircle
 10
243.212149
 20
89.99635799999999
 30
0.0
 40
0.5
100
AcDbArc
 50
180.0
 51
-90.0
  0
ARC
  5
1A1
330
49
100
AcDbEntity
  8
LC-001-002-----0
  6
Continuous
 62
     7
100
AcDbCircle
 10
271.934244
 20
103.379986
 30
0.0
 40
24.35759899999961
100
AcDbArc
 50
69.74267600000036
 51
113.1258149999998
  0
ARC
  5
1A2
330
49
100
AcDbEntity
  8
LC-001-002-----0
  6
Continuous
 62
     7
100
AcDbCircle
 10
302.367431
 20
122.200361
 30
0.0
 40
0.9999999999999096
100
AcDbArc
 50
-69.99986699998927
 51
0.0
  0
ARC
  5
1A3
330
49
100
AcDbEntity
  8
LC-002-002-RND-0
  6
Continuous
 62
     7
100
AcDbCircle
 10
242.412301
 20
-72.96509200000003
 30
0.0
 40
0.5
100
AcDbArc
 50
90.0
 51
180.0
  0
ARC
  5
1A4
330
49
100
AcDbEntity
  8
LC-002-002-RND-0
  6
Continuous
 62
     7
100
AcDbCircle
 10
242.412301
 20
51.75322199999999
 30
0.0
 40
0.5
100
AcDbArc
 50
180.0
 51
-90.0
  0
ARC
  5
1A5
330
49
100
AcDbEntity
  8
LC-001-002-----0
  6
Continuous
 62
     7
100
AcDbCircle
 10
263.36776
 20
125.780321
 30
0.0
 40
1.000000000000274
100
AcDbArc
 50
108.7256369999772
 51
179.9999629999896
  0
ARC
  5
1A6
330
49
100
AcDbEntity
  8
LC-001-002-----0
  6
Continuous
 62
     7
100
AcDbCircle
 10
263.367758
 20
122.200251
 30
0.0
 40
1.000000000000208
100
AcDbArc
 50
179.9999629999896
 51
-110.0001139999863
  0
ARC
  5
1A7
330
49
100
AcDbEntity
  8
LC-002-002-RND-0
  6
Continuous
 62
     7
100
AcDbCircle
 10
210.715026
 20
104.745725
 30
0.0
 40
0.5
100
AcDbArc
 50
-90.0
 51
0.0
  0
ARC
  5
1A8
330
49
100
AcDbEntity
  8
LC-002-002-RND-0
  6
Continuous
 62
     7
100
AcDbCircle
 10
249.353608
 20
-82.74939900000004
 30
0.0
 40
0.5000000000002399
100
AcDbArc
 50
1.01670200001848
 51
90.0
  0
ARC
  5
1A9
330
49
100
AcDbEntity
  8
LC-002-002-RND-0
  6
Continuous
 62
     7
100
AcDbCircle
 10
244.102897
 20
-71.96509200000003
 30
0.0
 40
0.5
100
AcDbArc
 50
-90.0
 51
0.0
  0
ARC
  5
1AA
330
49
100
AcDbEntity
  8
LC-002-002-RND-0
  6
Continuous
 62
     7
100
AcDbCircle
 10
244.102897
 20
50.75322199999999
 30
0.0
 40
0.5
100
AcDbArc
 50
0.0
 51
90.0
  0
ARC
  5
1AB
330
49
100
AcDbEntity
  8
LC-002-002-RND-0
  6
Continuous
 62
     7
100
AcDbCircle
 10
400.26231
 20
88.99635799999999
 30
0.0
 40
0.5
100
AcDbArc
 50
0.0
 51
90.0
  0
ARC
  5
1AC
330
49
100
AcDbEntity
  8
LC-002-002-RND-0
  6
Continuous
 62
     7
100
AcDbCircle
 10
381.26231
 20
88.99635799999999
 30
0.0
 40
0.5
100
AcDbArc
 50
90.0
 51
180.0
  0
ARC
  5
1AD
330
49
100
AcDbEntity
  8
LC-002-002-RND-0
  6
Continuous
 62
     7
100
AcDbCircle
 10
292.26231
 20
88.99635799999999
 30
0.0
 40
0.5
100
AcDbArc
 50
0.0
 51
90.0
  0
ARC
  5
1AE
330
49
100
AcDbEntity
  8
LC-002-002-RND-0
  6
Continuous
 62
     7
100
AcDbCircle
 10
273.26231
 20
88.99635799999999
 30
0.0
 40
0.5
100
AcDbArc
 50
90.0
 51
180.0
  0
ARC
  5
1AF
330
49
100
AcDbEntity
  8
LC-002-002-RND-0
  6
Continuous
 62
     7
100
AcDbCircle
 10
191.715026
 20
104.745725
 30
0.0
 40
0.5
100
AcDbArc
 50
180.0
 51
-90.0
  0
ARC
  5
1B0
330
49
100
AcDbEntity
  8
LC-002-002-RND-0
  6
Continuous
 62
     7
100
AcDbCircle
 10
381.26231
 20
81.99635799999999
 30
0.0
 40
0.5
100
AcDbArc
 50
180.0
 51
-90.0
  0
ARC
  5
1B1
330
49
100
AcDbEntity
  8
LC-002-002-RND-0
  6
Continuous
 62
     7
100
AcDbCircle
 10
102.715026
 20
104.745725
 30
0.0
 40
0.5
100
AcDbArc
 50
-90.0
 51
0.0
  0
ARC
  5
1B2
330
49
100
AcDbEntity
  8
LC-002-002-RND-0
  6
Continuous
 62
     7
100
AcDbCircle
 10
400.26231
 20
81.99635799999999
 30
0.0
 40
0.5
100
AcDbArc
 50
-90.0
 51
0.0
  0
ARC
  5
1B3
330
49
100
AcDbEntity
  8
LC-002-002-RND-0
  6
Continuous
 62
     7
100
AcDbCircle
 10
273.26231
 20
81.99635799999999
 30
0.0
 40
0.5
100
AcDbArc
 50
180.0
 51
-90.0
  0
ARC
  5
1B4
330
49
100
AcDbEntity
  8
LC-002-002-RND-0
  6
Continuous
 62
     7
100
AcDbCircle
 10
292.26231
 20
81.99635799999999
 30
0.0
 40
0.5
100
AcDbArc
 50
-90.0
 51
0.0
  0
ARC
  5
1B5
330
49
100
AcDbEntity
  8
LC-001-002-----0
  6
Continuous
 62
     7
100
AcDbCircle
 10
293.800933
 20
103.380101
 30
0.0
 40
24.35759900000016
100
AcDbArc
 50
66.87414800000106
 51
110.2572870000006
  0
ARC
  5
1B6
330
49
100
AcDbEntity
  8
LC-001-002-----0
  6
Continuous
 62
     7
100
AcDbCircle
 10
302.367431
 20
125.7838449999999
 30
0.0
 40
1.0
100
AcDbArc
 50
0.0
 51
71.28469999999334
  0
ARC
  5
1B7
330
49
100
AcDbEntity
  8
LC-002-002-RND-0
  6
Continuous
 62
     7
100
AcDbCircle
 10
249.102897
 20
-41.07741099999998
 30
0.0
 40
0.5
100
AcDbArc
 50
0.0
 51
90.0
  0
ARC
  5
1B8
330
49
100
AcDbEntity
  8
LC-002-002-RND-0
  6
Continuous
 62
     7
100
AcDbCircle
 10
238.712301
 20
-80.51388399999996
 30
0.0
 40
0.5
100
AcDbArc
 50
180.0
 51
-90.0
  0
ARC
  5
1B9
330
49
100
AcDbEntity
  8
LC-002-002-RND-0
  6
Continuous
 62
     7
100
AcDbCircle
 10
238.712301
 20
47.98611599999998
 30
0.0
 40
0.5
100
AcDbArc
 50
90.0
 51
180.0
  0
ARC
  5
1BA
330
49
100
AcDbEntity
  8
LC-002-002-RND-0
  6
Continuous
 62
     7
100
AcDbCircle
 10
242.412301
 20
-81.74939900000004
 30
0.0
 40
0.5
100
AcDbArc
 50
180.0
 51
-90.0
  0
ARC
  5
1BB
330
49
100
AcDbEntity
  8
LC-002-002-RND-0
  6
Continuous
 62
     7
100
AcDbCircle
 10
242.412301
 20
-64.74939900000004
 30
0.0
 40
0.5
100
AcDbArc
 50
90.0
 51
180.0
  0
ARC
  5
1BC
330
49
100
AcDbEntity
  8
LC-002-002-RND-0
  6
Continuous
 62
     7
100
AcDbCircle
 10
244.102897
 20
-63.74939900000004
 30
0.0
 40
0.5
100
AcDbArc
 50
-90.0
 51
0.0
  0
ARC
  5
1BD
330
49
100
AcDbEntity
  8
LC-002-002-RND-0
  6
Continuous
 62
     7
100
AcDbCircle
 10
249.102897
 20
16.55426699999998
 30
0.0
 40
0.5
100
AcDbArc
 50
-90.0
 51
0.0
  0
ARC
  5
1BE
330
49
100
AcDbEntity
  8
LC-002-002-RND-0
  6
Continuous
 62
     7
100
AcDbCircle
 10
242.412301
 20
47.25331699999998
 30
0.0
 40
0.5
100
AcDbArc
 50
180.0
 51
-90.0
  0
ARC
  5
1BF
330
49
100
AcDbEntity
  8
LC-002-002-RND-0
  6
Continuous
 62
     7
100
AcDbCircle
 10
244.102897
 20
46.25331699999998
 30
0.0
 40
0.5
100
AcDbArc
 50
0.0
 51
90.0
  0
ARC
  5
1C0
330
49
100
AcDbEntity
  8
LC-002-002-RND-0
  6
Continuous
 62
     7
100
AcDbCircle
 10
249.102897
 20
64.25331699999998
 30
0.0
 40
0.5
100
AcDbArc
 50
0.0
 51
90.0
  0
ARC
  5
1C1
330
49
100
AcDbEntity
  8
LC-002-002-RND-0
  6
Continuous
 62
     7
100
AcDbCircle
 10
242.412301
 20
64.25331699999998
 30
0.0
 40
0.5
100
AcDbArc
 50
90.0
 51
180.0
  0
ARC
  5
1C2
330
49
100
AcDbEntity
  8
LC-002-002-RND-0
  6
Continuous
 62
     7
100
AcDbCircle
 10
279.943097
 20
-90.499367
 30
0.0
 40
0.5
100
AcDbArc
 50
-90.0
 51
0.0
  0
ARC
  5
1C3
330
49
100
AcDbEntity
  8
LC-001-002-----0
  6
Continuous
 62
     7
100
AcDbCircle
 10
293.798377
 20
144.610183
 30
0.0
 40
24.35759899999963
100
AcDbArc
 50
-110.2575910000013
 51
-66.86761100000095
  0
ARC
  5
1C4
330
49
100
AcDbEntity
  8
LC-002-002-RND-0
  6
Continuous
 62
     7
100
AcDbCircle
 10
254.912149
 20
-85.999367
 30
0.0
 40
5.000000000000117
100
AcDbArc
 50
-179.005581000001
 51
-90.0
  0
ARC
  5
1C5
330
49
100
AcDbEntity
  8
LC-002-002-RND-0
  6
Continuous
 62
     7
100
AcDbCircle
 10
83.71502599999997
 20
104.745725
 30
0.0
 40
0.5
100
AcDbArc
 50
180.0
 51
-90.0
  0
ARC
  5
1C6
330
49
100
AcDbEntity
  8
LC-002-002-RND-0
  6
Continuous
 62
     7
100
AcDbCircle
 10
210.715026
 20
111.745725
 30
0.0
 40
0.5
100
AcDbArc
 50
0.0
 51
90.0
  0
ARC
  5
1C7
330
49
100
AcDbEntity
  8
LC-002-002-RND-0
  6
Continuous
 62
     7
100
AcDbCircle
 10
191.715026
 20
111.745725
 30
0.0
 40
0.5
100
AcDbArc
 50
90.0
 51
180.0
  0
ARC
  5
1C8
330
49
100
AcDbEntity
  8
LC-002-002-RND-0
  6
Continuous
 62
     7
100
AcDbCircle
 10
102.715026
 20
111.745725
 30
0.0
 40
0.5
100
AcDbArc
 50
0.0
 51
90.0
  0
ARC
  5
1C9
330
49
100
AcDbEntity
  8
LC-002-002-RND-0
  6
Continuous
 62
     7
100
AcDbCircle
 10
83.71502599999997
 20
111.745725
 30
0.0
 40
0.5
100
AcDbArc
 50
90.0
 51
180.0
  0
ARC
  5
1CA
330
49
100
AcDbEntity
  8
LC-001-002-----0
  6
Continuous
 62
     7
100
AcDbCircle
 10
290.942144
 20
206.003791
 30
0.0
 40
2.0
100
AcDbArc
 50
90.0
 51
180.0
  0
ARC
  5
1CB
330
49
100
AcDbEntity
  8
LC-001-002-----0
  6
Continuous
 62
     7
100
AcDbCircle
 10
304.942144
 20
211.1902279999999
 30
0.0
 40
2.999999999999667
100
AcDbArc
 50
-84.99999999999856
 51
-11.59448800000163
  0
ARC
  5
1CC
330
49
100
AcDbEntity
  8
LC-001-002-----0
  6
Continuous
 62
     7
100
AcDbCircle
 10
303.442144
 20
210.503791
 30
0.0
 40
0.5
100
AcDbArc
 50
-90.0
 51
0.0
  0
ARC
  5
1CD
330
49
100
AcDbEntity
  8
LC-001-002-----0
  6
Continuous
 62
     7
100
AcDbCircle
 10
290.942144
 20
208.003791
 30
0.0
 40
2.0
100
AcDbArc
 50
90.0
 51
180.0
  0
ARC
  5
1CE
330
49
100
AcDbEntity
  8
LC-001-002-----0
  6
Continuous
 62
     7
100
AcDbCircle
 10
271.936826
 20
144.610068
 30
0.0
 40
24.35759900000046
100
AcDbArc
 50
-113.1324260000004
 51
-69.74244699999934
  0
ARC
  5
1CF
330
49
100
AcDbEntity
  8
LC-001-002-----0
  6
Continuous
 62
     7
100
AcDbCircle
 10
305.942144
 20
214.003791
 30
0.0
 40
2.5
100
AcDbArc
 50
180.0
 51
-55.83668499999736
  0
ARC
  5
1D0
330
49
100
AcDbEntity
  8
LC-001-002-----0
  6
Continuous
 62
     7
100
AcDbCircle
 10
282.872796
 20
68.24002999999999
 30
0.0
 40
61.75632799999971
100
AcDbArc
 50
71.2847009999999
 51
108.7256559999997
  0
ARC
  5
1D1
330
49
100
AcDbEntity
  8
LC-001-002-----0
  6
Continuous
 62
     7
100
AcDbCircle
 10
300.942144
 20
116.176408
 30
0.0
 40
1.999999999999481
100
AcDbArc
 50
-94.99999999999129
 51
0.0
  0
ARC
  5
1D2
330
49
100
AcDbEntity
  8
LC-001-002-----0
  6
Continuous
 62
     7
100
AcDbCircle
 10
305.942144
 20
214.003791
 30
0.0
 40
2.499999999999769
100
AcDbArc
 50
-55.83668499999736
 51
180.0
  0
ARC
  5
1D3
330
49
100
AcDbEntity
  8
LC-001-002-----0
  6
Continuous
 62
     7
100
AcDbCircle
 10
305.942144
 20
214.003791
 30
0.0
 40
4.000000000000033
100
AcDbArc
 50
-56.43861999999598
 51
85.9039560000043
  0
ARC
  5
1D4
330
49
100
AcDbEntity
  8
LC-001-002-----0
  6
Continuous
 62
     7
100
AcDbCircle
 10
301.442144
 20
212.503791
 30
0.0
 40
2.0
100
AcDbArc
 50
-90.0
 51
0.0
  0
ARC
  5
1D5
330
49
100
AcDbEntity
  8
LC-001-002-----0
  6
Continuous
 62
     7
100
AcDbCircle
 10
290.442144
 20
208.503791
 30
0.0
 40
2.0
100
AcDbArc
 50
90.0
 51
180.0
  0
ARC
  5
1D6
330
49
100
AcDbEntity
  8
LC-001-002-----0
  6
Continuous
 62
     7
100
AcDbCircle
 10
286.442144
 20
193.503791
 30
0.0
 40
2.0
100
AcDbArc
 50
-90.0
 51
0.0
  0
ARC
  5
1D7
330
49
100
AcDbEntity
  8
LC-001-002-----0
  6
Continuous
 62
     7
100
AcDbCircle
 10
280.442144
 20
193.503791
 30
0.0
 40
2.0
100
AcDbArc
 50
180.0
 51
-90.0
  0
ARC
  5
1D8
330
49
100
AcDbEntity
  8
LC-001-002-----0
  6
Continuous
 62
     7
100
AcDbCircle
 10
280.442144
 20
227.003791
 30
0.0
 40
2.0
100
AcDbArc
 50
90.0
 51
180.0
  0
ARC
  5
1D9
330
49
100
AcDbEntity
  8
LC-001-002-----0
  6
Continuous
 62
     7
100
AcDbCircle
 10
301.442144
 20
227.003791
 30
0.0
 40
2.0
100
AcDbArc
 50
0.0
 51
90.0
  0
ARC
  5
1DA
330
49
100
AcDbEntity
  8
LC-001-002-----0
  6
Continuous
 62
     7
100
AcDbCircle
 10
307.8770489999999
 20
211.087262
 30
0.0
 40
0.499999999999935
100
AcDbArc
 50
-150.0442020000461
 51
-56.43862000001219
  0
ARC
  5
1DB
330
49
100
AcDbEntity
  8
LC-001-002-----0
  6
Continuous
 62
     7
100
AcDbCircle
 10
307.626805
 20
211.5214699999999
 30
0.0
 40
0.5000000000002868
100
AcDbArc
 50
124.1633150000067
 51
-150.0442020000526
  0
ARC
  5
1DC
330
49
100
AcDbEntity
  8
LC-001-002-----0
  6
Continuous
 62
     7
100
AcDbCircle
 10
306.442144
 20
220.985911
 30
0.0
 40
3.0
100
AcDbArc
 50
180.0
 51
-94.09604399999236
  0
ARC
  5
1DD
330
49
100
AcDbEntity
  8
LC-001-002-----0
  6
Continuous
 62
     7
100
AcDbCircle
 10
379.9342439999999
 20
103.379986
 30
0.0
 40
24.35759899999961
100
AcDbArc
 50
69.74267600000036
 51
113.1258149999997
  0
ARC
  5
1DE
330
49
100
AcDbEntity
  8
LC-001-002-----0
  6
Continuous
 62
     7
100
AcDbCircle
 10
410.367431
 20
122.200361
 30
0.0
 40
0.9999999999999096
100
AcDbArc
 50
-69.99986699998927
 51
0.0
  0
ARC
  5
1DF
330
49
100
AcDbEntity
  8
LC-002-002-RND-0
  6
Continuous
 62
     7
100
AcDbCircle
 10
0.5
 20
-58.95000000000005
 30
0.0
 40
0.5
100
AcDbArc
 50
180.0
 51
-90.0
  0
ARC
  5
1E0
330
49
100
AcDbEntity
  8
LC-002-002-RND-0
  6
Continuous
 62
     7
100
AcDbCircle
 10
0.5
 20
58.94999999999999
 30
0.0
 40
0.5
100
AcDbArc
 50
90.0
 51
180.0
  0
ARC
  5
1E1
330
49
100
AcDbEntity
  8
LC-002-002-RND-0
  6
Continuous
 62
     7
100
AcDbCircle
 10
241.412301
 20
51.75322199999999
 30
0.0
 40
0.5
100
AcDbArc
 50
-90.0
 51
0.0
  0
ARC
  5
1E2
330
49
100
AcDbEntity
  8
LC-002-002-RND-0
  6
Continuous
 62
     7
100
AcDbCircle
 10
237.03543
 20
65.25331699999998
 30
0.0
 40
0.4999999999996532
100
AcDbArc
 50
179.0033530000337
 51
-90.0
  0
ARC
  5
1E3
330
49
100
AcDbEntity
  8
LC-002-002-RND-0
  6
Continuous
 62
     7
100
AcDbCircle
 10
56.97225699999996
 20
60.44999999999999
 30
0.0
 40
1.0
100
AcDbArc
 50
-90.0
 51
0.99999999998263
  0
ARC
  5
1E4
330
49
100
AcDbEntity
  8
LC-002-002-RND-0
  6
Continuous
 62
     7
100
AcDbCircle
 10
59.08257399999997
 20
-60.45000000000005
 30
0.0
 40
0.9999999999996049
100
AcDbArc
 50
0.99999999998955
 51
90.0
  0
ARC
  5
1E5
330
49
100
AcDbEntity
  8
LC-002-002-RND-0
  6
Continuous
 62
     7
100
AcDbCircle
 10
239.721704
 20
50.75322199999999
 30
0.0
 40
0.5
100
AcDbArc
 50
90.0
 51
180.0
  0
ARC
  5
1E6
330
49
100
AcDbEntity
  8
LC-002-002-RND-0
  6
Continuous
 62
     7
100
AcDbCircle
 10
241.412301
 20
-81.74930400000005
 30
0.0
 40
0.5
100
AcDbArc
 50
-90.0
 51
0.0
  0
ARC
  5
1E7
330
49
100
AcDbEntity
  8
LC-002-002-RND-0
  6
Continuous
 62
     7
100
AcDbCircle
 10
234.721704
 20
-81.74930400000005
 30
0.0
 40
0.5
100
AcDbArc
 50
180.0
 51
-90.0
  0
ARC
  5
1E8
330
49
100
AcDbEntity
  8
LC-002-002-RND-0
  6
Continuous
 62
     7
100
AcDbCircle
 10
234.721704
 20
-24.88128900000004
 30
0.0
 40
0.5
100
AcDbArc
 50
90.0
 51
180.0
  0
ARC
  5
1E9
330
49
100
AcDbEntity
  8
LC-002-002-RND-0
  6
Continuous
 62
     7
100
AcDbCircle
 10
210.609905
 20
103.745725
 30
0.0
 40
0.5
100
AcDbArc
 50
0.0
 51
90.0
  0
ARC
  5
1EA
330
49
100
AcDbEntity
  8
LC-002-002-RND-0
  6
Continuous
 62
     7
100
AcDbCircle
 10
191.609905
 20
103.745725
 30
0.0
 40
0.5
100
AcDbArc
 50
90.0
 51
180.0
  0
ARC
  5
1EB
330
49
100
AcDbEntity
  8
LC-002-002-RND-0
  6
Continuous
 62
     7
100
AcDbCircle
 10
102.609905
 20
103.745725
 30
0.0
 40
0.5
100
AcDbArc
 50
0.0
 51
90.0
  0
ARC
  5
1EC
330
49
100
AcDbEntity
  8
LC-002-002-RND-0
  6
Continuous
 62
     7
100
AcDbCircle
 10
83.60990499999997
 20
103.745725
 30
0.0
 40
0.5
100
AcDbArc
 50
90.0
 51
180.0
  0
ARC
  5
1ED
330
49
100
AcDbEntity
  8
LC-002-002-RND-0
  6
Continuous
 62
     7
100
AcDbCircle
 10
191.609905
 20
96.745725
 30
0.0
 40
0.5
100
AcDbArc
 50
180.0
 51
-90.0
  0
ARC
  5
1EE
330
49
100
AcDbEntity
  8
LC-002-002-RND-0
  6
Continuous
 62
     7
100
AcDbCircle
 10
210.609905
 20
96.745725
 30
0.0
 40
0.5
100
AcDbArc
 50
-90.0
 51
0.0
  0
ARC
  5
1EF
330
49
100
AcDbEntity
  8
LC-002-002-RND-0
  6
Continuous
 62
     7
100
AcDbCircle
 10
83.60990499999997
 20
96.745725
 30
0.0
 40
0.5
100
AcDbArc
 50
180.0
 51
-90.0
  0
ARC
  5
1F0
330
49
100
AcDbEntity
  8
LC-002-002-RND-0
  6
Continuous
 62
     7
100
AcDbCircle
 10
102.609905
 20
96.745725
 30
0.0
 40
0.5
100
AcDbArc
 50
-90.0
 51
0.0
  0
ARC
  5
1F1
330
49
100
AcDbEntity
  8
LC-001-002-----0
  6
Continuous
 62
     7
100
AcDbCircle
 10
371.36776
 20
125.780321
 30
0.0
 40
1.000000000000274
100
AcDbArc
 50
108.7256369999772
 51
179.9999629999896
  0
ARC
  5
1F2
330
49
100
AcDbEntity
  8
LC-001-002-----0
  6
Continuous
 62
     7
100
AcDbCircle
 10
371.367758
 20
122.200251
 30
0.0
 40
1.000000000000208
100
AcDbArc
 50
179.9999629999896
 51
-110.0001139999863
  0
ARC
  5
1F3
330
49
100
AcDbEntity
  8
LC-002-002-RND-0
  6
Continuous
 62
     7
100
AcDbCircle
 10
234.721704
 20
15.44973199999998
 30
0.0
 40
0.5
100
AcDbArc
 50
180.0
 51
-90.0
  0
ARC
  5
1F4
330
49
100
AcDbEntity
  8
LC-002-002-RND-0
  6
Continuous
 62
     7
100
AcDbCircle
 10
241.412301
 20
64.25331699999998
 30
0.0
 40
0.5
100
AcDbArc
 50
0.0
 51
90.0
  0
ARC
  5
1F5
330
49
100
AcDbEntity
  8
LC-002-002-RND-0
  6
Continuous
 62
     7
100
AcDbCircle
 10
234.721704
 20
64.25331699999998
 30
0.0
 40
0.5
100
AcDbArc
 50
90.0
 51
180.0
  0
ARC
  5
1F6
330
49
100
AcDbEntity
  8
LC-002-002-RND-0
  6
Continuous
 62
     7
100
AcDbCircle
 10
90.29423399999996
 20
-75.75
 30
0.0
 40
0.5
100
AcDbArc
 50
-90.0
 51
0.0
  0
ARC
  5
1F7
330
49
100
AcDbEntity
  8
LC-002-002-RND-0
  6
Continuous
 62
     7
100
AcDbCircle
 10
91.29423399999996
 20
-71.74975600000005
 30
0.0
 40
0.5
100
AcDbArc
 50
90.0
 51
180.0
  0
ARC
  5
1F8
330
49
100
AcDbEntity
  8
LC-002-002-RND-0
  6
Continuous
 62
     7
100
AcDbCircle
 10
1.5
 20
60.44999999999999
 30
0.0
 40
1.0
100
AcDbArc
 50
-90.0
 51
0.0
  0
ARC
  5
1F9
330
49
100
AcDbEntity
  8
LC-001-002-----0
  6
Continuous
 62
     7
100
AcDbCircle
 10
401.800933
 20
103.380101
 30
0.0
 40
24.35759900000016
100
AcDbArc
 50
66.87414800000106
 51
110.2572870000009
  0
ARC
  5
1FA
330
49
100
AcDbEntity
  8
LC-001-002-----0
  6
Continuous
 62
     7
100
AcDbCircle
 10
6.5
 20
60.75
 30
0.0
 40
4.0
100
AcDbArc
 50
90.0
 51
180.0
  0
ARC
  5
1FB
330
49
100
AcDbEntity
  8
LC-001-002-----0
  6
Continuous
 62
     7
100
AcDbCircle
 10
16.5
 20
60.75
 30
0.0
 40
4.0
100
AcDbArc
 50
0.0
 51
90.0
  0
ARC
  5
1FC
330
49
100
AcDbEntity
  8
LC-001-002-----0
  6
Continuous
 62
     7
100
AcDbCircle
 10
21.5
 20
60.44999999999999
 30
0.0
 40
1.0
100
AcDbArc
 50
180.0
 51
-90.0
  0
ARC
  5
1FD
330
49
100
AcDbEntity
  8
LC-002-002-RND-0
  6
Continuous
 62
     7
100
AcDbCircle
 10
1.5
 20
-60.45000000000005
 30
0.0
 40
1.0
100
AcDbArc
 50
0.0
 51
90.0
  0
ARC
  5
1FE
330
49
100
AcDbEntity
  8
LC-001-002-----0
  6
Continuous
 62
     7
100
AcDbCircle
 10
410.367431
 20
125.7838449999999
 30
0.0
 40
1.0
100
AcDbArc
 50
0.0
 51
71.28469999999334
  0
ARC
  5
1FF
330
49
100
AcDbEntity
  8
LC-001-002-----0
  6
Continuous
 62
     7
100
AcDbCircle
 10
401.798377
 20
144.610183
 30
0.0
 40
24.35759899999963
100
AcDbArc
 50
-110.2575910000013
 51
-66.86761100000095
  0
ARC
  5
200
330
49
100
AcDbEntity
  8
LC-002-002-RND-0
  6
Continuous
 62
     7
100
AcDbCircle
 10
240.870308
 20
104.745725
 30
0.0
 40
0.5
100
AcDbArc
 50
-90.0
 51
0.0
  0
ARC
  5
201
330
49
100
AcDbEntity
  8
LC-002-002-RND-0
  6
Continuous
 62
     7
100
AcDbCircle
 10
238.370308
 20
116.245725
 30
0.0
 40
3.0
100
AcDbArc
 50
0.0
 51
90.0
  0
ARC
  5
202
330
49
100
AcDbEntity
  8
LC-001-002-----0
  6
Continuous
 62
     7
100
AcDbCircle
 10
379.936826
 20
144.610068
 30
0.0
 40
24.35759900000048
100
AcDbArc
 50
-113.1324260000005
 51
-69.74244699999959
  0
ARC
  5
203
330
49
100
AcDbEntity
  8
LC-001-002-----0
  6
Continuous
 62
     7
100
AcDbCircle
 10
190.281839
 20
118.129353
 30
0.0
 40
24.35759899999963
100
AcDbArc
 50
69.74267600000036
 51
113.1258149999999
  0
ARC
  5
204
330
49
100
AcDbEntity
  8
LC-001-002-----0
  6
Continuous
 62
     7
100
AcDbCircle
 10
220.715026
 20
136.9497269999999
 30
0.0
 40
0.9999999999999096
100
AcDbArc
 50
-69.99986699998927
 51
0.0
  0
ARC
  5
205
330
49
100
AcDbEntity
  8
LC-001-002-----0
  6
Continuous
 62
     7
100
AcDbCircle
 10
181.715356
 20
140.529687
 30
0.0
 40
1.000000000000293
100
AcDbArc
 50
108.7256369999803
 51
179.9999629999904
  0
ARC
  5
206
330
49
100
AcDbEntity
  8
LC-001-002-----0
  6
Continuous
 62
     7
100
AcDbCircle
 10
181.715353
 20
136.949617
 30
0.0
 40
1.000000000000208
100
AcDbArc
 50
179.9999629999953
 51
-110.0001139999878
  0
ARC
  5
207
330
49
100
AcDbEntity
  8
LC-001-002-----0
  6
Continuous
 62
     7
100
AcDbCircle
 10
390.872796
 20
68.24002999999999
 30
0.0
 40
61.75632799999971
100
AcDbArc
 50
71.2847009999999
 51
108.7256559999997
  0
ARC
  5
208
330
49
100
AcDbEntity
  8
LC-001-002-----0
  6
Continuous
 62
     7
100
AcDbCircle
 10
212.148528
 20
118.129468
 30
0.0
 40
24.35759900000015
100
AcDbArc
 50
66.87414800000113
 51
110.2572870000006
  0
ARC
  5
209
330
49
100
AcDbEntity
  8
LC-001-002-----0
  6
Continuous
 62
     7
100
AcDbCircle
 10
220.715026
 20
140.5332109999999
 30
0.0
 40
1.0
100
AcDbArc
 50
0.0
 51
71.2846999999918
  0
ARC
  5
20A
330
49
100
AcDbEntity
  8
LC-001-002-----0
  6
Continuous
 62
     7
100
AcDbCircle
 10
212.145973
 20
159.35955
 30
0.0
 40
24.35759899999973
100
AcDbArc
 50
-110.2575910000012
 51
-66.86761100000095
  0
ARC
  5
20B
330
49
100
AcDbEntity
  8
LC-001-002-----0
  6
Continuous
 62
     7
100
AcDbCircle
 10
190.284422
 20
159.359434
 30
0.0
 40
24.35759900000054
100
AcDbArc
 50
-113.1324260000003
 51
-69.74244699999932
  0
ARC
  5
20C
330
49
100
AcDbEntity
  8
LC-001-002-----0
  6
Continuous
 62
     7
100
AcDbCircle
 10
201.220391
 20
82.989396
 30
0.0
 40
61.75632799999969
100
AcDbArc
 50
71.28470099999991
 51
108.7256559999998
  0
ARC
  5
20D
330
49
100
AcDbEntity
  8
LC-001-002-----0
  6
Continuous
 62
     7
100
AcDbCircle
 10
82.28183899999999
 20
118.129353
 30
0.0
 40
24.35759899999963
100
AcDbArc
 50
69.74267600000036
 51
113.1258149999999
  0
ARC
  5
20E
330
49
100
AcDbEntity
  8
LC-001-002-----0
  6
Continuous
 62
     7
100
AcDbCircle
 10
112.715026
 20
136.9497269999999
 30
0.0
 40
0.9999999999999096
100
AcDbArc
 50
-69.99986699998927
 51
0.0
  0
ARC
  5
20F
330
49
100
AcDbEntity
  8
LC-001-002-----0
  6
Continuous
 62
     7
100
AcDbCircle
 10
73.71535599999999
 20
140.529687
 30
0.0
 40
1.000000000000293
100
AcDbArc
 50
108.7256369999803
 51
179.9999629999904
  0
ARC
  5
210
330
49
100
AcDbEntity
  8
LC-001-002-----0
  6
Continuous
 62
     7
100
AcDbCircle
 10
73.715353
 20
136.949617
 30
0.0
 40
1.000000000000208
100
AcDbArc
 50
179.9999629999953
 51
-110.0001139999893
  0
ARC
  5
211
330
49
100
AcDbEntity
  8
LC-001-002-----0
  6
Continuous
 62
     7
100
AcDbCircle
 10
104.148528
 20
118.129468
 30
0.0
 40
24.35759900000015
100
AcDbArc
 50
66.87414800000113
 51
110.2572870000006
  0
ARC
  5
212
330
49
100
AcDbEntity
  8
LC-001-002-----0
  6
Continuous
 62
     7
100
AcDbCircle
 10
112.715026
 20
140.5332109999999
 30
0.0
 40
1.0
100
AcDbArc
 50
0.0
 51
71.28469999999257
  0
ARC
  5
213
330
49
100
AcDbEntity
  8
LC-002-002-RND-0
  6
Continuous
 62
     7
100
AcDbCircle
 10
56.01974399999995
 20
116.245725
 30
0.0
 40
3.0
100
AcDbArc
 50
90.0
 51
180.0
  0
ARC
  5
214
330
49
100
AcDbEntity
  8
LC-002-002-RND-0
  6
Continuous
 62
     7
100
AcDbCircle
 10
53.51974399999995
 20
104.745725
 30
0.0
 40
0.5
100
AcDbArc
 50
180.0
 51
-90.0
  0
ARC
  5
215
330
49
100
AcDbEntity
  8
LC-001-002-----0
  6
Continuous
 62
     7
100
AcDbCircle
 10
6.5
 20
-60.75
 30
0.0
 40
4.0
100
AcDbArc
 50
180.0
 51
-90.0
  0
ARC
  5
216
330
49
100
AcDbEntity
  8
LC-001-002-----0
  6
Continuous
 62
     7
100
AcDbCircle
 10
16.5
 20
-60.75
 30
0.0
 40
4.0
100
AcDbArc
 50
-90.0
 51
0.0
  0
ARC
  5
217
330
49
100
AcDbEntity
  8
LC-001-002-----0
  6
Continuous
 62
     7
100
AcDbCircle
 10
21.5
 20
-60.45000000000005
 30
0.0
 40
1.0
100
AcDbArc
 50
90.0
 51
180.0
  0
ARC
  5
218
330
49
100
AcDbEntity
  8
LC-002-002-RND-0
  6
Continuous
 62
     7
100
AcDbCircle
 10
65.27693099999999
 20
-71.25
 30
0.0
 40
5.000000000000059
100
AcDbArc
 50
-179.0000000000048
 51
-90.0
  0
ARC
  5
219
330
49
100
AcDbEntity
  8
LC-001-002-----0
  6
Continuous
 62
     7
100
AcDbCircle
 10
104.145973
 20
159.35955
 30
0.0
 40
24.35759899999973
100
AcDbArc
 50
-110.2575910000013
 51
-66.86761100000095
  0
ARC
  5
21A
330
49
100
AcDbEntity
  8
LC-001-002-----0
  6
Continuous
 62
     7
100
AcDbCircle
 10
82.28442199999995
 20
159.359434
 30
0.0
 40
24.35759900000052
100
AcDbArc
 50
-113.1324260000002
 51
-69.74244699999932
  0
ARC
  5
21B
330
49
100
AcDbEntity
  8
LC-001-002-----0
  6
Continuous
 62
     7
100
AcDbCircle
 10
93.22039099999995
 20
82.989396
 30
0.0
 40
61.75632799999971
100
AcDbArc
 50
71.28470099999988
 51
108.7256559999997
  0
ENDBLK
  5
4B
330
49
100
AcDbEntity
  8
0
100
AcDbBlockEnd
  0
BLOCK
  5
4D
330
4C
100
AcDbEntity
  8
0
100
AcDbBlockBegin
  2
HL710_2-Draufsicht
 70
     0
 71
     0
 10
-1.66371428579998
 20
-419.0595616796115
 30
0.0
  3
HL710_2-Draufsicht
  1

  0
LINE
  5
21C
330
4C
100
AcDbEntity
  8
0
  6
Continuous
 62
     7
100
AcDbLine
 10
53.01974399999995
 20
-240.6095662223247
 30
0.0
 11
53.01974399999995
 21
-359.5095680629659
 31
0.0
  0
LINE
  5
21D
330
4C
100
AcDbEntity
  8
0
  6
Continuous
 62
     7
100
AcDbLine
 10
53.01974399999995
 20
-359.5095680629659
 30
0.0
 11
53.01974399999995
 21
-379.8150514358274
 31
0.0
  0
LINE
  5
21E
330
4C
100
AcDbEntity
  8
0
  6
Continuous
 62
     7
100
AcDbLine
 10
259.978676120196
 20
-198.8095653646456
 30
0.0
 11
259.890512350396
 21
-198.3095650666455
 31
0.0
  0
LINE
  5
21F
330
4C
100
AcDbEntity
  8
0
  6
Continuous
 62
     7
100
AcDbLine
 10
259.890512350396
 20
-400.8095656628454
 30
0.0
 11
259.978676120196
 21
-400.3095653646456
 31
0.0
  0
LINE
  5
220
330
4C
100
AcDbEntity
  8
0
  6
Continuous
 62
     7
100
AcDbLine
 10
309.942144
 20
-259.5595653646456
 30
0.0
 11
309.942144
 21
-249.5595653646456
 31
0.0
  0
LINE
  5
221
330
4C
100
AcDbEntity
  8
0
  6
Continuous
 62
     7
100
AcDbLine
 10
309.942144
 20
-349.5595653646456
 30
0.0
 11
309.942144
 21
-339.5595653646456
 31
0.0
  0
LINE
  5
222
330
4C
100
AcDbEntity
  8
0
  6
Continuous
 62
     7
100
AcDbLine
 10
303.9421430291999
 20
-338.6595641368456
 30
0.0
 11
303.942144
 21
-339.3095653646715
 31
0.0
  0
LINE
  5
223
330
4C
100
AcDbEntity
  8
0
  6
Continuous
 62
     7
100
AcDbLine
 10
303.942144
 20
-259.8095653648215
 30
0.0
 11
303.9421430291999
 21
-260.4595665926455
 31
0.0
  0
LINE
  5
224
330
4C
100
AcDbEntity
  8
0
  6
Continuous
 62
     7
100
AcDbLine
 10
307.9421474101999
 20
-260.4595665926455
 30
0.0
 11
307.942144
 21
-259.8095653648195
 31
0.0
  0
LINE
  5
225
330
4C
100
AcDbEntity
  8
0
  6
Continuous
 62
     7
100
AcDbLine
 10
307.942144
 20
-339.3095653646715
 30
0.0
 11
307.9421474101999
 21
-338.6595641368456
 31
0.0
  0
LINE
  5
226
330
4C
100
AcDbEntity
  8
0
  6
Continuous
 62
     7
100
AcDbLine
 10
230.478676754396
 20
-209.8095660204456
 30
0.0
 11
230.878676074996
 21
-209.4095666998455
 31
0.0
  0
LINE
  5
227
330
4C
100
AcDbEntity
  8
0
  6
Continuous
 62
     7
100
AcDbLine
 10
230.878676074996
 20
-200.2095674270455
 30
0.0
 11
230.478676754396
 21
-199.8095681066454
 31
0.0
  0
LINE
  5
228
330
4C
100
AcDbEntity
  8
0
  6
Continuous
 62
     7
100
AcDbLine
 10
230.478676754396
 20
-399.3095626228455
 30
0.0
 11
230.878676074996
 21
-398.9095633024456
 31
0.0
  0
LINE
  5
229
330
4C
100
AcDbEntity
  8
0
  6
Continuous
 62
     7
100
AcDbLine
 10
230.878676074996
 20
-389.7095640296454
 30
0.0
 11
230.478676754396
 21
-389.3095647090454
 31
0.0
  0
LINE
  5
22A
330
4C
100
AcDbEntity
  8
0
  6
Continuous
 62
     7
100
AcDbLine
 10
254.278676120196
 20
-196.8095653646456
 30
0.0
 11
253.0786760817959
 21
-196.8095620268455
 31
0.0
  0
LINE
  5
22B
330
4C
100
AcDbEntity
  8
0
  6
Continuous
 62
     7
100
AcDbLine
 10
253.0786760817959
 20
-402.3095687026455
 30
0.0
 11
254.278676120196
 21
-402.3095653646456
 31
0.0
  0
LINE
  5
22C
330
4C
100
AcDbEntity
  8
0
  6
Continuous
 62
     7
100
AcDbLine
 10
232.078675899196
 20
-197.8095640534455
 30
0.0
 11
230.878676120196
 21
-197.8095653646456
 31
0.0
  0
LINE
  5
22D
330
4C
100
AcDbEntity
  8
0
  6
Continuous
 62
     7
100
AcDbLine
 10
230.878676120196
 20
-402.3095653646456
 30
0.0
 11
232.078675899196
 21
-402.3095687026455
 31
0.0
  0
LINE
  5
22E
330
4C
100
AcDbEntity
  8
0
  6
Continuous
 62
     7
100
AcDbLine
 10
238.5786761201959
 20
-195.3095653646456
 30
0.0
 11
232.0786761201959
 21
-195.3095653646456
 31
0.0
  0
LINE
  5
22F
330
4C
100
AcDbEntity
  8
0
  6
Continuous
 62
     7
100
AcDbLine
 10
232.0786761201959
 20
-404.8095653646456
 30
0.0
 11
238.5786761201959
 21
-404.8095653646456
 31
0.0
  0
LINE
  5
230
330
4C
100
AcDbEntity
  8
0
  6
Continuous
 62
     7
100
AcDbLine
 10
20.33589838480003
 20
-365.5095653646454
 30
0.0
 11
23.80000000000007
 21
-359.5095653646454
 31
0.0
  0
LINE
  5
231
330
4C
100
AcDbEntity
  8
0
  6
Continuous
 62
     7
100
AcDbLine
 10
23.80000000000007
 20
-240.6095653646455
 30
0.0
 11
20.33589838480003
 21
-234.6095653646455
 31
0.0
  0
LINE
  5
232
330
4C
100
AcDbEntity
  8
0
  6
Continuous
 62
     7
100
AcDbLine
 10
20.33589838480003
 20
-234.6095653646455
 30
0.0
 11
10.756938902
 21
-235.1115773590454
 31
0.0
  0
LINE
  5
233
330
4C
100
AcDbEntity
  8
0
  6
Continuous
 62
     7
100
AcDbLine
 10
10.756938902
 20
-365.0075533704455
 30
0.0
 11
20.33589838480003
 21
-365.5095653646454
 31
0.0
  0
LINE
  5
234
330
4C
100
AcDbEntity
  8
0
  6
Continuous
 62
     7
100
AcDbLine
 10
238.5786760331959
 20
-403.0595664972454
 30
0.0
 11
241.5786761201959
 21
-403.0595653646456
 31
0.0
  0
LINE
  5
235
330
4C
100
AcDbEntity
  8
0
  6
Continuous
 62
     7
100
AcDbLine
 10
241.5786761201959
 20
-385.5595653646456
 30
0.0
 11
239.298092919796
 21
-385.5595682854455
 31
0.0
  0
LINE
  5
236
330
4C
100
AcDbEntity
  8
0
  6
Continuous
 62
     7
100
AcDbLine
 10
239.298092919796
 20
-214.5595644706455
 30
0.0
 11
241.5786761201959
 21
-214.5595653646456
 31
0.0
  0
LINE
  5
237
330
4C
100
AcDbEntity
  8
0
  6
Continuous
 62
     7
100
AcDbLine
 10
241.5786761201959
 20
-197.0595653646456
 30
0.0
 11
238.5786760331959
 21
-197.0595662588455
 31
0.0
  0
LINE
  5
238
330
4C
100
AcDbEntity
  8
0
  6
Continuous
 62
     7
100
AcDbLine
 10
7.4798527057402
 20
-236.5724261558015
 30
0.0
 11
3.5
 21
-240.5595653646456
 31
0.0
  0
LINE
  5
239
330
4C
100
AcDbEntity
  8
0
  6
Continuous
 62
     7
100
AcDbLine
 10
3.5
 20
-359.5595653646456
 30
0.0
 11
7.4798527057402
 21
-363.5467045736896
 31
0.0
  0
LINE
  5
23A
330
4C
100
AcDbEntity
  8
0
  6
Continuous
 62
     7
100
AcDbLine
 10
3.5
 20
-240.5595653646456
 30
0.0
 11
0.47121798660004
 21
-240.7342038368455
 31
0.0
  0
LINE
  5
23B
330
4C
100
AcDbEntity
  8
0
  6
Continuous
 62
     7
100
AcDbLine
 10
0.47121798660004
 20
-359.3849268926456
 30
0.0
 11
3.5
 21
-359.5595653646456
 31
0.0
  0
LINE
  5
23C
330
4C
100
AcDbEntity
  8
0
  6
Continuous
 62
     7
100
AcDbLine
 10
53.01974399999995
 20
-240.6095662223247
 30
0.0
 11
23.80000000000007
 21
-240.6095653646455
 31
0.0
  0
LINE
  5
23D
330
4C
100
AcDbEntity
  8
0
  6
Continuous
 62
     7
100
AcDbLine
 10
23.80000000000007
 20
-359.5095653646454
 30
0.0
 11
53.01974399999995
 21
-359.5095680629659
 31
0.0
  0
LINE
  5
23E
330
4C
100
AcDbEntity
  8
0
  6
Continuous
 62
     7
100
AcDbLine
 10
241.5786761201959
 20
-223.8095653646456
 30
0.0
 11
241.370308000196
 21
-223.8095645898454
 31
0.0
  0
LINE
  5
23F
330
4C
100
AcDbEntity
  8
0
  6
Continuous
 62
     7
100
AcDbLine
 10
241.370308000196
 20
-376.3095681662455
 30
0.0
 11
241.5786761201959
 21
-376.3095653646456
 31
0.0
  0
LINE
  5
240
330
4C
100
AcDbEntity
  8
0
  6
Continuous
 62
     7
100
AcDbLine
 10
248.5629896035959
 20
-404.8095653646456
 30
0.0
 11
253.0786761201959
 21
-404.8095653646456
 31
0.0
  0
LINE
  5
241
330
4C
100
AcDbEntity
  8
0
  6
Continuous
 62
     7
100
AcDbLine
 10
253.0786761201959
 20
-194.3095653646456
 30
0.0
 11
248.5629896035959
 21
-194.3095653646456
 31
0.0
  0
LINE
  5
242
330
4C
100
AcDbEntity
  8
0
  6
Continuous
 62
     7
100
AcDbLine
 10
241.370308000196
 20
-372.5595642918454
 30
0.0
 11
243.9103080159959
 21
-372.5595642918454
 31
0.0
  0
LINE
  5
243
330
4C
100
AcDbEntity
  8
0
  6
Continuous
 62
     7
100
AcDbLine
 10
243.9103080159959
 20
-226.5595664376456
 30
0.0
 11
241.370308000196
 21
-226.5595664376456
 31
0.0
  0
LINE
  5
244
330
4C
100
AcDbEntity
  8
0
  6
Continuous
 62
     7
100
AcDbLine
 10
246.429933604196
 20
-385.5595682854455
 30
0.0
 11
243.5786761201959
 21
-385.5595653646456
 31
0.0
  0
LINE
  5
245
330
4C
100
AcDbEntity
  8
0
  6
Continuous
 62
     7
100
AcDbLine
 10
243.5786761201959
 20
-403.0595653646456
 30
0.0
 11
246.578676120298
 21
-403.0595653646476
 31
0.0
  0
LINE
  5
246
330
4C
100
AcDbEntity
  8
0
  6
Continuous
 62
     7
100
AcDbLine
 10
246.578676120298
 20
-196.0595653646435
 30
0.0
 11
243.5786761201959
 21
-196.0595653646456
 31
0.0
  0
LINE
  5
247
330
4C
100
AcDbEntity
  8
0
  6
Continuous
 62
     7
100
AcDbLine
 10
243.5786761201959
 20
-213.5595653646456
 30
0.0
 11
246.429933604196
 21
-213.5595624440455
 31
0.0
  0
LINE
  5
248
330
4C
100
AcDbEntity
  8
0
  6
Continuous
 62
     7
100
AcDbLine
 10
484.5
 20
-354.5595653646456
 30
0.0
 11
490.0
 21
-353.0858448064455
 31
0.0
  0
LINE
  5
249
330
4C
100
AcDbEntity
  8
0
  6
Continuous
 62
     7
100
AcDbLine
 10
490.0
 20
-246.0332859230455
 30
0.0
 11
484.5
 21
-244.5595653646456
 31
0.0
  0
LINE
  5
24A
330
4C
100
AcDbEntity
  8
0
  6
Continuous
 62
     7
100
AcDbLine
 10
431.022712999832
 20
-354.5595650666455
 30
0.0
 11
484.5
 21
-354.5595653646456
 31
0.0
  0
LINE
  5
24B
330
4C
100
AcDbEntity
  8
0
  6
Continuous
 62
     7
100
AcDbLine
 10
484.5
 20
-244.5595653646456
 30
0.0
 11
431.022712999832
 21
-244.5595656628454
 31
0.0
  0
LINE
  5
24C
330
4C
100
AcDbEntity
  8
0
  6
Continuous
 62
     7
100
AcDbLine
 10
243.5786761201959
 20
-375.8095653646456
 30
0.0
 11
243.9103080159959
 21
-375.8095671528454
 31
0.0
  0
LINE
  5
24D
330
4C
100
AcDbEntity
  8
0
  6
Continuous
 62
     7
100
AcDbLine
 10
243.9103080159959
 20
-223.3095635766455
 30
0.0
 11
243.5786761201959
 21
-223.3095653646456
 31
0.0
  0
LINE
  5
24E
330
4C
100
AcDbEntity
  8
0
  6
Continuous
 62
     7
100
AcDbLine
 10
259.978676120196
 20
-204.8095653646456
 30
0.0
 11
259.978676120196
 21
-210.8095653646456
 31
0.0
  0
LINE
  5
24F
330
4C
100
AcDbEntity
  8
0
  6
Continuous
 62
     7
100
AcDbLine
 10
259.978676120196
 20
-198.8095653646456
 30
0.0
 11
259.978676120196
 21
-204.8095653646456
 31
0.0
  0
LINE
  5
250
330
4C
100
AcDbEntity
  8
0
  6
Continuous
 62
     7
100
AcDbLine
 10
259.7610575811959
 20
-198.8095660800454
 30
0.0
 11
259.7610575811621
 21
-204.3095623249715
 31
0.0
  0
LINE
  5
251
330
4C
100
AcDbEntity
  8
0
  6
Continuous
 62
     7
100
AcDbLine
 10
259.761057581306
 20
-198.3095650668055
 30
0.0
 11
259.816114577996
 21
-198.3095650666455
 31
0.0
  0
LINE
  5
252
330
4C
100
AcDbEntity
  8
0
  6
Continuous
 62
     7
100
AcDbLine
 10
259.7610575811621
 20
-205.3095643515195
 30
0.0
 11
259.7610575811959
 21
-210.8095680470456
 31
0.0
  0
LINE
  5
253
330
4C
100
AcDbEntity
  8
0
  6
Continuous
 62
     7
100
AcDbLine
 10
254.278675905796
 20
-198.3095650666455
 30
0.0
 11
259.761057581306
 21
-198.3095650668055
 31
0.0
  0
LINE
  5
254
330
4C
100
AcDbEntity
  8
0
  6
Continuous
 62
     7
100
AcDbLine
 10
259.978676120196
 20
-394.3095653646456
 30
0.0
 11
259.978676120196
 21
-400.3095653646456
 31
0.0
  0
LINE
  5
255
330
4C
100
AcDbEntity
  8
0
  6
Continuous
 62
     7
100
AcDbLine
 10
259.978676120196
 20
-388.3095653646456
 30
0.0
 11
259.978676120196
 21
-394.3095653646456
 31
0.0
  0
LINE
  5
256
330
4C
100
AcDbEntity
  8
0
  6
Continuous
 62
     7
100
AcDbLine
 10
259.7610575811959
 20
-388.3095626824454
 30
0.0
 11
259.76105758116
 21
-393.8095663779695
 31
0.0
  0
LINE
  5
257
330
4C
100
AcDbEntity
  8
0
  6
Continuous
 62
     7
100
AcDbLine
 10
259.7610575811959
 20
-400.8095656628454
 30
0.0
 11
259.816114577996
 21
-400.8095656628454
 31
0.0
  0
LINE
  5
258
330
4C
100
AcDbEntity
  8
0
  6
Continuous
 62
     7
100
AcDbLine
 10
259.76105758116
 20
-394.8095684045215
 30
0.0
 11
259.7610575813001
 21
-400.3095646494055
 31
0.0
  0
LINE
  5
259
330
4C
100
AcDbEntity
  8
0
  6
Continuous
 62
     7
100
AcDbLine
 10
259.7610575811959
 20
-400.8095656628454
 30
0.0
 11
254.278675905796
 21
-400.8095656628454
 31
0.0
  0
LINE
  5
25A
330
4C
100
AcDbEntity
  8
0
  6
Continuous
 62
     7
100
AcDbLine
 10
301.2587095636
 20
-398.0595638150455
 30
0.0
 11
302.0801658766519
 21
-398.0595638149214
 31
0.0
  0
LINE
  5
25B
330
4C
100
AcDbEntity
  8
0
  6
Continuous
 62
     7
100
AcDbLine
 10
282.8727963406819
 20
-379.6736543172615
 30
0.0
 11
282.8727963406
 21
-378.8521980042456
 31
0.0
  0
LINE
  5
25C
330
4C
100
AcDbEntity
  8
0
  6
Continuous
 62
     7
100
AcDbLine
 10
282.8727963405
 20
-417.2669370765375
 30
0.0
 11
282.8727963406479
 21
-416.4454733126474
 31
0.0
  0
LINE
  5
25D
330
4C
100
AcDbEntity
  8
0
  6
Continuous
 62
     7
100
AcDbLine
 10
263.6654249417999
 20
-398.0595638150455
 30
0.0
 11
264.4868831176
 21
-398.0595638150455
 31
0.0
  0
LINE
  5
25E
330
4C
100
AcDbEntity
  8
0
  6
Continuous
 62
     7
100
AcDbLine
 10
282.8727963405
 20
-417.2669370765375
 30
0.0
 11
282.872796340598
 21
-418.5595681066175
 31
0.0
  0
LINE
  5
25F
330
4C
100
AcDbEntity
  8
0
  6
Continuous
 62
     7
100
AcDbLine
 10
302.0801658766519
 20
-398.0595638149214
 30
0.0
 11
303.3727969068
 21
-398.0595638150455
 31
0.0
  0
LINE
  5
260
330
4C
100
AcDbEntity
  8
0
  6
Continuous
 62
     7
100
AcDbLine
 10
282.8727963406
 20
-378.8521980042456
 30
0.0
 11
282.8727963405599
 21
-377.5595669740574
 31
0.0
  0
LINE
  5
261
330
4C
100
AcDbEntity
  8
0
  6
Continuous
 62
     7
100
AcDbLine
 10
263.6654249417999
 20
-398.0595638150455
 30
0.0
 11
262.3727957744
 21
-398.0595638150455
 31
0.0
  0
LINE
  5
262
330
4C
100
AcDbEntity
  8
0
  6
Continuous
 62
     7
100
AcDbLine
 10
409.258712365
 20
-201.0595669144454
 30
0.0
 11
410.0801686782139
 21
-201.0595669145534
 31
0.0
  0
LINE
  5
263
330
4C
100
AcDbEntity
  8
0
  6
Continuous
 62
     7
100
AcDbLine
 10
390.872795416812
 20
-182.6736574167815
 30
0.0
 11
390.8727954167999
 21
-181.8521936530456
 31
0.0
  0
LINE
  5
264
330
4C
100
AcDbEntity
  8
0
  6
Continuous
 62
     7
100
AcDbLine
 10
390.8727954167119
 20
-220.2669327254096
 30
0.0
 11
390.872795416706
 21
-219.4454764121815
 31
0.0
  0
LINE
  5
265
330
4C
100
AcDbEntity
  8
0
  6
Continuous
 62
     7
100
AcDbLine
 10
371.6654221552921
 20
-201.0595669144955
 30
0.0
 11
372.4868784684001
 21
-201.0595669144454
 31
0.0
  0
LINE
  5
266
330
4C
100
AcDbEntity
  8
0
  6
Continuous
 62
     7
100
AcDbLine
 10
390.8727954167119
 20
-220.2669327254096
 30
0.0
 11
390.872795416638
 21
-221.5595637554116
 31
0.0
  0
LINE
  5
267
330
4C
100
AcDbEntity
  8
0
  6
Continuous
 62
     7
100
AcDbLine
 10
410.0801686782139
 20
-201.0595669145534
 30
0.0
 11
411.3727997082
 21
-201.0595669144454
 31
0.0
  0
LINE
  5
268
330
4C
100
AcDbEntity
  8
0
  6
Continuous
 62
     7
100
AcDbLine
 10
390.8727954167999
 20
-181.8521936530456
 30
0.0
 11
390.872795416754
 21
-180.5595626229494
 31
0.0
  0
LINE
  5
269
330
4C
100
AcDbEntity
  8
0
  6
Continuous
 62
     7
100
AcDbLine
 10
371.6654221552921
 20
-201.0595669144955
 30
0.0
 11
370.372798575742
 21
-201.0595669144915
 31
0.0
  0
LINE
  5
26A
330
4C
100
AcDbEntity
  8
0
  6
Continuous
 62
     7
100
AcDbLine
 10
301.2587095636
 20
-201.0595669144454
 30
0.0
 11
302.080165876748
 21
-201.0595669144815
 31
0.0
  0
LINE
  5
26B
330
4C
100
AcDbEntity
  8
0
  6
Continuous
 62
     7
100
AcDbLine
 10
282.8727963405339
 20
-182.6736574166234
 30
0.0
 11
282.8727963406
 21
-181.8521936530456
 31
0.0
  0
LINE
  5
26C
330
4C
100
AcDbEntity
  8
0
  6
Continuous
 62
     7
100
AcDbLine
 10
282.872796340608
 20
-220.2669327254275
 30
0.0
 11
282.87279634061
 21
-219.4454764122374
 31
0.0
  0
LINE
  5
26D
330
4C
100
AcDbEntity
  8
0
  6
Continuous
 62
     7
100
AcDbLine
 10
263.6654249417999
 20
-201.0595669144454
 30
0.0
 11
264.4868831176
 21
-201.0595669144454
 31
0.0
  0
LINE
  5
26E
330
4C
100
AcDbEntity
  8
0
  6
Continuous
 62
     7
100
AcDbLine
 10
282.872796340608
 20
-220.2669327254275
 30
0.0
 11
282.8727963406399
 21
-221.5595637554335
 31
0.0
  0
LINE
  5
26F
330
4C
100
AcDbEntity
  8
0
  6
Continuous
 62
     7
100
AcDbLine
 10
302.080165876748
 20
-201.0595669144815
 30
0.0
 11
303.3727969068
 21
-201.0595669144454
 31
0.0
  0
LINE
  5
270
330
4C
100
AcDbEntity
  8
0
  6
Continuous
 62
     7
100
AcDbLine
 10
282.8727963406
 20
-181.8521936530456
 30
0.0
 11
282.8727963406019
 21
-180.5595626228735
 31
0.0
  0
LINE
  5
271
330
4C
100
AcDbEntity
  8
0
  6
Continuous
 62
     7
100
AcDbLine
 10
263.6654249417999
 20
-201.0595669144454
 30
0.0
 11
262.3727957744
 21
-201.0595669144454
 31
0.0
  0
LINE
  5
272
330
4C
100
AcDbEntity
  8
0
  6
Continuous
 62
     7
100
AcDbLine
 10
201.215025305882
 20
-220.7669337386355
 30
0.0
 11
201.2150253058
 21
-219.9454699748455
 31
0.0
  0
LINE
  5
273
330
4C
100
AcDbEntity
  8
0
  6
Continuous
 62
     7
100
AcDbLine
 10
219.6009385288
 20
-201.5595679276455
 30
0.0
 11
220.4223967046
 21
-201.5595679276455
 31
0.0
  0
LINE
  5
274
330
4C
100
AcDbEntity
  8
0
  6
Continuous
 62
     7
100
AcDbLine
 10
201.215025305792
 20
-183.1736584299335
 30
0.0
 11
201.2150253058
 21
-182.3521946662455
 31
0.0
  0
LINE
  5
275
330
4C
100
AcDbEntity
  8
0
  6
Continuous
 62
     7
100
AcDbLine
 10
182.0076557696
 20
-201.5595679276455
 30
0.0
 11
182.8291120828
 21
-201.5595679276455
 31
0.0
  0
LINE
  5
276
330
4C
100
AcDbEntity
  8
0
  6
Continuous
 62
     7
100
AcDbLine
 10
201.215025305882
 20
-220.7669337386355
 30
0.0
 11
201.21502530584
 21
-222.0595647686215
 31
0.0
  0
LINE
  5
277
330
4C
100
AcDbEntity
  8
0
  6
Continuous
 62
     7
100
AcDbLine
 10
220.4223967046
 20
-201.5595679276455
 30
0.0
 11
221.715025872
 21
-201.5595679276455
 31
0.0
  0
LINE
  5
278
330
4C
100
AcDbEntity
  8
0
  6
Continuous
 62
     7
100
AcDbLine
 10
201.2150253058
 20
-182.3521946662455
 30
0.0
 11
201.215025305784
 21
-181.0595636362116
 31
0.0
  0
LINE
  5
279
330
4C
100
AcDbEntity
  8
0
  6
Continuous
 62
     7
100
AcDbLine
 10
182.0076557696
 20
-201.5595679276455
 30
0.0
 11
180.7150247396
 21
-201.5595679276455
 31
0.0
  0
LINE
  5
27A
330
4C
100
AcDbEntity
  8
0
  6
Continuous
 62
     7
100
AcDbLine
 10
201.215025305882
 20
-417.7669380898356
 30
0.0
 11
201.2150253058
 21
-416.9454743260455
 31
0.0
  0
LINE
  5
27B
330
4C
100
AcDbEntity
  8
0
  6
Continuous
 62
     7
100
AcDbLine
 10
219.6009385288
 20
-398.5595648282456
 30
0.0
 11
220.4223967046
 21
-398.5595648282456
 31
0.0
  0
LINE
  5
27C
330
4C
100
AcDbEntity
  8
0
  6
Continuous
 62
     7
100
AcDbLine
 10
201.215025305876
 20
-380.1736553306414
 30
0.0
 11
201.2150253058
 21
-379.3521915668455
 31
0.0
  0
LINE
  5
27D
330
4C
100
AcDbEntity
  8
0
  6
Continuous
 62
     7
100
AcDbLine
 10
182.007655769718
 20
-398.5595648283654
 30
0.0
 11
182.8291120828
 21
-398.5595648282456
 31
0.0
  0
LINE
  5
27E
330
4C
100
AcDbEntity
  8
0
  6
Continuous
 62
     7
100
AcDbLine
 10
201.215025305882
 20
-417.7669380898356
 30
0.0
 11
201.2150253059
 21
-419.0595616692615
 31
0.0
  0
LINE
  5
27F
330
4C
100
AcDbEntity
  8
0
  6
Continuous
 62
     7
100
AcDbLine
 10
220.4223967046
 20
-398.5595648282456
 30
0.0
 11
221.715025872
 21
-398.5595648282456
 31
0.0
  0
LINE
  5
280
330
4C
100
AcDbEntity
  8
0
  6
Continuous
 62
     7
100
AcDbLine
 10
201.2150253058
 20
-379.3521915668455
 30
0.0
 11
201.215025305838
 21
-378.0595679873995
 31
0.0
  0
LINE
  5
281
330
4C
100
AcDbEntity
  8
0
  6
Continuous
 62
     7
100
AcDbLine
 10
182.007655769718
 20
-398.5595648283654
 30
0.0
 11
180.7150247396
 21
-398.5595648282456
 31
0.0
  0
LINE
  5
282
330
4C
100
AcDbEntity
  8
0
  6
Continuous
 62
     7
100
AcDbLine
 10
93.22038377912395
 20
-417.7669380897735
 30
0.0
 11
93.22038377919995
 21
-416.9454743260455
 31
0.0
  0
LINE
  5
283
330
4C
100
AcDbEntity
  8
0
  6
Continuous
 62
     7
100
AcDbLine
 10
111.6063007275419
 20
-398.5595648283754
 30
0.0
 11
112.4277570405999
 21
-398.5595648282456
 31
0.0
  0
LINE
  5
284
330
4C
100
AcDbEntity
  8
0
  6
Continuous
 62
     7
100
AcDbLine
 10
93.22038377917994
 20
-380.1736553306434
 30
0.0
 11
93.22038377919995
 21
-379.3521915668455
 31
0.0
  0
LINE
  5
285
330
4C
100
AcDbEntity
  8
0
  6
Continuous
 62
     7
100
AcDbLine
 10
74.01302541889794
 20
-398.5595648282715
 30
0.0
 11
74.83448173193989
 21
-398.5595648282356
 31
0.0
  0
LINE
  5
286
330
4C
100
AcDbEntity
  8
0
  6
Continuous
 62
     7
100
AcDbLine
 10
93.22038377912395
 20
-417.7669380897735
 30
0.0
 11
93.22038377918193
 21
-419.0595616692915
 31
0.0
  0
LINE
  5
287
330
4C
100
AcDbEntity
  8
0
  6
Continuous
 62
     7
100
AcDbLine
 10
93.22038377919995
 20
-379.3521915668455
 30
0.0
 11
93.22038377910394
 21
-378.0595679872695
 31
0.0
  0
LINE
  5
288
330
4C
100
AcDbEntity
  8
0
  6
Continuous
 62
     7
100
AcDbLine
 10
112.4277570405999
 20
-398.5595648282456
 30
0.0
 11
113.7203880705999
 21
-398.5595648282456
 31
0.0
  0
LINE
  5
289
330
4C
100
AcDbEntity
  8
0
  6
Continuous
 62
     7
100
AcDbLine
 10
74.01302541889794
 20
-398.5595648282715
 30
0.0
 11
72.72039438879989
 21
-398.5595648282456
 31
0.0
  0
LINE
  5
28A
330
4C
100
AcDbEntity
  8
0
  6
Continuous
 62
     7
100
AcDbLine
 10
390.8727954168159
 20
-417.2669370765416
 30
0.0
 11
390.872795416734
 21
-416.4454733128055
 31
0.0
  0
LINE
  5
28B
330
4C
100
AcDbEntity
  8
0
  6
Continuous
 62
     7
100
AcDbLine
 10
409.258712365
 20
-398.0595638150455
 30
0.0
 11
410.0801686782
 21
-398.0595638150455
 31
0.0
  0
LINE
  5
28C
330
4C
100
AcDbEntity
  8
0
  6
Continuous
 62
     7
100
AcDbLine
 10
390.872795416694
 20
-379.6736543173095
 30
0.0
 11
390.8727954167999
 21
-378.8521980042456
 31
0.0
  0
LINE
  5
28D
330
4C
100
AcDbEntity
  8
0
  6
Continuous
 62
     7
100
AcDbLine
 10
371.6654221551879
 20
-398.0595638149375
 30
0.0
 11
372.4868784684001
 21
-398.0595638150455
 31
0.0
  0
LINE
  5
28E
330
4C
100
AcDbEntity
  8
0
  6
Continuous
 62
     7
100
AcDbLine
 10
390.8727954168159
 20
-417.2669370765416
 30
0.0
 11
390.8727954167279
 21
-418.5595681066036
 31
0.0
  0
LINE
  5
28F
330
4C
100
AcDbEntity
  8
0
  6
Continuous
 62
     7
100
AcDbLine
 10
410.0801686782
 20
-398.0595638150455
 30
0.0
 11
411.3727997082
 21
-398.0595638150455
 31
0.0
  0
LINE
  5
290
330
4C
100
AcDbEntity
  8
0
  6
Continuous
 62
     7
100
AcDbLine
 10
390.8727954167999
 20
-378.8521980042456
 30
0.0
 11
390.8727954166681
 21
-377.5595669739694
 31
0.0
  0
LINE
  5
291
330
4C
100
AcDbEntity
  8
0
  6
Continuous
 62
     7
100
AcDbLine
 10
371.6654221551879
 20
-398.0595638149375
 30
0.0
 11
370.372798575814
 21
-398.0595638149234
 31
0.0
  0
LINE
  5
292
330
4C
100
AcDbEntity
  8
0
  6
Continuous
 62
     7
100
AcDbLine
 10
111.606300727534
 20
-201.5595679277415
 30
0.0
 11
112.427757040686
 21
-201.5595679277594
 31
0.0
  0
LINE
  5
293
330
4C
100
AcDbEntity
  8
0
  6
Continuous
 62
     7
100
AcDbLine
 10
93.22038377911792
 20
-183.1736584299275
 30
0.0
 11
93.22038377919995
 21
-182.3521946662455
 31
0.0
  0
LINE
  5
294
330
4C
100
AcDbEntity
  8
0
  6
Continuous
 62
     7
100
AcDbLine
 10
93.22038377912395
 20
-220.7669337385735
 30
0.0
 11
93.2203837792419
 21
-219.9454699748715
 31
0.0
  0
LINE
  5
295
330
4C
100
AcDbEntity
  8
0
  6
Continuous
 62
     7
100
AcDbLine
 10
74.0130254189259
 20
-201.5595679278355
 30
0.0
 11
74.83448173205193
 21
-201.5595679276435
 31
0.0
  0
LINE
  5
296
330
4C
100
AcDbEntity
  8
0
  6
Continuous
 62
     7
100
AcDbLine
 10
93.22038377912395
 20
-220.7669337385735
 30
0.0
 11
93.22038377909792
 21
-222.0595647686315
 31
0.0
  0
LINE
  5
297
330
4C
100
AcDbEntity
  8
0
  6
Continuous
 62
     7
100
AcDbLine
 10
112.427757040686
 20
-201.5595679277594
 30
0.0
 11
113.7203880705999
 21
-201.5595679276455
 31
0.0
  0
LINE
  5
298
330
4C
100
AcDbEntity
  8
0
  6
Continuous
 62
     7
100
AcDbLine
 10
93.22038377919995
 20
-182.3521946662455
 30
0.0
 11
93.22038377911991
 21
-181.0595636362996
 31
0.0
  0
LINE
  5
299
330
4C
100
AcDbEntity
  8
0
  6
Continuous
 62
     7
100
AcDbLine
 10
74.0130254189259
 20
-201.5595679278355
 30
0.0
 11
72.72039438879989
 21
-201.5595679276455
 31
0.0
  0
LINE
  5
29A
330
4C
100
AcDbEntity
  8
0
  6
Continuous
 62
     7
100
AcDbLine
 10
185.545748563196
 20
-366.7554452134455
 30
0.0
 11
186.156018041196
 21
-366.1451757354455
 31
0.0
  0
LINE
  5
29B
330
4C
100
AcDbEntity
  8
0
  6
Continuous
 62
     7
100
AcDbLine
 10
184.034697697596
 20
-364.0238553920456
 30
0.0
 11
183.42442821961
 21
-364.6341248698595
 31
0.0
  0
LINE
  5
29C
330
4C
100
AcDbEntity
  8
0
  6
Continuous
 62
     7
100
AcDbLine
 10
181.633137021396
 20
-360.3095653646456
 30
0.0
 11
182.496188393748
 21
-360.3095653646515
 31
0.0
  0
LINE
  5
29D
330
4C
100
AcDbEntity
  8
0
  6
Continuous
 62
     7
100
AcDbLine
 10
182.496188393796
 20
-357.3095653646456
 30
0.0
 11
181.633137021396
 21
-357.3095653646456
 31
0.0
  0
LINE
  5
29E
330
4C
100
AcDbEntity
  8
0
  6
Continuous
 62
     7
100
AcDbLine
 10
183.424428219596
 20
-352.9850058596455
 30
0.0
 11
184.034697697608
 21
-353.5952753374254
 31
0.0
  0
LINE
  5
29F
330
4C
100
AcDbEntity
  8
0
  6
Continuous
 62
     7
100
AcDbLine
 10
186.156018041196
 20
-351.4739549940455
 30
0.0
 11
185.545748563182
 21
-350.8636855160594
 31
0.0
  0
LINE
  5
2A0
330
4C
100
AcDbEntity
  8
0
  6
Continuous
 62
     7
100
AcDbLine
 10
189.870308068396
 20
-349.0723943176454
 30
0.0
 11
189.87030806839
 21
-349.9354456899976
 31
0.0
  0
LINE
  5
2A1
330
4C
100
AcDbEntity
  8
0
  6
Continuous
 62
     7
100
AcDbLine
 10
192.870308068396
 20
-349.9354456900455
 30
0.0
 11
192.870308068396
 21
-349.0723943176454
 31
0.0
  0
LINE
  5
2A2
330
4C
100
AcDbEntity
  8
0
  6
Continuous
 62
     7
100
AcDbLine
 10
197.194867573596
 20
-350.8636855160455
 30
0.0
 11
196.584598095616
 21
-351.4739549938554
 31
0.0
  0
LINE
  5
2A3
330
4C
100
AcDbEntity
  8
0
  6
Continuous
 62
     7
100
AcDbLine
 10
198.705918439196
 20
-353.5952753374454
 30
0.0
 11
199.316187917182
 21
-352.9850058596314
 31
0.0
  0
LINE
  5
2A4
330
4C
100
AcDbEntity
  8
0
  6
Continuous
 62
     7
100
AcDbLine
 10
200.244427742996
 20
-360.3095653646456
 30
0.0
 11
201.107479115396
 21
-360.3095653646456
 31
0.0
  0
LINE
  5
2A5
330
4C
100
AcDbEntity
  8
0
  6
Continuous
 62
     7
100
AcDbLine
 10
192.870308068396
 20
-368.5467364118454
 30
0.0
 11
192.870308068402
 21
-367.6836850392936
 31
0.0
  0
LINE
  5
2A6
330
4C
100
AcDbEntity
  8
0
  6
Continuous
 62
     7
100
AcDbLine
 10
189.870308068396
 20
-367.6836850394454
 30
0.0
 11
189.870308068396
 21
-368.5467364118454
 31
0.0
  0
LINE
  5
2A7
330
4C
100
AcDbEntity
  8
0
  6
Continuous
 62
     7
100
AcDbLine
 10
193.120308068396
 20
-366.1025414376454
 30
0.0
 11
193.120308068396
 21
-351.5165892918456
 31
0.0
  0
LINE
  5
2A8
330
4C
100
AcDbEntity
  8
0
  6
Continuous
 62
     7
100
AcDbLine
 10
189.62030806839
 20
-351.5165892917394
 30
0.0
 11
189.620308068396
 21
-366.1025414376454
 31
0.0
  0
LINE
  5
2A9
330
4C
100
AcDbEntity
  8
0
  6
Continuous
 62
     7
100
AcDbLine
 10
201.107479115396
 20
-357.3095653646456
 30
0.0
 11
200.244427743044
 21
-357.3095653646394
 31
0.0
  0
LINE
  5
2AA
330
4C
100
AcDbEntity
  8
0
  6
Continuous
 62
     7
100
AcDbLine
 10
199.316187917182
 20
-364.6341248698595
 30
0.0
 11
198.705918439186
 21
-364.0238553918655
 31
0.0
  0
LINE
  5
2AB
330
4C
100
AcDbEntity
  8
0
  6
Continuous
 62
     7
100
AcDbLine
 10
196.584598095616
 20
-366.1451757354334
 30
0.0
 11
197.194867573596
 21
-366.7554452134455
 31
0.0
  0
LINE
  5
2AC
330
4C
100
AcDbEntity
  8
0
  6
Continuous
 62
     7
100
AcDbLine
 10
240.9295329391959
 20
-379.3742727924455
 30
0.0
 11
237.431665044796
 21
-379.3742727924455
 31
0.0
  0
LINE
  5
2AD
330
4C
100
AcDbEntity
  8
0
  6
Continuous
 62
     7
100
AcDbLine
 10
231.935015496196
 20
-384.8709223410456
 30
0.0
 11
231.935015496196
 21
-388.3687902356455
 31
0.0
  0
LINE
  5
2AE
330
4C
100
AcDbEntity
  8
0
  6
Continuous
 62
     7
100
AcDbLine
 10
240.9295329391959
 20
-220.7448579370455
 30
0.0
 11
240.9295329391959
 21
-379.3742727924455
 31
0.0
  0
LINE
  5
2AF
330
4C
100
AcDbEntity
  8
0
  6
Continuous
 62
     7
100
AcDbLine
 10
237.431665044796
 20
-379.3742727924455
 30
0.0
 11
237.431665044796
 21
-220.7448579370455
 31
0.0
  0
LINE
  5
2B0
330
4C
100
AcDbEntity
  8
0
  6
Continuous
 62
     7
100
AcDbLine
 10
240.9295329391959
 20
-220.7448579370455
 30
0.0
 11
237.431665044796
 21
-220.7448579370455
 31
0.0
  0
LINE
  5
2B1
330
4C
100
AcDbEntity
  8
0
  6
Continuous
 62
     7
100
AcDbLine
 10
231.935015496196
 20
-211.7503404938454
 30
0.0
 11
231.935015496196
 21
-215.2482083884455
 31
0.0
  0
LINE
  5
2B2
330
4C
100
AcDbEntity
  8
0
  6
Continuous
 62
     7
100
AcDbLine
 10
231.935015496196
 20
-388.3687902356455
 30
0.0
 11
213.7150260000001
 21
-388.3687902356455
 31
0.0
  0
LINE
  5
2B3
330
4C
100
AcDbEntity
  8
0
  6
Continuous
 62
     7
100
AcDbLine
 10
210.7150260000001
 20
-388.3687902356455
 30
0.0
 11
213.7150260000001
 21
-388.3687902356455
 31
0.0
  0
LINE
  5
2B4
330
4C
100
AcDbEntity
  8
0
  6
Continuous
 62
     7
100
AcDbLine
 10
191.715026
 20
-388.3687902356455
 30
0.0
 11
188.715026
 21
-388.3687902356455
 31
0.0
  0
LINE
  5
2B5
330
4C
100
AcDbEntity
  8
0
  6
Continuous
 62
     7
100
AcDbLine
 10
188.715026
 20
-388.3687902356455
 30
0.0
 11
105.720391
 21
-388.3687902356455
 31
0.0
  0
LINE
  5
2B6
330
4C
100
AcDbEntity
  8
0
  6
Continuous
 62
     7
100
AcDbLine
 10
102.720391
 20
-388.3687902356455
 30
0.0
 11
105.720391
 21
-388.3687902356455
 31
0.0
  0
LINE
  5
2B7
330
4C
100
AcDbEntity
  8
0
  6
Continuous
 62
     7
100
AcDbLine
 10
83.72039099999995
 20
-388.3687902356455
 30
0.0
 11
80.72039099999995
 21
-388.3687902356455
 31
0.0
  0
LINE
  5
2B8
330
4C
100
AcDbEntity
  8
0
  6
Continuous
 62
     7
100
AcDbLine
 10
80.72039099999995
 20
-388.3687902356455
 30
0.0
 11
62.45504069389597
 21
-388.3687902356455
 31
0.0
  0
LINE
  5
2B9
330
4C
100
AcDbEntity
  8
0
  6
Continuous
 62
     7
100
AcDbLine
 10
62.45504069389597
 20
-384.8709223410456
 30
0.0
 11
62.45504069389597
 21
-388.3687902356455
 31
0.0
  0
LINE
  5
2BA
330
4C
100
AcDbEntity
  8
0
  6
Continuous
 62
     7
100
AcDbLine
 10
62.45504069389597
 20
-211.7503404938454
 30
0.0
 11
80.72039099999995
 21
-211.7503404938454
 31
0.0
  0
LINE
  5
2BB
330
4C
100
AcDbEntity
  8
0
  6
Continuous
 62
     7
100
AcDbLine
 10
83.72039099999995
 20
-211.7503404938454
 30
0.0
 11
80.72039099999995
 21
-211.7503404938454
 31
0.0
  0
LINE
  5
2BC
330
4C
100
AcDbEntity
  8
0
  6
Continuous
 62
     7
100
AcDbLine
 10
102.720391
 20
-211.7503404938454
 30
0.0
 11
105.720391
 21
-211.7503404938454
 31
0.0
  0
LINE
  5
2BD
330
4C
100
AcDbEntity
  8
0
  6
Continuous
 62
     7
100
AcDbLine
 10
105.720391
 20
-211.7503404938454
 30
0.0
 11
188.715026
 21
-211.7503404938454
 31
0.0
  0
LINE
  5
2BE
330
4C
100
AcDbEntity
  8
0
  6
Continuous
 62
     7
100
AcDbLine
 10
191.715026
 20
-211.7503404938454
 30
0.0
 11
188.715026
 21
-211.7503404938454
 31
0.0
  0
LINE
  5
2BF
330
4C
100
AcDbEntity
  8
0
  6
Continuous
 62
     7
100
AcDbLine
 10
210.7150260000001
 20
-211.7503404938454
 30
0.0
 11
213.7150260000001
 21
-211.7503404938454
 31
0.0
  0
LINE
  5
2C0
330
4C
100
AcDbEntity
  8
0
  6
Continuous
 62
     7
100
AcDbLine
 10
213.7150260000001
 20
-211.7503404938454
 30
0.0
 11
231.935015496196
 21
-211.7503404938454
 31
0.0
  0
LINE
  5
2C1
330
4C
100
AcDbEntity
  8
0
  6
Continuous
 62
     7
100
AcDbLine
 10
62.45504069389597
 20
-211.7503404938454
 30
0.0
 11
62.45504069389597
 21
-215.2482083884455
 31
0.0
  0
LINE
  5
2C2
330
4C
100
AcDbEntity
  8
0
  6
Continuous
 62
     7
100
AcDbLine
 10
56.95839114509597
 20
-220.7448579370455
 30
0.0
 11
56.95839114509597
 21
-379.3742727924455
 31
0.0
  0
LINE
  5
2C3
330
4C
100
AcDbEntity
  8
0
  6
Continuous
 62
     7
100
AcDbLine
 10
56.95839114509597
 20
-220.7448579370455
 30
0.0
 11
53.46052325069594
 21
-220.7448579370455
 31
0.0
  0
LINE
  5
2C4
330
4C
100
AcDbEntity
  8
0
  6
Continuous
 62
     7
100
AcDbLine
 10
56.95839114509597
 20
-379.3742727924455
 30
0.0
 11
53.46052325069594
 21
-379.3742727924455
 31
0.0
  0
LINE
  5
2C5
330
4C
100
AcDbEntity
  8
0
  6
Continuous
 62
     7
100
AcDbLine
 10
53.46052325069594
 20
-379.3742727924455
 30
0.0
 11
53.46052325069594
 21
-220.7448579370455
 31
0.0
  0
LINE
  5
2C6
330
4C
100
AcDbEntity
  8
0
  6
Continuous
 62
     7
100
AcDbLine
 10
232.375791083426
 20
-388.8095636958774
 30
0.0
 11
231.935015496196
 21
-388.3687902356455
 31
0.0
  0
LINE
  5
2C7
330
4C
100
AcDbEntity
  8
0
  6
Continuous
 62
     7
100
AcDbLine
 10
240.9295329391959
 20
-379.3742727924455
 30
0.0
 11
241.370308
 21
-379.8150514359154
 31
0.0
  0
LINE
  5
2C8
330
4C
100
AcDbEntity
  8
0
  6
Continuous
 62
     7
100
AcDbLine
 10
241.370308
 20
-220.3040813201756
 30
0.0
 11
240.9295329391959
 21
-220.7448579370455
 31
0.0
  0
LINE
  5
2C9
330
4C
100
AcDbEntity
  8
0
  6
Continuous
 62
     7
100
AcDbLine
 10
231.935015496196
 20
-211.7503404938454
 30
0.0
 11
232.375791083426
 21
-211.3095690602136
 31
0.0
  0
LINE
  5
2CA
330
4C
100
AcDbEntity
  8
0
  6
Continuous
 62
     7
100
AcDbLine
 10
62.01426371054595
 20
-211.3095690602995
 30
0.0
 11
62.45504069389597
 21
-211.7503404938454
 31
0.0
  0
LINE
  5
2CB
330
4C
100
AcDbEntity
  8
0
  6
Continuous
 62
     7
100
AcDbLine
 10
53.46052325069594
 20
-220.7448579370455
 30
0.0
 11
53.01974399999995
 21
-220.3040813202636
 31
0.0
  0
LINE
  5
2CC
330
4C
100
AcDbEntity
  8
0
  6
Continuous
 62
     7
100
AcDbLine
 10
53.01974399999995
 20
-379.8150514358274
 30
0.0
 11
53.46052325069594
 21
-379.3742727924455
 31
0.0
  0
LINE
  5
2CD
330
4C
100
AcDbEntity
  8
0
  6
Continuous
 62
     7
100
AcDbLine
 10
62.45504069389597
 20
-388.3687902356455
 30
0.0
 11
62.01426371054595
 21
-388.8095636957914
 31
0.0
  0
LINE
  5
2CE
330
4C
100
AcDbEntity
  8
0
  6
Continuous
 62
     7
100
AcDbLine
 10
241.370308
 20
-379.8150514359154
 30
0.0
 11
241.370308
 21
-220.3040813201756
 31
0.0
  0
LINE
  5
2CF
330
4C
100
AcDbEntity
  8
0
  6
Continuous
 62
     7
100
AcDbLine
 10
220.7150257082001
 20
-388.8095636958456
 30
0.0
 11
232.375791083426
 21
-388.8095636958774
 31
0.0
  0
LINE
  5
2D0
330
4C
100
AcDbEntity
  8
0
  6
Continuous
 62
     7
100
AcDbLine
 10
220.7150257082001
 20
-388.5301967258456
 30
0.0
 11
220.7150257082001
 21
-388.8095636958456
 31
0.0
  0
LINE
  5
2D1
330
4C
100
AcDbEntity
  8
0
  6
Continuous
 62
     7
100
AcDbLine
 10
220.7150257082001
 20
-388.5301967258456
 30
0.0
 11
213.7150245608
 21
-388.5301967258456
 31
0.0
  0
LINE
  5
2D2
330
4C
100
AcDbEntity
  8
0
  6
Continuous
 62
     7
100
AcDbLine
 10
220.7150257082001
 20
-211.5889285796454
 30
0.0
 11
213.7150245608
 21
-211.5889285796454
 31
0.0
  0
LINE
  5
2D3
330
4C
100
AcDbEntity
  8
0
  6
Continuous
 62
     7
100
AcDbLine
 10
220.7150257082001
 20
-211.3095690602455
 30
0.0
 11
220.7150257082001
 21
-211.5889285796454
 31
0.0
  0
LINE
  5
2D4
330
4C
100
AcDbEntity
  8
0
  6
Continuous
 62
     7
100
AcDbLine
 10
232.375791083426
 20
-211.3095690602136
 30
0.0
 11
220.7150257082001
 21
-211.3095690602455
 31
0.0
  0
LINE
  5
2D5
330
4C
100
AcDbEntity
  8
0
  6
Continuous
 62
     7
100
AcDbLine
 10
210.7150260000001
 20
-209.2364402140455
 30
0.0
 11
210.7150260000001
 21
-211.7503404938454
 31
0.0
  0
LINE
  5
2D6
330
4C
100
AcDbEntity
  8
0
  6
Continuous
 62
     7
100
AcDbLine
 10
213.7150260000001
 20
-206.8778677280454
 30
0.0
 11
213.7150260000001
 21
-211.7503404938454
 31
0.0
  0
LINE
  5
2D7
330
4C
100
AcDbEntity
  8
0
  6
Continuous
 62
     7
100
AcDbLine
 10
210.7150260000001
 20
-388.3687902356455
 30
0.0
 11
210.7150260000001
 21
-391.0023304188455
 31
0.0
  0
LINE
  5
2D8
330
4C
100
AcDbEntity
  8
0
  6
Continuous
 62
     7
100
AcDbLine
 10
213.7150260000001
 20
-388.3687902356455
 30
0.0
 11
213.7150260000001
 21
-393.2810236116454
 31
0.0
  0
LINE
  5
2D9
330
4C
100
AcDbEntity
  8
0
  6
Continuous
 62
     7
100
AcDbLine
 10
210.7150259318
 20
-388.5301967258456
 30
0.0
 11
208.3235870004
 21
-388.5301967258456
 31
0.0
  0
LINE
  5
2DA
330
4C
100
AcDbEntity
  8
0
  6
Continuous
 62
     7
100
AcDbLine
 10
194.1040309966
 20
-388.5301967258456
 30
0.0
 11
191.71502468
 21
-388.5301967258456
 31
0.0
  0
LINE
  5
2DB
330
4C
100
AcDbEntity
  8
0
  6
Continuous
 62
     7
100
AcDbLine
 10
210.7150259318
 20
-211.5889285796454
 30
0.0
 11
208.3260196149999
 21
-211.5889285796454
 31
0.0
  0
LINE
  5
2DC
330
4C
100
AcDbEntity
  8
0
  6
Continuous
 62
     7
100
AcDbLine
 10
194.1064636112
 20
-211.5889285796454
 30
0.0
 11
191.71502468
 21
-211.5889285796454
 31
0.0
  0
LINE
  5
2DD
330
4C
100
AcDbEntity
  8
0
  6
Continuous
 62
     7
100
AcDbLine
 10
188.715026051
 20
-388.5301967258456
 30
0.0
 11
181.7150267662
 21
-388.5301967258456
 31
0.0
  0
LINE
  5
2DE
330
4C
100
AcDbEntity
  8
0
  6
Continuous
 62
     7
100
AcDbLine
 10
181.7150267662
 20
-388.8095636958456
 30
0.0
 11
181.7150267662
 21
-388.5301967258456
 31
0.0
  0
LINE
  5
2DF
330
4C
100
AcDbEntity
  8
0
  6
Continuous
 62
     7
100
AcDbLine
 10
112.7203860441999
 20
-388.8095636958456
 30
0.0
 11
181.7150267662
 21
-388.8095636958456
 31
0.0
  0
LINE
  5
2E0
330
4C
100
AcDbEntity
  8
0
  6
Continuous
 62
     7
100
AcDbLine
 10
112.7203860441999
 20
-388.5301967258456
 30
0.0
 11
112.7203860441999
 21
-388.8095636958456
 31
0.0
  0
LINE
  5
2E1
330
4C
100
AcDbEntity
  8
0
  6
Continuous
 62
     7
100
AcDbLine
 10
112.7203860441999
 20
-388.5301967258456
 30
0.0
 11
105.7203867593999
 21
-388.5301967258456
 31
0.0
  0
LINE
  5
2E2
330
4C
100
AcDbEntity
  8
0
  6
Continuous
 62
     7
100
AcDbLine
 10
191.715026
 20
-209.1641398732455
 30
0.0
 11
191.715026
 21
-211.7503404938454
 31
0.0
  0
LINE
  5
2E3
330
4C
100
AcDbEntity
  8
0
  6
Continuous
 62
     7
100
AcDbLine
 10
188.715026
 20
-206.8536610402455
 30
0.0
 11
188.715026
 21
-211.7503404938454
 31
0.0
  0
LINE
  5
2E4
330
4C
100
AcDbEntity
  8
0
  6
Continuous
 62
     7
100
AcDbLine
 10
191.715026
 20
-388.3687902356455
 30
0.0
 11
191.715026
 21
-390.9212739822456
 31
0.0
  0
LINE
  5
2E5
330
4C
100
AcDbEntity
  8
0
  6
Continuous
 62
     7
100
AcDbLine
 10
188.715026
 20
-388.3687902356455
 30
0.0
 11
188.715026
 21
-393.2558732842456
 31
0.0
  0
LINE
  5
2E6
330
4C
100
AcDbEntity
  8
0
  6
Continuous
 62
     7
100
AcDbLine
 10
112.7203860441999
 20
-211.5889285796454
 30
0.0
 11
105.7203867593999
 21
-211.5889285796454
 31
0.0
  0
LINE
  5
2E7
330
4C
100
AcDbEntity
  8
0
  6
Continuous
 62
     7
100
AcDbLine
 10
112.7203860441999
 20
-211.3095690602455
 30
0.0
 11
112.7203860441999
 21
-211.5889285796454
 31
0.0
  0
LINE
  5
2E8
330
4C
100
AcDbEntity
  8
0
  6
Continuous
 62
     7
100
AcDbLine
 10
181.7150267662
 20
-211.3095690602455
 30
0.0
 11
112.7203860441999
 21
-211.3095690602455
 31
0.0
  0
LINE
  5
2E9
330
4C
100
AcDbEntity
  8
0
  6
Continuous
 62
     7
100
AcDbLine
 10
181.7150267662
 20
-211.5889285796454
 30
0.0
 11
181.7150267662
 21
-211.3095690602455
 31
0.0
  0
LINE
  5
2EA
330
4C
100
AcDbEntity
  8
0
  6
Continuous
 62
     7
100
AcDbLine
 10
188.715026051
 20
-211.5889285796454
 30
0.0
 11
181.7150267662
 21
-211.5889285796454
 31
0.0
  0
LINE
  5
2EB
330
4C
100
AcDbEntity
  8
0
  6
Continuous
 62
     7
100
AcDbLine
 10
105.720391
 20
-388.3687902356455
 30
0.0
 11
105.720391
 21
-393.2810236116454
 31
0.0
  0
LINE
  5
2EC
330
4C
100
AcDbEntity
  8
0
  6
Continuous
 62
     7
100
AcDbLine
 10
102.720391
 20
-388.3687902356455
 30
0.0
 11
102.720391
 21
-391.0023304188455
 31
0.0
  0
LINE
  5
2ED
330
4C
100
AcDbEntity
  8
0
  6
Continuous
 62
     7
100
AcDbLine
 10
102.7203955807999
 20
-388.5301967258456
 30
0.0
 11
100.3289529243999
 21
-388.5301967258456
 31
0.0
  0
LINE
  5
2EE
330
4C
100
AcDbEntity
  8
0
  6
Continuous
 62
     7
100
AcDbLine
 10
86.10940064579995
 20
-388.5301967258456
 30
0.0
 11
83.72038687859992
 21
-388.5301967258456
 31
0.0
  0
LINE
  5
2EF
330
4C
100
AcDbEntity
  8
0
  6
Continuous
 62
     7
100
AcDbLine
 10
102.7203955807999
 20
-211.5889285796454
 30
0.0
 11
100.3313818135999
 21
-211.5889285796454
 31
0.0
  0
LINE
  5
2F0
330
4C
100
AcDbEntity
  8
0
  6
Continuous
 62
     7
100
AcDbLine
 10
86.11182953519994
 20
-211.5889285796454
 30
0.0
 11
83.72038687859992
 21
-211.5889285796454
 31
0.0
  0
LINE
  5
2F1
330
4C
100
AcDbEntity
  8
0
  6
Continuous
 62
     7
100
AcDbLine
 10
102.720391
 20
-209.2364402140455
 30
0.0
 11
102.720391
 21
-211.7503404938454
 31
0.0
  0
LINE
  5
2F2
330
4C
100
AcDbEntity
  8
0
  6
Continuous
 62
     7
100
AcDbLine
 10
105.720391
 20
-206.8778677280454
 30
0.0
 11
105.720391
 21
-211.7503404938454
 31
0.0
  0
LINE
  5
2F3
330
4C
100
AcDbEntity
  8
0
  6
Continuous
 62
     7
100
AcDbLine
 10
83.72039099999995
 20
-388.3687902356455
 30
0.0
 11
83.72039099999995
 21
-390.9212739822456
 31
0.0
  0
LINE
  5
2F4
330
4C
100
AcDbEntity
  8
0
  6
Continuous
 62
     7
100
AcDbLine
 10
80.72039099999995
 20
-388.3687902356455
 30
0.0
 11
80.72039099999995
 21
-393.2558732842456
 31
0.0
  0
LINE
  5
2F5
330
4C
100
AcDbEntity
  8
0
  6
Continuous
 62
     7
100
AcDbLine
 10
80.72039569999993
 20
-388.5301967258456
 30
0.0
 11
73.72039641539993
 21
-388.5301967258456
 31
0.0
  0
LINE
  5
2F6
330
4C
100
AcDbEntity
  8
0
  6
Continuous
 62
     7
100
AcDbLine
 10
73.72039641539993
 20
-388.8095636958456
 30
0.0
 11
73.72039641539993
 21
-388.5301967258456
 31
0.0
  0
LINE
  5
2F7
330
4C
100
AcDbEntity
  8
0
  6
Continuous
 62
     7
100
AcDbLine
 10
62.01426371054595
 20
-388.8095636957914
 30
0.0
 11
73.72039641539993
 21
-388.8095636958456
 31
0.0
  0
LINE
  5
2F8
330
4C
100
AcDbEntity
  8
0
  6
Continuous
 62
     7
100
AcDbLine
 10
73.72039641539993
 20
-211.3095690602455
 30
0.0
 11
62.01426371054595
 21
-211.3095690602995
 31
0.0
  0
LINE
  5
2F9
330
4C
100
AcDbEntity
  8
0
  6
Continuous
 62
     7
100
AcDbLine
 10
73.72039641539993
 20
-211.5889285796454
 30
0.0
 11
73.72039641539993
 21
-211.3095690602455
 31
0.0
  0
LINE
  5
2FA
330
4C
100
AcDbEntity
  8
0
  6
Continuous
 62
     7
100
AcDbLine
 10
80.72039569999993
 20
-211.5889285796454
 30
0.0
 11
73.72039641539993
 21
-211.5889285796454
 31
0.0
  0
LINE
  5
2FB
330
4C
100
AcDbEntity
  8
0
  6
Continuous
 62
     7
100
AcDbLine
 10
83.72039099999995
 20
-209.1641398732455
 30
0.0
 11
83.72039099999995
 21
-211.7503404938454
 31
0.0
  0
LINE
  5
2FC
330
4C
100
AcDbEntity
  8
0
  6
Continuous
 62
     7
100
AcDbLine
 10
80.72039099999995
 20
-206.8536610402455
 30
0.0
 11
80.72039099999995
 21
-211.7503404938454
 31
0.0
  0
LINE
  5
2FD
330
4C
100
AcDbEntity
  8
0
  6
Continuous
 62
     7
100
AcDbLine
 10
53.01974399999995
 20
-220.3040813202636
 30
0.0
 11
53.01974399999995
 21
-240.6095662223247
 31
0.0
  0
LINE
  5
2FE
330
4C
100
AcDbEntity
  8
0
  6
Continuous
 62
     7
100
AcDbLine
 10
296.4683277967999
 20
-257.7854340070455
 30
0.0
 11
296.4421427312
 21
-257.7592526668454
 31
0.0
  0
LINE
  5
2FF
330
4C
100
AcDbEntity
  8
0
  6
Continuous
 62
     7
100
AcDbLine
 10
296.642112589206
 20
-257.5592828089195
 30
0.0
 11
296.6682976547999
 21
-257.5854641490455
 31
0.0
  0
LINE
  5
300
330
4C
100
AcDbEntity
  8
0
  6
Continuous
 62
     7
100
AcDbLine
 10
296.2683579388
 20
-259.2857462460455
 30
0.0
 11
296.2421728733999
 21
-259.2595649058455
 31
0.0
  0
LINE
  5
301
330
4C
100
AcDbEntity
  8
0
  6
Continuous
 62
     7
100
AcDbLine
 10
296.4421427312
 20
-259.0595950478455
 30
0.0
 11
296.4683277967999
 21
-259.0857801134455
 31
0.0
  0
LINE
  5
302
330
4C
100
AcDbEntity
  8
0
  6
Continuous
 62
     7
100
AcDbLine
 10
295.2159932317999
 20
-257.5854641490455
 30
0.0
 11
295.242174572
 21
-257.5592828088455
 31
0.0
  0
LINE
  5
303
330
4C
100
AcDbEntity
  8
0
  6
Continuous
 62
     7
100
AcDbLine
 10
295.44214443
 20
-257.7592526668454
 30
0.0
 11
295.4159630897999
 21
-257.7854340070455
 31
0.0
  0
LINE
  5
304
330
4C
100
AcDbEntity
  8
0
  6
Continuous
 62
     7
100
AcDbLine
 10
298.1683267715999
 20
-256.7336355442455
 30
0.0
 11
298.1421454314
 21
-256.7598168844455
 31
0.0
  0
LINE
  5
305
330
4C
100
AcDbEntity
  8
0
  6
Continuous
 62
     7
100
AcDbLine
 10
297.94217557344
 20
-256.5598507518575
 30
0.0
 11
297.9683569135999
 21
-256.5336656862455
 31
0.0
  0
LINE
  5
306
330
4C
100
AcDbEntity
  8
0
  6
Continuous
 62
     7
100
AcDbLine
 10
296.4421427312
 20
-256.3598808938455
 30
0.0
 11
296.4683277967999
 21
-256.3336958282455
 31
0.0
  0
LINE
  5
307
330
4C
100
AcDbEntity
  8
0
  6
Continuous
 62
     7
100
AcDbLine
 10
296.668297654692
 20
-256.5336656862855
 30
0.0
 11
296.6421125891999
 21
-256.5598507518455
 31
0.0
  0
LINE
  5
308
330
4C
100
AcDbEntity
  8
0
  6
Continuous
 62
     7
100
AcDbLine
 10
296.2421728733999
 20
-254.8595649296456
 30
0.0
 11
296.2683579388
 21
-254.8333835894455
 31
0.0
  0
LINE
  5
309
330
4C
100
AcDbEntity
  8
0
  6
Continuous
 62
     7
100
AcDbLine
 10
296.4683277967999
 20
-255.0333534472454
 30
0.0
 11
296.4421427312
 21
-255.0595347876455
 31
0.0
  0
LINE
  5
30A
330
4C
100
AcDbEntity
  8
0
  6
Continuous
 62
     7
100
AcDbLine
 10
295.242174572
 20
-256.5598507518455
 30
0.0
 11
295.2159932317999
 21
-256.5336656862455
 31
0.0
  0
LINE
  5
30B
330
4C
100
AcDbEntity
  8
0
  6
Continuous
 62
     7
100
AcDbLine
 10
295.4159630897999
 20
-256.3336958282455
 30
0.0
 11
295.44214443
 21
-256.3598808938455
 31
0.0
  0
LINE
  5
30C
330
4C
100
AcDbEntity
  8
0
  6
Continuous
 62
     7
100
AcDbLine
 10
295.44214443
 20
-255.0595347876455
 30
0.0
 11
295.4159630897999
 21
-255.0333534472454
 31
0.0
  0
LINE
  5
30D
330
4C
100
AcDbEntity
  8
0
  6
Continuous
 62
     7
100
AcDbLine
 10
295.6159292224419
 20
-254.8333835893935
 30
0.0
 11
295.642114288
 21
-254.8595649296456
 31
0.0
  0
LINE
  5
30E
330
4C
100
AcDbEntity
  8
0
  6
Continuous
 62
     7
100
AcDbLine
 10
295.4159630897999
 20
-259.0857801134455
 30
0.0
 11
295.44214443
 21
-259.0595950478455
 31
0.0
  0
LINE
  5
30F
330
4C
100
AcDbEntity
  8
0
  6
Continuous
 62
     7
100
AcDbLine
 10
295.4159630897999
 20
-259.0857801134455
 30
0.0
 11
295.4159630897999
 21
-257.7854340070455
 31
0.0
  0
LINE
  5
310
330
4C
100
AcDbEntity
  8
0
  6
Continuous
 62
     7
100
AcDbLine
 10
295.44214443
 20
-257.7592526668454
 30
0.0
 11
295.44214443
 21
-259.0595950478455
 31
0.0
  0
LINE
  5
311
330
4C
100
AcDbEntity
  8
0
  6
Continuous
 62
     7
100
AcDbLine
 10
293.9421153131999
 20
-257.5592828088455
 30
0.0
 11
293.9159302475999
 21
-257.5854641490455
 31
0.0
  0
LINE
  5
312
330
4C
100
AcDbEntity
  8
0
  6
Continuous
 62
     7
100
AcDbLine
 10
293.9421153131999
 20
-257.5592828088455
 30
0.0
 11
295.242174572
 21
-257.5592828088455
 31
0.0
  0
LINE
  5
313
330
4C
100
AcDbEntity
  8
0
  6
Continuous
 62
     7
100
AcDbLine
 10
295.2159932317999
 20
-257.5854641490455
 30
0.0
 11
293.9159302475999
 21
-257.5854641490455
 31
0.0
  0
LINE
  5
314
330
4C
100
AcDbEntity
  8
0
  6
Continuous
 62
     7
100
AcDbLine
 10
297.9683569135999
 20
-257.5854641490455
 30
0.0
 11
297.9421755733999
 21
-257.5592828088455
 31
0.0
  0
LINE
  5
315
330
4C
100
AcDbEntity
  8
0
  6
Continuous
 62
     7
100
AcDbLine
 10
298.1421454314
 20
-257.3593129510455
 30
0.0
 11
298.1683267715999
 21
-257.3854942912456
 31
0.0
  0
LINE
  5
316
330
4C
100
AcDbEntity
  8
0
  6
Continuous
 62
     7
100
AcDbLine
 10
295.642114288
 20
-259.2595649058455
 30
0.0
 11
295.6159292223999
 21
-259.2857462460455
 31
0.0
  0
LINE
  5
317
330
4C
100
AcDbEntity
  8
0
  6
Continuous
 62
     7
100
AcDbLine
 10
295.642114288
 20
-259.2595649058455
 30
0.0
 11
296.2421728733999
 21
-259.2595649058455
 31
0.0
  0
LINE
  5
318
330
4C
100
AcDbEntity
  8
0
  6
Continuous
 62
     7
100
AcDbLine
 10
296.2683579388
 20
-259.2857462460455
 30
0.0
 11
295.6159292223999
 21
-259.2857462460455
 31
0.0
  0
LINE
  5
319
330
4C
100
AcDbEntity
  8
0
  6
Continuous
 62
     7
100
AcDbLine
 10
295.6159292224419
 20
-254.8333835893935
 30
0.0
 11
296.2683579388
 21
-254.8333835894455
 31
0.0
  0
LINE
  5
31A
330
4C
100
AcDbEntity
  8
0
  6
Continuous
 62
     7
100
AcDbLine
 10
296.2421728733999
 20
-254.8595649296456
 30
0.0
 11
295.642114288
 21
-254.8595649296456
 31
0.0
  0
LINE
  5
31B
330
4C
100
AcDbEntity
  8
0
  6
Continuous
 62
     7
100
AcDbLine
 10
296.4683277967999
 20
-255.0333534472454
 30
0.0
 11
296.4683277967999
 21
-256.3336958282455
 31
0.0
  0
LINE
  5
31C
330
4C
100
AcDbEntity
  8
0
  6
Continuous
 62
     7
100
AcDbLine
 10
296.4421427312
 20
-256.3598808938455
 30
0.0
 11
296.4421427312
 21
-255.0595347876455
 31
0.0
  0
LINE
  5
31D
330
4C
100
AcDbEntity
  8
0
  6
Continuous
 62
     7
100
AcDbLine
 10
298.1683267715999
 20
-256.7336355442455
 30
0.0
 11
298.1683267715999
 21
-257.3854942912456
 31
0.0
  0
LINE
  5
31E
330
4C
100
AcDbEntity
  8
0
  6
Continuous
 62
     7
100
AcDbLine
 10
298.1421454314
 20
-257.3593129510455
 30
0.0
 11
298.1421454314
 21
-256.7598168844455
 31
0.0
  0
LINE
  5
31F
330
4C
100
AcDbEntity
  8
0
  6
Continuous
 62
     7
100
AcDbLine
 10
296.642112589206
 20
-257.5592828089195
 30
0.0
 11
297.9421755733999
 21
-257.5592828088455
 31
0.0
  0
LINE
  5
320
330
4C
100
AcDbEntity
  8
0
  6
Continuous
 62
     7
100
AcDbLine
 10
297.9683569135999
 20
-257.5854641490455
 30
0.0
 11
296.6682976547999
 21
-257.5854641490455
 31
0.0
  0
LINE
  5
321
330
4C
100
AcDbEntity
  8
0
  6
Continuous
 62
     7
100
AcDbLine
 10
295.44214443
 20
-255.0595347876455
 30
0.0
 11
295.44214443
 21
-256.3598808938455
 31
0.0
  0
LINE
  5
322
330
4C
100
AcDbEntity
  8
0
  6
Continuous
 62
     7
100
AcDbLine
 10
295.4159630897999
 20
-256.3336958282455
 30
0.0
 11
295.4159630897999
 21
-255.0333534472454
 31
0.0
  0
LINE
  5
323
330
4C
100
AcDbEntity
  8
0
  6
Continuous
 62
     7
100
AcDbLine
 10
296.4421427312
 20
-259.0595950478455
 30
0.0
 11
296.4421427312
 21
-257.7592526668454
 31
0.0
  0
LINE
  5
324
330
4C
100
AcDbEntity
  8
0
  6
Continuous
 62
     7
100
AcDbLine
 10
296.4683277967999
 20
-257.7854340070455
 30
0.0
 11
296.4683277967999
 21
-259.0857801134455
 31
0.0
  0
LINE
  5
325
330
4C
100
AcDbEntity
  8
0
  6
Continuous
 62
     7
100
AcDbLine
 10
293.9159302475999
 20
-256.5336656862455
 30
0.0
 11
293.9421153131999
 21
-256.5598507518455
 31
0.0
  0
LINE
  5
326
330
4C
100
AcDbEntity
  8
0
  6
Continuous
 62
     7
100
AcDbLine
 10
293.9159302475999
 20
-256.5336656862455
 30
0.0
 11
295.2159932317999
 21
-256.5336656862455
 31
0.0
  0
LINE
  5
327
330
4C
100
AcDbEntity
  8
0
  6
Continuous
 62
     7
100
AcDbLine
 10
295.242174572
 20
-256.5598507518455
 30
0.0
 11
293.9421153131999
 21
-256.5598507518455
 31
0.0
  0
LINE
  5
328
330
4C
100
AcDbEntity
  8
0
  6
Continuous
 62
     7
100
AcDbLine
 10
296.668297654692
 20
-256.5336656862855
 30
0.0
 11
297.9683569135999
 21
-256.5336656862455
 31
0.0
  0
LINE
  5
329
330
4C
100
AcDbEntity
  8
0
  6
Continuous
 62
     7
100
AcDbLine
 10
293.7159603895999
 20
-257.3854942912456
 30
0.0
 11
293.7159603895999
 21
-256.7336355442455
 31
0.0
  0
LINE
  5
32A
330
4C
100
AcDbEntity
  8
0
  6
Continuous
 62
     7
100
AcDbLine
 10
297.94217557344
 20
-256.5598507518575
 30
0.0
 11
296.6421125891999
 21
-256.5598507518455
 31
0.0
  0
LINE
  5
32B
330
4C
100
AcDbEntity
  8
0
  6
Continuous
 62
     7
100
AcDbLine
 10
293.7421454551999
 20
-256.7598168844455
 30
0.0
 11
293.7159603895999
 21
-256.7336355442455
 31
0.0
  0
LINE
  5
32C
330
4C
100
AcDbEntity
  8
0
  6
Continuous
 62
     7
100
AcDbLine
 10
293.7421454551999
 20
-256.7598168844455
 30
0.0
 11
293.7421454551999
 21
-257.3593129510455
 31
0.0
  0
LINE
  5
32D
330
4C
100
AcDbEntity
  8
0
  6
Continuous
 62
     7
100
AcDbLine
 10
293.7159603895999
 20
-257.3854942912456
 30
0.0
 11
293.7421454551999
 21
-257.3593129510455
 31
0.0
  0
LINE
  5
32E
330
4C
100
AcDbEntity
  8
0
  6
Continuous
 62
     7
100
AcDbLine
 10
296.4683277967999
 20
-342.7854349010454
 30
0.0
 11
296.4421427312
 21
-342.7592498356455
 31
0.0
  0
LINE
  5
32F
330
4C
100
AcDbEntity
  8
0
  6
Continuous
 62
     7
100
AcDbLine
 10
296.642112589262
 20
-342.5592799777755
 30
0.0
 11
296.6682976547999
 21
-342.5854650432455
 31
0.0
  0
LINE
  5
330
330
4C
100
AcDbEntity
  8
0
  6
Continuous
 62
     7
100
AcDbLine
 10
298.1683267715999
 20
-341.7336364382454
 30
0.0
 11
298.1683267715999
 21
-342.3854951852454
 31
0.0
  0
LINE
  5
331
330
4C
100
AcDbEntity
  8
0
  6
Continuous
 62
     7
100
AcDbLine
 10
296.6682976547999
 20
-341.5336665802454
 30
0.0
 11
297.9683569135599
 21
-341.5336665803554
 31
0.0
  0
LINE
  5
332
330
4C
100
AcDbEntity
  8
0
  6
Continuous
 62
     7
100
AcDbLine
 10
296.4683277967999
 20
-340.0333506160455
 30
0.0
 11
296.4683277967999
 21
-341.3336967224454
 31
0.0
  0
LINE
  5
333
330
4C
100
AcDbEntity
  8
0
  6
Continuous
 62
     7
100
AcDbLine
 10
295.6159292223999
 20
-339.8333844834456
 30
0.0
 11
296.2683579388399
 21
-339.8333844834574
 31
0.0
  0
LINE
  5
334
330
4C
100
AcDbEntity
  8
0
  6
Continuous
 62
     7
100
AcDbLine
 10
295.4159630897999
 20
-341.3336967224454
 30
0.0
 11
295.4159630897999
 21
-340.0333506160455
 31
0.0
  0
LINE
  5
335
330
4C
100
AcDbEntity
  8
0
  6
Continuous
 62
     7
100
AcDbLine
 10
293.9159302475999
 20
-341.5336665802454
 30
0.0
 11
295.215993231854
 21
-341.5336665804296
 31
0.0
  0
LINE
  5
336
330
4C
100
AcDbEntity
  8
0
  6
Continuous
 62
     7
100
AcDbLine
 10
293.7159603895999
 20
-342.3854951852454
 30
0.0
 11
293.7159603895999
 21
-341.7336364382454
 31
0.0
  0
LINE
  5
337
330
4C
100
AcDbEntity
  8
0
  6
Continuous
 62
     7
100
AcDbLine
 10
295.2159932317999
 20
-342.5854650432455
 30
0.0
 11
293.91593024764
 21
-342.5854650431354
 31
0.0
  0
LINE
  5
338
330
4C
100
AcDbEntity
  8
0
  6
Continuous
 62
     7
100
AcDbLine
 10
295.4159630897999
 20
-344.0857772820455
 30
0.0
 11
295.4159630897999
 21
-342.7854349010454
 31
0.0
  0
LINE
  5
339
330
4C
100
AcDbEntity
  8
0
  6
Continuous
 62
     7
100
AcDbLine
 10
296.2683579388
 20
-344.2857471400455
 30
0.0
 11
295.6159292224419
 21
-344.2857471400976
 31
0.0
  0
LINE
  5
33A
330
4C
100
AcDbEntity
  8
0
  6
Continuous
 62
     7
100
AcDbLine
 10
296.4683277967999
 20
-342.7854349010454
 30
0.0
 11
296.4683277967999
 21
-344.0857772820455
 31
0.0
  0
LINE
  5
33B
330
4C
100
AcDbEntity
  8
0
  6
Continuous
 62
     7
100
AcDbLine
 10
297.9683569135599
 20
-342.5854650431354
 30
0.0
 11
296.6682976547999
 21
-342.5854650432455
 31
0.0
  0
LINE
  5
33C
330
4C
100
AcDbEntity
  8
0
  6
Continuous
 62
     7
100
AcDbLine
 10
298.1683267715999
 20
-341.7336364382454
 30
0.0
 11
298.1421454314
 21
-341.7598177784455
 31
0.0
  0
LINE
  5
33D
330
4C
100
AcDbEntity
  8
0
  6
Continuous
 62
     7
100
AcDbLine
 10
297.942175573338
 20
-341.5598479205755
 30
0.0
 11
297.9683569135599
 21
-341.5336665803554
 31
0.0
  0
LINE
  5
33E
330
4C
100
AcDbEntity
  8
0
  6
Continuous
 62
     7
100
AcDbLine
 10
296.4421427312
 20
-341.3598780626455
 30
0.0
 11
296.4683277967999
 21
-341.3336967224454
 31
0.0
  0
LINE
  5
33F
330
4C
100
AcDbEntity
  8
0
  6
Continuous
 62
     7
100
AcDbLine
 10
296.6682976547999
 20
-341.5336665802454
 30
0.0
 11
296.6421125891999
 21
-341.5598479206456
 31
0.0
  0
LINE
  5
340
330
4C
100
AcDbEntity
  8
0
  6
Continuous
 62
     7
100
AcDbLine
 10
296.2421728733999
 20
-339.8595658236454
 30
0.0
 11
296.2683579388399
 21
-339.8333844834574
 31
0.0
  0
LINE
  5
341
330
4C
100
AcDbEntity
  8
0
  6
Continuous
 62
     7
100
AcDbLine
 10
296.4683277967999
 20
-340.0333506160455
 30
0.0
 11
296.4421427312
 21
-340.0595356816455
 31
0.0
  0
LINE
  5
342
330
4C
100
AcDbEntity
  8
0
  6
Continuous
 62
     7
100
AcDbLine
 10
295.242174572
 20
-341.5598479206456
 30
0.0
 11
295.215993231854
 21
-341.5336665804296
 31
0.0
  0
LINE
  5
343
330
4C
100
AcDbEntity
  8
0
  6
Continuous
 62
     7
100
AcDbLine
 10
295.4159630897999
 20
-341.3336967224454
 30
0.0
 11
295.44214443
 21
-341.3598780626455
 31
0.0
  0
LINE
  5
344
330
4C
100
AcDbEntity
  8
0
  6
Continuous
 62
     7
100
AcDbLine
 10
295.44214443
 20
-340.0595356816455
 30
0.0
 11
295.4159630897999
 21
-340.0333506160455
 31
0.0
  0
LINE
  5
345
330
4C
100
AcDbEntity
  8
0
  6
Continuous
 62
     7
100
AcDbLine
 10
295.6159292223999
 20
-339.8333844834456
 30
0.0
 11
295.642114288
 21
-339.8595658236454
 31
0.0
  0
LINE
  5
346
330
4C
100
AcDbEntity
  8
0
  6
Continuous
 62
     7
100
AcDbLine
 10
295.4159630897999
 20
-344.0857772820455
 30
0.0
 11
295.44214443
 21
-344.0595959418454
 31
0.0
  0
LINE
  5
347
330
4C
100
AcDbEntity
  8
0
  6
Continuous
 62
     7
100
AcDbLine
 10
295.64211428784
 20
-344.2595657999354
 30
0.0
 11
295.6159292224419
 21
-344.2857471400976
 31
0.0
  0
LINE
  5
348
330
4C
100
AcDbEntity
  8
0
  6
Continuous
 62
     7
100
AcDbLine
 10
297.942175573338
 20
-341.5598479205755
 30
0.0
 11
296.6421125891999
 21
-341.5598479206456
 31
0.0
  0
LINE
  5
349
330
4C
100
AcDbEntity
  8
0
  6
Continuous
 62
     7
100
AcDbLine
 10
296.4421427312
 20
-341.3598780626455
 30
0.0
 11
296.4421427312
 21
-340.0595356816455
 31
0.0
  0
LINE
  5
34A
330
4C
100
AcDbEntity
  8
0
  6
Continuous
 62
     7
100
AcDbLine
 10
298.1421454314
 20
-342.3593138450456
 30
0.0
 11
298.1683267715999
 21
-342.3854951852454
 31
0.0
  0
LINE
  5
34B
330
4C
100
AcDbEntity
  8
0
  6
Continuous
 62
     7
100
AcDbLine
 10
298.1421454314
 20
-342.3593138450456
 30
0.0
 11
298.1421454314
 21
-341.7598177784455
 31
0.0
  0
LINE
  5
34C
330
4C
100
AcDbEntity
  8
0
  6
Continuous
 62
     7
100
AcDbLine
 10
296.2421728733999
 20
-339.8595658236454
 30
0.0
 11
295.642114288
 21
-339.8595658236454
 31
0.0
  0
LINE
  5
34D
330
4C
100
AcDbEntity
  8
0
  6
Continuous
 62
     7
100
AcDbLine
 10
296.642112589262
 20
-342.5592799777755
 30
0.0
 11
297.9421755733999
 21
-342.5592799776455
 31
0.0
  0
LINE
  5
34E
330
4C
100
AcDbEntity
  8
0
  6
Continuous
 62
     7
100
AcDbLine
 10
297.9683569135599
 20
-342.5854650431354
 30
0.0
 11
297.9421755733999
 21
-342.5592799776455
 31
0.0
  0
LINE
  5
34F
330
4C
100
AcDbEntity
  8
0
  6
Continuous
 62
     7
100
AcDbLine
 10
295.44214443
 20
-340.0595356816455
 30
0.0
 11
295.44214443
 21
-341.3598780626455
 31
0.0
  0
LINE
  5
350
330
4C
100
AcDbEntity
  8
0
  6
Continuous
 62
     7
100
AcDbLine
 10
296.4421427312
 20
-344.0595959418454
 30
0.0
 11
296.4683277967999
 21
-344.0857772820455
 31
0.0
  0
LINE
  5
351
330
4C
100
AcDbEntity
  8
0
  6
Continuous
 62
     7
100
AcDbLine
 10
296.4421427312
 20
-344.0595959418454
 30
0.0
 11
296.4421427312
 21
-342.7592498356455
 31
0.0
  0
LINE
  5
352
330
4C
100
AcDbEntity
  8
0
  6
Continuous
 62
     7
100
AcDbLine
 10
295.64211428784
 20
-344.2595657999354
 30
0.0
 11
296.2421728733999
 21
-344.2595657998454
 31
0.0
  0
LINE
  5
353
330
4C
100
AcDbEntity
  8
0
  6
Continuous
 62
     7
100
AcDbLine
 10
296.2683579388
 20
-344.2857471400455
 30
0.0
 11
296.2421728733999
 21
-344.2595657998454
 31
0.0
  0
LINE
  5
354
330
4C
100
AcDbEntity
  8
0
  6
Continuous
 62
     7
100
AcDbLine
 10
295.44214443
 20
-342.7592498356455
 30
0.0
 11
295.4159630897999
 21
-342.7854349010454
 31
0.0
  0
LINE
  5
355
330
4C
100
AcDbEntity
  8
0
  6
Continuous
 62
     7
100
AcDbLine
 10
295.44214443
 20
-342.7592498356455
 30
0.0
 11
295.44214443
 21
-344.0595959418454
 31
0.0
  0
LINE
  5
356
330
4C
100
AcDbEntity
  8
0
  6
Continuous
 62
     7
100
AcDbLine
 10
293.9421153131999
 20
-342.5592799776455
 30
0.0
 11
293.91593024764
 21
-342.5854650431354
 31
0.0
  0
LINE
  5
357
330
4C
100
AcDbEntity
  8
0
  6
Continuous
 62
     7
100
AcDbLine
 10
293.9421153131999
 20
-342.5592799776455
 30
0.0
 11
295.242174572
 21
-342.5592799776455
 31
0.0
  0
LINE
  5
358
330
4C
100
AcDbEntity
  8
0
  6
Continuous
 62
     7
100
AcDbLine
 10
295.2159932317999
 20
-342.5854650432455
 30
0.0
 11
295.242174572
 21
-342.5592799776455
 31
0.0
  0
LINE
  5
359
330
4C
100
AcDbEntity
  8
0
  6
Continuous
 62
     7
100
AcDbLine
 10
293.9159302475999
 20
-341.5336665802454
 30
0.0
 11
293.9421153131999
 21
-341.5598479206456
 31
0.0
  0
LINE
  5
35A
330
4C
100
AcDbEntity
  8
0
  6
Continuous
 62
     7
100
AcDbLine
 10
295.242174572
 20
-341.5598479206456
 30
0.0
 11
293.9421153131999
 21
-341.5598479206456
 31
0.0
  0
LINE
  5
35B
330
4C
100
AcDbEntity
  8
0
  6
Continuous
 62
     7
100
AcDbLine
 10
293.7159603895999
 20
-342.3854951852454
 30
0.0
 11
293.7421454551999
 21
-342.3593138450456
 31
0.0
  0
LINE
  5
35C
330
4C
100
AcDbEntity
  8
0
  6
Continuous
 62
     7
100
AcDbLine
 10
293.7421454551999
 20
-341.7598177784455
 30
0.0
 11
293.7159603895999
 21
-341.7336364382454
 31
0.0
  0
LINE
  5
35D
330
4C
100
AcDbEntity
  8
0
  6
Continuous
 62
     7
100
AcDbLine
 10
293.7421454551999
 20
-341.7598177784455
 30
0.0
 11
293.7421454551999
 21
-342.3593138450456
 31
0.0
  0
LINE
  5
35E
330
4C
100
AcDbEntity
  8
0
  6
Continuous
 62
     7
100
AcDbLine
 10
280.442144
 20
-347.5595653646456
 30
0.0
 11
301.4421454134
 21
-347.5595657820454
 31
0.0
  0
LINE
  5
35F
330
4C
100
AcDbEntity
  8
0
  6
Continuous
 62
     7
100
AcDbLine
 10
303.442144
 20
-349.5595653646456
 30
0.0
 11
280.442144
 21
-349.5595653646456
 31
0.0
  0
LINE
  5
360
330
4C
100
AcDbEntity
  8
0
  6
Continuous
 62
     7
100
AcDbLine
 10
280.442144
 20
-347.5595653646456
 30
0.0
 11
280.442144
 21
-349.5595653646456
 31
0.0
  0
LINE
  5
361
330
4C
100
AcDbEntity
  8
0
  6
Continuous
 62
     7
100
AcDbLine
 10
280.442144
 20
-249.5595653646456
 30
0.0
 11
303.442144
 21
-249.5595653646456
 31
0.0
  0
LINE
  5
362
330
4C
100
AcDbEntity
  8
0
  6
Continuous
 62
     7
100
AcDbLine
 10
301.4421454134
 20
-251.5595649474456
 30
0.0
 11
280.442144
 21
-251.5595653646456
 31
0.0
  0
LINE
  5
363
330
4C
100
AcDbEntity
  8
0
  6
Continuous
 62
     7
100
AcDbLine
 10
280.442144
 20
-249.5595653646456
 30
0.0
 11
280.442144
 21
-251.5595653646456
 31
0.0
  0
LINE
  5
364
330
4C
100
AcDbEntity
  8
0
  6
Continuous
 62
     7
100
AcDbLine
 10
301.4421454134
 20
-347.5595657820454
 30
0.0
 11
301.4421454134
 21
-251.5595649474456
 31
0.0
  0
LINE
  5
365
330
4C
100
AcDbEntity
  8
0
  6
Continuous
 62
     7
100
AcDbLine
 10
303.442144
 20
-249.5595653646456
 30
0.0
 11
303.442144
 21
-349.5595653646456
 31
0.0
  0
LINE
  5
366
330
4C
100
AcDbEntity
  8
0
  6
Continuous
 62
     7
100
AcDbLine
 10
280.442144
 20
-251.5595653646456
 30
0.0
 11
280.442144
 21
-347.5595653646456
 31
0.0
  0
LINE
  5
367
330
4C
100
AcDbEntity
  8
0
  6
Continuous
 62
     7
100
AcDbLine
 10
280.442144
 20
-347.5595653646456
 30
0.0
 11
278.442144
 21
-347.5595653646456
 31
0.0
  0
LINE
  5
368
330
4C
100
AcDbEntity
  8
0
  6
Continuous
 62
     7
100
AcDbLine
 10
278.442144
 20
-347.5595653646456
 30
0.0
 11
278.442144
 21
-251.5595653646456
 31
0.0
  0
LINE
  5
369
330
4C
100
AcDbEntity
  8
0
  6
Continuous
 62
     7
100
AcDbLine
 10
278.442144
 20
-251.5595653646456
 30
0.0
 11
280.442144
 21
-251.5595653646456
 31
0.0
  0
LINE
  5
36A
330
4C
100
AcDbEntity
  8
0
  6
Continuous
 62
     7
100
AcDbLine
 10
305.6088106665999
 20
-339.5595653646456
 30
0.0
 11
305.6088106665999
 21
-349.5595653646456
 31
0.0
  0
LINE
  5
36B
330
4C
100
AcDbEntity
  8
0
  6
Continuous
 62
     7
100
AcDbLine
 10
303.442144
 20
-339.5595653646456
 30
0.0
 11
305.6088106665999
 21
-339.5595653646456
 31
0.0
  0
LINE
  5
36C
330
4C
100
AcDbEntity
  8
0
  6
Continuous
 62
     7
100
AcDbLine
 10
305.6088106665999
 20
-349.5595653646456
 30
0.0
 11
303.442144
 21
-349.5595653646456
 31
0.0
  0
LINE
  5
36D
330
4C
100
AcDbEntity
  8
0
  6
Continuous
 62
     7
100
AcDbLine
 10
305.6088106665999
 20
-249.5595653646456
 30
0.0
 11
305.6088106665999
 21
-259.5595653646456
 31
0.0
  0
LINE
  5
36E
330
4C
100
AcDbEntity
  8
0
  6
Continuous
 62
     7
100
AcDbLine
 10
305.6088106665999
 20
-259.5595653646456
 30
0.0
 11
303.442144
 21
-259.5595653646456
 31
0.0
  0
LINE
  5
36F
330
4C
100
AcDbEntity
  8
0
  6
Continuous
 62
     7
100
AcDbLine
 10
303.442144
 20
-249.5595653646456
 30
0.0
 11
305.6088106665999
 21
-249.5595653646456
 31
0.0
  0
LINE
  5
370
330
4C
100
AcDbEntity
  8
0
  6
Continuous
 62
     7
100
AcDbLine
 10
309.942144
 20
-259.5595653646456
 30
0.0
 11
305.6088106665999
 21
-259.5595653646456
 31
0.0
  0
LINE
  5
371
330
4C
100
AcDbEntity
  8
0
  6
Continuous
 62
     7
100
AcDbLine
 10
309.942144
 20
-249.5595653646456
 30
0.0
 11
305.6088106665999
 21
-249.5595653646456
 31
0.0
  0
LINE
  5
372
330
4C
100
AcDbEntity
  8
0
  6
Continuous
 62
     7
100
AcDbLine
 10
309.942144
 20
-339.5595653646456
 30
0.0
 11
305.6088106665999
 21
-339.5595653646456
 31
0.0
  0
LINE
  5
373
330
4C
100
AcDbEntity
  8
0
  6
Continuous
 62
     7
100
AcDbLine
 10
309.942144
 20
-349.5595653646456
 30
0.0
 11
305.6088106665999
 21
-349.5595653646456
 31
0.0
  0
LINE
  5
374
330
4C
100
AcDbEntity
  8
0
  6
Continuous
 62
     7
100
AcDbLine
 10
307.942144
 20
-339.3095653646715
 30
0.0
 11
303.942144
 21
-339.3095653646715
 31
0.0
  0
LINE
  5
375
330
4C
100
AcDbEntity
  8
0
  6
Continuous
 62
     7
100
AcDbLine
 10
303.942144
 20
-259.8095653648215
 30
0.0
 11
307.942144
 21
-259.8095653648195
 31
0.0
  0
LINE
  5
376
330
4C
100
AcDbEntity
  8
0
  6
Continuous
 62
     7
100
AcDbLine
 10
307.9421474101999
 20
-338.6595641368456
 30
0.0
 11
307.9421474101999
 21
-260.4595665926455
 31
0.0
  0
LINE
  5
377
330
4C
100
AcDbEntity
  8
0
  6
Continuous
 62
     7
100
AcDbLine
 10
303.9421430291999
 20
-338.6595641368456
 30
0.0
 11
303.9421430291999
 21
-260.4595665926455
 31
0.0
  0
LINE
  5
378
330
4C
100
AcDbEntity
  8
0
  6
Continuous
 62
     7
100
AcDbLine
 10
303.9421430291999
 20
-260.4595665926455
 30
0.0
 11
303.4421457412
 21
-260.4595665926455
 31
0.0
  0
LINE
  5
379
330
4C
100
AcDbEntity
  8
0
  6
Continuous
 62
     7
100
AcDbLine
 10
303.9421430291999
 20
-338.6595641368456
 30
0.0
 11
303.4421457412
 21
-338.6595641368456
 31
0.0
  0
LINE
  5
37A
330
4C
100
AcDbEntity
  8
0
  6
Continuous
 62
     7
100
AcDbLine
 10
430.5819415534319
 20
-220.2448579370455
 30
0.0
 11
430.5819415534319
 21
-378.8742727924455
 31
0.0
  0
LINE
  5
37B
330
4C
100
AcDbEntity
  8
0
  6
Continuous
 62
     7
100
AcDbLine
 10
430.5819415534319
 20
-378.8742727924455
 30
0.0
 11
427.0840736590321
 21
-378.8742727924455
 31
0.0
  0
LINE
  5
37C
330
4C
100
AcDbEntity
  8
0
  6
Continuous
 62
     7
100
AcDbLine
 10
427.0840736590321
 20
-378.8742727924455
 30
0.0
 11
427.0840736590321
 21
-220.2448579370455
 31
0.0
  0
LINE
  5
37D
330
4C
100
AcDbEntity
  8
0
  6
Continuous
 62
     7
100
AcDbLine
 10
430.5819415534319
 20
-220.2448579370455
 30
0.0
 11
427.0840736590321
 21
-220.2448579370455
 31
0.0
  0
LINE
  5
37E
330
4C
100
AcDbEntity
  8
0
  6
Continuous
 62
     7
100
AcDbLine
 10
421.587424110432
 20
-384.3709223410456
 30
0.0
 11
421.587424110432
 21
-387.8687902356455
 31
0.0
  0
LINE
  5
37F
330
4C
100
AcDbEntity
  8
0
  6
Continuous
 62
     7
100
AcDbLine
 10
421.587424110432
 20
-211.2503404938454
 30
0.0
 11
421.587424110432
 21
-214.7482083884455
 31
0.0
  0
LINE
  5
380
330
4C
100
AcDbEntity
  8
0
  6
Continuous
 62
     7
100
AcDbLine
 10
247.848951091996
 20
-220.2448579370455
 30
0.0
 11
247.848951091996
 21
-378.8742727924455
 31
0.0
  0
LINE
  5
381
330
4C
100
AcDbEntity
  8
0
  6
Continuous
 62
     7
100
AcDbLine
 10
421.587424110432
 20
-387.8687902356455
 30
0.0
 11
403.372796
 21
-387.8687902356455
 31
0.0
  0
LINE
  5
382
330
4C
100
AcDbEntity
  8
0
  6
Continuous
 62
     7
100
AcDbLine
 10
400.372796
 20
-387.8687902356455
 30
0.0
 11
403.372796
 21
-387.8687902356455
 31
0.0
  0
LINE
  5
383
330
4C
100
AcDbEntity
  8
0
  6
Continuous
 62
     7
100
AcDbLine
 10
381.372796
 20
-387.8687902356455
 30
0.0
 11
378.372796
 21
-387.8687902356455
 31
0.0
  0
LINE
  5
384
330
4C
100
AcDbEntity
  8
0
  6
Continuous
 62
     7
100
AcDbLine
 10
378.372796
 20
-387.8687902356455
 30
0.0
 11
295.372796
 21
-387.8687902356455
 31
0.0
  0
LINE
  5
385
330
4C
100
AcDbEntity
  8
0
  6
Continuous
 62
     7
100
AcDbLine
 10
292.372796
 20
-387.8687902356455
 30
0.0
 11
295.372796
 21
-387.8687902356455
 31
0.0
  0
LINE
  5
386
330
4C
100
AcDbEntity
  8
0
  6
Continuous
 62
     7
100
AcDbLine
 10
273.372796
 20
-387.8687902356455
 30
0.0
 11
270.372796
 21
-387.8687902356455
 31
0.0
  0
LINE
  5
387
330
4C
100
AcDbEntity
  8
0
  6
Continuous
 62
     7
100
AcDbLine
 10
270.372796
 20
-387.8687902356455
 30
0.0
 11
253.3456006407959
 21
-387.8687902356455
 31
0.0
  0
LINE
  5
388
330
4C
100
AcDbEntity
  8
0
  6
Continuous
 62
     7
100
AcDbLine
 10
253.3456006407959
 20
-384.3709223410456
 30
0.0
 11
253.3456006407959
 21
-387.8687902356455
 31
0.0
  0
LINE
  5
389
330
4C
100
AcDbEntity
  8
0
  6
Continuous
 62
     7
100
AcDbLine
 10
253.3456006407959
 20
-211.2503404938454
 30
0.0
 11
270.372796
 21
-211.2503404938454
 31
0.0
  0
LINE
  5
38A
330
4C
100
AcDbEntity
  8
0
  6
Continuous
 62
     7
100
AcDbLine
 10
273.372796
 20
-211.2503404938454
 30
0.0
 11
270.372796
 21
-211.2503404938454
 31
0.0
  0
LINE
  5
38B
330
4C
100
AcDbEntity
  8
0
  6
Continuous
 62
     7
100
AcDbLine
 10
292.372796
 20
-211.2503404938454
 30
0.0
 11
295.372796
 21
-211.2503404938454
 31
0.0
  0
LINE
  5
38C
330
4C
100
AcDbEntity
  8
0
  6
Continuous
 62
     7
100
AcDbLine
 10
295.372796
 20
-211.2503404938454
 30
0.0
 11
378.372796
 21
-211.2503404938454
 31
0.0
  0
LINE
  5
38D
330
4C
100
AcDbEntity
  8
0
  6
Continuous
 62
     7
100
AcDbLine
 10
381.372796
 20
-211.2503404938454
 30
0.0
 11
378.372796
 21
-211.2503404938454
 31
0.0
  0
LINE
  5
38E
330
4C
100
AcDbEntity
  8
0
  6
Continuous
 62
     7
100
AcDbLine
 10
400.372796
 20
-211.2503404938454
 30
0.0
 11
403.372796
 21
-211.2503404938454
 31
0.0
  0
LINE
  5
38F
330
4C
100
AcDbEntity
  8
0
  6
Continuous
 62
     7
100
AcDbLine
 10
403.372796
 20
-211.2503404938454
 30
0.0
 11
421.587424110432
 21
-211.2503404938454
 31
0.0
  0
LINE
  5
390
330
4C
100
AcDbEntity
  8
0
  6
Continuous
 62
     7
100
AcDbLine
 10
253.3456006407959
 20
-211.2503404938454
 30
0.0
 11
253.3456006407959
 21
-214.7482083884455
 31
0.0
  0
LINE
  5
391
330
4C
100
AcDbEntity
  8
0
  6
Continuous
 62
     7
100
AcDbLine
 10
247.848951091996
 20
-220.2448579370455
 30
0.0
 11
244.3510831975959
 21
-220.2448579370455
 31
0.0
  0
LINE
  5
392
330
4C
100
AcDbEntity
  8
0
  6
Continuous
 62
     7
100
AcDbLine
 10
247.848951091996
 20
-378.8742727924455
 30
0.0
 11
244.3510831975959
 21
-378.8742727924455
 31
0.0
  0
LINE
  5
393
330
4C
100
AcDbEntity
  8
0
  6
Continuous
 62
     7
100
AcDbLine
 10
244.3510831975959
 20
-378.8742727924455
 30
0.0
 11
244.3510831975959
 21
-220.2448579370455
 31
0.0
  0
LINE
  5
394
330
4C
100
AcDbEntity
  8
0
  6
Continuous
 62
     7
100
AcDbLine
 10
431.022713
 20
-219.8040803074035
 30
0.0
 11
430.5819415534319
 21
-220.2448579370455
 31
0.0
  0
LINE
  5
395
330
4C
100
AcDbEntity
  8
0
  6
Continuous
 62
     7
100
AcDbLine
 10
421.587424110432
 20
-211.2503404938454
 30
0.0
 11
422.0281932894581
 21
-210.8095680470356
 31
0.0
  0
LINE
  5
396
330
4C
100
AcDbEntity
  8
0
  6
Continuous
 62
     7
100
AcDbLine
 10
422.0281932894581
 20
-388.3095626824554
 30
0.0
 11
421.587424110432
 21
-387.8687902356455
 31
0.0
  0
LINE
  5
397
330
4C
100
AcDbEntity
  8
0
  6
Continuous
 62
     7
100
AcDbLine
 10
430.5819415534319
 20
-378.8742727924455
 30
0.0
 11
431.022713
 21
-379.3150504224955
 31
0.0
  0
LINE
  5
398
330
4C
100
AcDbEntity
  8
0
  6
Continuous
 62
     7
100
AcDbLine
 10
252.904825631012
 20
-210.8095680469215
 30
0.0
 11
253.3456006407959
 21
-211.2503404938454
 31
0.0
  0
LINE
  5
399
330
4C
100
AcDbEntity
  8
0
  6
Continuous
 62
     7
100
AcDbLine
 10
244.3510831975959
 20
-220.2448579370455
 30
0.0
 11
243.910308015952
 21
-219.8040803070395
 31
0.0
  0
LINE
  5
39A
330
4C
100
AcDbEntity
  8
0
  6
Continuous
 62
     7
100
AcDbLine
 10
243.910308015952
 20
-379.3150504226094
 30
0.0
 11
244.3510831975959
 21
-378.8742727924455
 31
0.0
  0
LINE
  5
39B
330
4C
100
AcDbEntity
  8
0
  6
Continuous
 62
     7
100
AcDbLine
 10
253.3456006407959
 20
-387.8687902356455
 30
0.0
 11
252.904825631012
 21
-388.3095626825696
 31
0.0
  0
LINE
  5
39C
330
4C
100
AcDbEntity
  8
0
  6
Continuous
 62
     7
100
AcDbLine
 10
431.022713
 20
-379.3150504224955
 30
0.0
 11
431.022713
 21
-219.8040803074035
 31
0.0
  0
LINE
  5
39D
330
4C
100
AcDbEntity
  8
0
  6
Continuous
 62
     7
100
AcDbLine
 10
410.3727976816
 20
-388.3095626824454
 30
0.0
 11
422.0281932894581
 21
-388.3095626824554
 31
0.0
  0
LINE
  5
39E
330
4C
100
AcDbEntity
  8
0
  6
Continuous
 62
     7
100
AcDbLine
 10
410.3727976816
 20
-388.0301957124455
 30
0.0
 11
410.3727976816
 21
-388.3095626824454
 31
0.0
  0
LINE
  5
39F
330
4C
100
AcDbEntity
  8
0
  6
Continuous
 62
     7
100
AcDbLine
 10
410.3727976816
 20
-388.0301957124455
 30
0.0
 11
403.3727983969999
 21
-388.0301957124455
 31
0.0
  0
LINE
  5
3A0
330
4C
100
AcDbEntity
  8
0
  6
Continuous
 62
     7
100
AcDbLine
 10
410.3727976816
 20
-211.0889350170455
 30
0.0
 11
403.3727983969999
 21
-211.0889350170455
 31
0.0
  0
LINE
  5
3A1
330
4C
100
AcDbEntity
  8
0
  6
Continuous
 62
     7
100
AcDbLine
 10
410.3727976816
 20
-210.8095680470456
 30
0.0
 11
410.3727976816
 21
-211.0889350170455
 31
0.0
  0
LINE
  5
3A2
330
4C
100
AcDbEntity
  8
0
  6
Continuous
 62
     7
100
AcDbLine
 10
422.0281932894581
 20
-210.8095680470356
 30
0.0
 11
410.3727976816
 21
-210.8095680470456
 31
0.0
  0
LINE
  5
3A3
330
4C
100
AcDbEntity
  8
0
  6
Continuous
 62
     7
100
AcDbLine
 10
400.372796
 20
-208.7364402140455
 30
0.0
 11
400.372796
 21
-211.2503404938454
 31
0.0
  0
LINE
  5
3A4
330
4C
100
AcDbEntity
  8
0
  6
Continuous
 62
     7
100
AcDbLine
 10
403.372796
 20
-206.3778677280454
 30
0.0
 11
403.372796
 21
-211.2503404938454
 31
0.0
  0
LINE
  5
3A5
330
4C
100
AcDbEntity
  8
0
  6
Continuous
 62
     7
100
AcDbLine
 10
400.372796
 20
-387.8687902356455
 30
0.0
 11
400.372796
 21
-390.5023304188455
 31
0.0
  0
LINE
  5
3A6
330
4C
100
AcDbEntity
  8
0
  6
Continuous
 62
     7
100
AcDbLine
 10
403.372796
 20
-387.8687902356455
 30
0.0
 11
403.372796
 21
-392.7810236116454
 31
0.0
  0
LINE
  5
3A7
330
4C
100
AcDbEntity
  8
0
  6
Continuous
 62
     7
100
AcDbLine
 10
400.3727923171999
 20
-211.0889350170455
 30
0.0
 11
397.9837934511999
 21
-211.0889350170455
 31
0.0
  0
LINE
  5
3A8
330
4C
100
AcDbEntity
  8
0
  6
Continuous
 62
     7
100
AcDbLine
 10
383.7642411726
 20
-211.0889350170455
 30
0.0
 11
381.3727985161999
 21
-211.0889350170455
 31
0.0
  0
LINE
  5
3A9
330
4C
100
AcDbEntity
  8
0
  6
Continuous
 62
     7
100
AcDbLine
 10
400.3727923171999
 20
-388.0301957124455
 30
0.0
 11
397.9813645619998
 21
-388.0301957124455
 31
0.0
  0
LINE
  5
3AA
330
4C
100
AcDbEntity
  8
0
  6
Continuous
 62
     7
100
AcDbLine
 10
383.7617973821999
 20
-388.0301957124455
 30
0.0
 11
381.3727985161999
 21
-388.0301957124455
 31
0.0
  0
LINE
  5
3AB
330
4C
100
AcDbEntity
  8
0
  6
Continuous
 62
     7
100
AcDbLine
 10
378.372796
 20
-206.3536610402455
 30
0.0
 11
378.372796
 21
-211.2503404938454
 31
0.0
  0
LINE
  5
3AC
330
4C
100
AcDbEntity
  8
0
  6
Continuous
 62
     7
100
AcDbLine
 10
381.372796
 20
-208.6641398732455
 30
0.0
 11
381.372796
 21
-211.2503404938454
 31
0.0
  0
LINE
  5
3AD
330
4C
100
AcDbEntity
  8
0
  6
Continuous
 62
     7
100
AcDbLine
 10
378.372796
 20
-387.8687902356455
 30
0.0
 11
378.372796
 21
-392.7558732842456
 31
0.0
  0
LINE
  5
3AE
330
4C
100
AcDbEntity
  8
0
  6
Continuous
 62
     7
100
AcDbLine
 10
381.372796
 20
-387.8687902356455
 30
0.0
 11
381.372796
 21
-390.4212739822456
 31
0.0
  0
LINE
  5
3AF
330
4C
100
AcDbEntity
  8
0
  6
Continuous
 62
     7
100
AcDbLine
 10
378.3727924363999
 20
-388.0301957124455
 30
0.0
 11
371.3727931518
 21
-388.0301957124455
 31
0.0
  0
LINE
  5
3B0
330
4C
100
AcDbEntity
  8
0
  6
Continuous
 62
     7
100
AcDbLine
 10
371.3727931518
 20
-388.3095626824454
 30
0.0
 11
371.3727931518
 21
-388.0301957124455
 31
0.0
  0
LINE
  5
3B1
330
4C
100
AcDbEntity
  8
0
  6
Continuous
 62
     7
100
AcDbLine
 10
302.3727948801999
 20
-388.3095626824454
 30
0.0
 11
371.3727931518
 21
-388.3095626824454
 31
0.0
  0
LINE
  5
3B2
330
4C
100
AcDbEntity
  8
0
  6
Continuous
 62
     7
100
AcDbLine
 10
302.3727948801999
 20
-388.0301957124455
 30
0.0
 11
302.3727948801999
 21
-388.3095626824454
 31
0.0
  0
LINE
  5
3B3
330
4C
100
AcDbEntity
  8
0
  6
Continuous
 62
     7
100
AcDbLine
 10
302.3727948801999
 20
-388.0301957124455
 30
0.0
 11
295.3727955956
 21
-388.0301957124455
 31
0.0
  0
LINE
  5
3B4
330
4C
100
AcDbEntity
  8
0
  6
Continuous
 62
     7
100
AcDbLine
 10
302.3727948801999
 20
-211.0889350170455
 30
0.0
 11
295.3727955956
 21
-211.0889350170455
 31
0.0
  0
LINE
  5
3B5
330
4C
100
AcDbEntity
  8
0
  6
Continuous
 62
     7
100
AcDbLine
 10
302.3727948801999
 20
-210.8095680470456
 30
0.0
 11
302.3727948801999
 21
-211.0889350170455
 31
0.0
  0
LINE
  5
3B6
330
4C
100
AcDbEntity
  8
0
  6
Continuous
 62
     7
100
AcDbLine
 10
371.3727931518
 20
-210.8095680470456
 30
0.0
 11
302.3727948801999
 21
-210.8095680470456
 31
0.0
  0
LINE
  5
3B7
330
4C
100
AcDbEntity
  8
0
  6
Continuous
 62
     7
100
AcDbLine
 10
371.3727931518
 20
-211.0889350170455
 30
0.0
 11
371.3727931518
 21
-210.8095680470456
 31
0.0
  0
LINE
  5
3B8
330
4C
100
AcDbEntity
  8
0
  6
Continuous
 62
     7
100
AcDbLine
 10
378.3727924363999
 20
-211.0889350170455
 30
0.0
 11
371.3727931518
 21
-211.0889350170455
 31
0.0
  0
LINE
  5
3B9
330
4C
100
AcDbEntity
  8
0
  6
Continuous
 62
     7
100
AcDbLine
 10
292.3727969664
 20
-211.0889350170455
 30
0.0
 11
289.9837906498
 21
-211.0889350170455
 31
0.0
  0
LINE
  5
3BA
330
4C
100
AcDbEntity
  8
0
  6
Continuous
 62
     7
100
AcDbLine
 10
275.764234646
 20
-211.0889350170455
 30
0.0
 11
273.3727957148
 21
-211.0889350170455
 31
0.0
  0
LINE
  5
3BB
330
4C
100
AcDbEntity
  8
0
  6
Continuous
 62
     7
100
AcDbLine
 10
292.372796
 20
-208.7364402140455
 30
0.0
 11
292.372796
 21
-211.2503404938454
 31
0.0
  0
LINE
  5
3BC
330
4C
100
AcDbEntity
  8
0
  6
Continuous
 62
     7
100
AcDbLine
 10
295.372796
 20
-206.3778677280454
 30
0.0
 11
295.372796
 21
-211.2503404938454
 31
0.0
  0
LINE
  5
3BD
330
4C
100
AcDbEntity
  8
0
  6
Continuous
 62
     7
100
AcDbLine
 10
292.3727969664
 20
-388.0301957124455
 30
0.0
 11
289.9813580352
 21
-388.0301957124455
 31
0.0
  0
LINE
  5
3BE
330
4C
100
AcDbEntity
  8
0
  6
Continuous
 62
     7
100
AcDbLine
 10
275.7618001687999
 20
-388.0301957124455
 30
0.0
 11
273.3727957148
 21
-388.0301957124455
 31
0.0
  0
LINE
  5
3BF
330
4C
100
AcDbEntity
  8
0
  6
Continuous
 62
     7
100
AcDbLine
 10
292.372796
 20
-387.8687902356455
 30
0.0
 11
292.372796
 21
-390.5023304188455
 31
0.0
  0
LINE
  5
3C0
330
4C
100
AcDbEntity
  8
0
  6
Continuous
 62
     7
100
AcDbLine
 10
295.372796
 20
-387.8687902356455
 30
0.0
 11
295.372796
 21
-392.7810236116454
 31
0.0
  0
LINE
  5
3C1
330
4C
100
AcDbEntity
  8
0
  6
Continuous
 62
     7
100
AcDbLine
 10
273.372796
 20
-387.8687902356455
 30
0.0
 11
273.372796
 21
-390.4212739822456
 31
0.0
  0
LINE
  5
3C2
330
4C
100
AcDbEntity
  8
0
  6
Continuous
 62
     7
100
AcDbLine
 10
270.372796
 20
-387.8687902356455
 30
0.0
 11
270.372796
 21
-392.7558732842456
 31
0.0
  0
LINE
  5
3C3
330
4C
100
AcDbEntity
  8
0
  6
Continuous
 62
     7
100
AcDbLine
 10
270.372796
 20
-206.3536610402455
 30
0.0
 11
270.372796
 21
-211.2503404938454
 31
0.0
  0
LINE
  5
3C4
330
4C
100
AcDbEntity
  8
0
  6
Continuous
 62
     7
100
AcDbLine
 10
273.372796
 20
-208.6641398732455
 30
0.0
 11
273.372796
 21
-211.2503404938454
 31
0.0
  0
LINE
  5
3C5
330
4C
100
AcDbEntity
  8
0
  6
Continuous
 62
     7
100
AcDbLine
 10
270.372795223
 20
-388.0301957124455
 30
0.0
 11
263.3727959381999
 21
-388.0301957124455
 31
0.0
  0
LINE
  5
3C6
330
4C
100
AcDbEntity
  8
0
  6
Continuous
 62
     7
100
AcDbLine
 10
263.3727959381999
 20
-388.3095626824454
 30
0.0
 11
263.3727959381999
 21
-388.0301957124455
 31
0.0
  0
LINE
  5
3C7
330
4C
100
AcDbEntity
  8
0
  6
Continuous
 62
     7
100
AcDbLine
 10
252.904825631012
 20
-388.3095626825696
 30
0.0
 11
263.3727959381999
 21
-388.3095626824454
 31
0.0
  0
LINE
  5
3C8
330
4C
100
AcDbEntity
  8
0
  6
Continuous
 62
     7
100
AcDbLine
 10
263.3727959381999
 20
-210.8095680470456
 30
0.0
 11
252.904825631012
 21
-210.8095680469215
 31
0.0
  0
LINE
  5
3C9
330
4C
100
AcDbEntity
  8
0
  6
Continuous
 62
     7
100
AcDbLine
 10
263.3727959381999
 20
-211.0889350170455
 30
0.0
 11
263.3727959381999
 21
-210.8095680470456
 31
0.0
  0
LINE
  5
3CA
330
4C
100
AcDbEntity
  8
0
  6
Continuous
 62
     7
100
AcDbLine
 10
270.372795223
 20
-211.0889350170455
 30
0.0
 11
263.3727959381999
 21
-211.0889350170455
 31
0.0
  0
LINE
  5
3CB
330
4C
100
AcDbEntity
  8
0
  6
Continuous
 62
     7
100
AcDbLine
 10
243.910308015952
 20
-219.8040803070395
 30
0.0
 11
243.910308015952
 21
-379.3150504226094
 31
0.0
  0
LINE
  5
3CC
330
4C
100
AcDbEntity
  8
0
  6
Continuous
 62
     7
100
AcDbLine
 10
226.0786761201959
 20
-208.9530074066455
 30
0.0
 11
225.5786761201959
 21
-208.6567823756454
 31
0.0
  0
LINE
  5
3CD
330
4C
100
AcDbEntity
  8
0
  6
Continuous
 62
     7
100
AcDbLine
 10
225.5786761201959
 20
-208.6567823756454
 30
0.0
 11
225.5786761201959
 21
-202.6190267450455
 31
0.0
  0
LINE
  5
3CE
330
4C
100
AcDbEntity
  8
0
  6
Continuous
 62
     7
100
AcDbLine
 10
225.5786761201959
 20
-202.6190267450455
 30
0.0
 11
226.0786761201959
 21
-202.3228017140455
 31
0.0
  0
LINE
  5
3CF
330
4C
100
AcDbEntity
  8
0
  6
Continuous
 62
     7
100
AcDbLine
 10
230.478676120196
 20
-202.3228017140455
 30
0.0
 11
226.0786761201959
 21
-202.3228017140455
 31
0.0
  0
LINE
  5
3D0
330
4C
100
AcDbEntity
  8
0
  6
Continuous
 62
     7
100
AcDbLine
 10
226.0786761201959
 20
-208.9530074066455
 30
0.0
 11
230.478676120196
 21
-208.9530074066455
 31
0.0
  0
LINE
  5
3D1
330
4C
100
AcDbEntity
  8
0
  6
Continuous
 62
     7
100
AcDbLine
 10
230.478676120196
 20
-208.9530074066455
 30
0.0
 11
230.478676120196
 21
-202.3228017140455
 31
0.0
  0
LINE
  5
3D2
330
4C
100
AcDbEntity
  8
0
  6
Continuous
 62
     7
100
AcDbLine
 10
226.0786761201959
 20
-201.7924760106455
 30
0.0
 11
225.5786761201959
 21
-201.6106928474455
 31
0.0
  0
LINE
  5
3D3
330
4C
100
AcDbEntity
  8
0
  6
Continuous
 62
     7
100
AcDbLine
 10
226.0786761201959
 20
-201.7924760106455
 30
0.0
 11
226.0786761201959
 21
-202.3228017140455
 31
0.0
  0
LINE
  5
3D4
330
4C
100
AcDbEntity
  8
0
  6
Continuous
 62
     7
100
AcDbLine
 10
225.5786761201959
 20
-202.6190267450455
 30
0.0
 11
225.5786761201959
 21
-201.6106928474455
 31
0.0
  0
LINE
  5
3D5
330
4C
100
AcDbEntity
  8
0
  6
Continuous
 62
     7
100
AcDbLine
 10
226.0786761201959
 20
-201.7924760106455
 30
0.0
 11
230.478676120196
 21
-201.7924760106455
 31
0.0
  0
LINE
  5
3D6
330
4C
100
AcDbEntity
  8
0
  6
Continuous
 62
     7
100
AcDbLine
 10
230.478676120196
 20
-202.3228017140455
 30
0.0
 11
230.478676120196
 21
-201.7924760106455
 31
0.0
  0
LINE
  5
3D7
330
4C
100
AcDbEntity
  8
0
  6
Continuous
 62
     7
100
AcDbLine
 10
225.5786761201959
 20
-197.9055288628455
 30
0.0
 11
226.0786761201959
 21
-197.7237456998455
 31
0.0
  0
LINE
  5
3D8
330
4C
100
AcDbEntity
  8
0
  6
Continuous
 62
     7
100
AcDbLine
 10
230.478676120196
 20
-197.7237456998455
 30
0.0
 11
226.0786761201959
 21
-197.7237456998455
 31
0.0
  0
LINE
  5
3D9
330
4C
100
AcDbEntity
  8
0
  6
Continuous
 62
     7
100
AcDbLine
 10
225.5786761201959
 20
-201.6106928474455
 30
0.0
 11
225.5786761201959
 21
-197.9055288628455
 31
0.0
  0
LINE
  5
3DA
330
4C
100
AcDbEntity
  8
0
  6
Continuous
 62
     7
100
AcDbLine
 10
230.478676120196
 20
-201.7924760106455
 30
0.0
 11
230.478676120196
 21
-197.7237456998455
 31
0.0
  0
LINE
  5
3DB
330
4C
100
AcDbEntity
  8
0
  6
Continuous
 62
     7
100
AcDbLine
 10
225.5786761201959
 20
-209.4967791714455
 30
0.0
 11
226.0786761201959
 21
-209.3834143940455
 31
0.0
  0
LINE
  5
3DC
330
4C
100
AcDbEntity
  8
0
  6
Continuous
 62
     7
100
AcDbLine
 10
226.0786761201959
 20
-208.9530074066455
 30
0.0
 11
226.0786761201959
 21
-209.3834143940455
 31
0.0
  0
LINE
  5
3DD
330
4C
100
AcDbEntity
  8
0
  6
Continuous
 62
     7
100
AcDbLine
 10
225.5786761201959
 20
-209.4967791714455
 30
0.0
 11
225.5786761201959
 21
-208.6567823756454
 31
0.0
  0
LINE
  5
3DE
330
4C
100
AcDbEntity
  8
0
  6
Continuous
 62
     7
100
AcDbLine
 10
230.478676120196
 20
-209.3834143940455
 30
0.0
 11
226.0786761201959
 21
-209.3834143940455
 31
0.0
  0
LINE
  5
3DF
330
4C
100
AcDbEntity
  8
0
  6
Continuous
 62
     7
100
AcDbLine
 10
230.478676120196
 20
-209.3834143940455
 30
0.0
 11
230.478676120196
 21
-208.9530074066455
 31
0.0
  0
LINE
  5
3E0
330
4C
100
AcDbEntity
  8
0
  6
Continuous
 62
     7
100
AcDbLine
 10
225.578675764996
 20
-211.3095690602455
 30
0.0
 11
225.5786761201959
 21
-209.4967791714455
 31
0.0
  0
LINE
  5
3E1
330
4C
100
AcDbEntity
  8
0
  6
Continuous
 62
     7
100
AcDbLine
 10
230.478676754396
 20
-211.3095690602455
 30
0.0
 11
230.478676120196
 21
-209.3834143940455
 31
0.0
  0
LINE
  5
3E2
330
4C
100
AcDbEntity
  8
0
  6
Continuous
 62
     7
100
AcDbLine
 10
226.0786761201959
 20
-197.6520685230455
 30
0.0
 11
225.5786761201959
 21
-197.7654333004455
 31
0.0
  0
LINE
  5
3E3
330
4C
100
AcDbEntity
  8
0
  6
Continuous
 62
     7
100
AcDbLine
 10
226.0786761201959
 20
-197.6520685230455
 30
0.0
 11
226.0786761201959
 21
-197.7237456998455
 31
0.0
  0
LINE
  5
3E4
330
4C
100
AcDbEntity
  8
0
  6
Continuous
 62
     7
100
AcDbLine
 10
225.5786761201959
 20
-197.9055288628455
 30
0.0
 11
225.5786761201959
 21
-197.7654333004455
 31
0.0
  0
LINE
  5
3E5
330
4C
100
AcDbEntity
  8
0
  6
Continuous
 62
     7
100
AcDbLine
 10
226.0786761201959
 20
-197.6520685230455
 30
0.0
 11
230.478676120196
 21
-197.6520685230455
 31
0.0
  0
LINE
  5
3E6
330
4C
100
AcDbEntity
  8
0
  6
Continuous
 62
     7
100
AcDbLine
 10
230.478676120196
 20
-197.7237456998455
 30
0.0
 11
230.478676120196
 21
-197.6520685230455
 31
0.0
  0
LINE
  5
3E7
330
4C
100
AcDbEntity
  8
0
  6
Continuous
 62
     7
100
AcDbLine
 10
226.0786761201959
 20
-398.4530074066454
 30
0.0
 11
225.5786761201959
 21
-398.1567823756454
 31
0.0
  0
LINE
  5
3E8
330
4C
100
AcDbEntity
  8
0
  6
Continuous
 62
     7
100
AcDbLine
 10
225.5786761201959
 20
-398.1567823756454
 30
0.0
 11
225.5786761201959
 21
-392.1190267450454
 31
0.0
  0
LINE
  5
3E9
330
4C
100
AcDbEntity
  8
0
  6
Continuous
 62
     7
100
AcDbLine
 10
225.5786761201959
 20
-392.1190267450454
 30
0.0
 11
226.0786761201959
 21
-391.8228017140455
 31
0.0
  0
LINE
  5
3EA
330
4C
100
AcDbEntity
  8
0
  6
Continuous
 62
     7
100
AcDbLine
 10
230.478676120196
 20
-391.8228017140455
 30
0.0
 11
226.0786761201959
 21
-391.8228017140455
 31
0.0
  0
LINE
  5
3EB
330
4C
100
AcDbEntity
  8
0
  6
Continuous
 62
     7
100
AcDbLine
 10
226.0786761201959
 20
-398.4530074066454
 30
0.0
 11
230.478676120196
 21
-398.4530074066454
 31
0.0
  0
LINE
  5
3EC
330
4C
100
AcDbEntity
  8
0
  6
Continuous
 62
     7
100
AcDbLine
 10
230.478676120196
 20
-398.4530074066454
 30
0.0
 11
230.478676120196
 21
-391.8228017140455
 31
0.0
  0
LINE
  5
3ED
330
4C
100
AcDbEntity
  8
0
  6
Continuous
 62
     7
100
AcDbLine
 10
226.0786761201959
 20
-391.2924760106455
 30
0.0
 11
225.5786761201959
 21
-391.1106928474455
 31
0.0
  0
LINE
  5
3EE
330
4C
100
AcDbEntity
  8
0
  6
Continuous
 62
     7
100
AcDbLine
 10
226.0786761201959
 20
-391.2924760106455
 30
0.0
 11
226.0786761201959
 21
-391.8228017140455
 31
0.0
  0
LINE
  5
3EF
330
4C
100
AcDbEntity
  8
0
  6
Continuous
 62
     7
100
AcDbLine
 10
225.5786761201959
 20
-392.1190267450454
 30
0.0
 11
225.5786761201959
 21
-391.1106928474455
 31
0.0
  0
LINE
  5
3F0
330
4C
100
AcDbEntity
  8
0
  6
Continuous
 62
     7
100
AcDbLine
 10
226.0786761201959
 20
-391.2924760106455
 30
0.0
 11
230.478676120196
 21
-391.2924760106455
 31
0.0
  0
LINE
  5
3F1
330
4C
100
AcDbEntity
  8
0
  6
Continuous
 62
     7
100
AcDbLine
 10
230.478676120196
 20
-391.8228017140455
 30
0.0
 11
230.478676120196
 21
-391.2924760106455
 31
0.0
  0
LINE
  5
3F2
330
4C
100
AcDbEntity
  8
0
  6
Continuous
 62
     7
100
AcDbLine
 10
225.5786761201959
 20
-391.1106928474455
 30
0.0
 11
225.578675764996
 21
-388.8095636958456
 31
0.0
  0
LINE
  5
3F3
330
4C
100
AcDbEntity
  8
0
  6
Continuous
 62
     7
100
AcDbLine
 10
230.478676120196
 20
-391.2924760106455
 30
0.0
 11
230.478676754396
 21
-388.8095636958456
 31
0.0
  0
LINE
  5
3F4
330
4C
100
AcDbEntity
  8
0
  6
Continuous
 62
     7
100
AcDbLine
 10
225.5786761201959
 20
-398.9967791714455
 30
0.0
 11
226.0786761201959
 21
-398.8834143940455
 31
0.0
  0
LINE
  5
3F5
330
4C
100
AcDbEntity
  8
0
  6
Continuous
 62
     7
100
AcDbLine
 10
226.0786761201959
 20
-398.4530074066454
 30
0.0
 11
226.0786761201959
 21
-398.8834143940455
 31
0.0
  0
LINE
  5
3F6
330
4C
100
AcDbEntity
  8
0
  6
Continuous
 62
     7
100
AcDbLine
 10
225.5786761201959
 20
-398.9967791714455
 30
0.0
 11
225.5786761201959
 21
-398.1567823756454
 31
0.0
  0
LINE
  5
3F7
330
4C
100
AcDbEntity
  8
0
  6
Continuous
 62
     7
100
AcDbLine
 10
230.478676120196
 20
-398.8834143940455
 30
0.0
 11
226.0786761201959
 21
-398.8834143940455
 31
0.0
  0
LINE
  5
3F8
330
4C
100
AcDbEntity
  8
0
  6
Continuous
 62
     7
100
AcDbLine
 10
230.478676120196
 20
-398.8834143940455
 30
0.0
 11
230.478676120196
 21
-398.4530074066454
 31
0.0
  0
LINE
  5
3F9
330
4C
100
AcDbEntity
  8
0
  6
Continuous
 62
     7
100
AcDbLine
 10
226.078676778396
 20
-401.4670644992455
 30
0.0
 11
225.578675764996
 21
-401.3536964648456
 31
0.0
  0
LINE
  5
3FA
330
4C
100
AcDbEntity
  8
0
  6
Continuous
 62
     7
100
AcDbLine
 10
226.078676778396
 20
-401.4670644992455
 30
0.0
 11
230.478676754396
 21
-401.4670644992455
 31
0.0
  0
LINE
  5
3FB
330
4C
100
AcDbEntity
  8
0
  6
Continuous
 62
     7
100
AcDbLine
 10
225.578675764996
 20
-401.3536964648456
 30
0.0
 11
225.5786761201959
 21
-398.9967791714455
 31
0.0
  0
LINE
  5
3FC
330
4C
100
AcDbEntity
  8
0
  6
Continuous
 62
     7
100
AcDbLine
 10
230.478676754396
 20
-401.4670644992455
 30
0.0
 11
230.478676120196
 21
-398.8834143940455
 31
0.0
  0
LINE
  5
3FD
330
4C
100
AcDbEntity
  8
0
  6
Continuous
 62
     7
100
AcDbLine
 10
254.278676120196
 20
-210.8095653646456
 30
0.0
 11
254.278676120196
 21
-196.8095653646456
 31
0.0
  0
LINE
  5
3FE
330
4C
100
AcDbEntity
  8
0
  6
Continuous
 62
     7
100
AcDbLine
 10
254.278676120196
 20
-402.3095653646456
 30
0.0
 11
254.278676120196
 21
-388.3095653646456
 31
0.0
  0
LINE
  5
3FF
330
4C
100
AcDbEntity
  8
0
  6
Continuous
 62
     7
100
AcDbLine
 10
230.878676120196
 20
-211.3095653646456
 30
0.0
 11
230.878676120196
 21
-197.8095653646456
 31
0.0
  0
LINE
  5
400
330
4C
100
AcDbEntity
  8
0
  6
Continuous
 62
     7
100
AcDbLine
 10
230.878676120196
 20
-402.3095653646456
 30
0.0
 11
230.878676120196
 21
-388.8095653646456
 31
0.0
  0
LINE
  5
401
330
4C
100
AcDbEntity
  8
0
  6
Continuous
 62
     7
100
AcDbLine
 10
238.5786761201959
 20
-205.8095653646456
 30
0.0
 11
232.0786761201959
 21
-205.8095653646456
 31
0.0
  0
LINE
  5
402
330
4C
100
AcDbEntity
  8
0
  6
Continuous
 62
     7
100
AcDbLine
 10
232.0786761201959
 20
-205.8095653646456
 30
0.0
 11
232.0786761201959
 21
-195.3095653646456
 31
0.0
  0
LINE
  5
403
330
4C
100
AcDbEntity
  8
0
  6
Continuous
 62
     7
100
AcDbLine
 10
238.5786761201959
 20
-205.8095653646456
 30
0.0
 11
238.5786761201959
 21
-195.3095653646456
 31
0.0
  0
LINE
  5
404
330
4C
100
AcDbEntity
  8
0
  6
Continuous
 62
     7
100
AcDbLine
 10
238.5786761201959
 20
-394.3095653646456
 30
0.0
 11
232.0786761201959
 21
-394.3095653646456
 31
0.0
  0
LINE
  5
405
330
4C
100
AcDbEntity
  8
0
  6
Continuous
 62
     7
100
AcDbLine
 10
232.0786761201959
 20
-404.8095653646456
 30
0.0
 11
232.0786761201959
 21
-394.3095653646456
 31
0.0
  0
LINE
  5
406
330
4C
100
AcDbEntity
  8
0
  6
Continuous
 62
     7
100
AcDbLine
 10
238.5786761201959
 20
-404.8095653646456
 30
0.0
 11
238.5786761201959
 21
-394.3095653646456
 31
0.0
  0
LINE
  5
407
330
4C
100
AcDbEntity
  8
0
  6
Continuous
 62
     7
100
AcDbLine
 10
232.078675899196
 20
-211.3095690602455
 30
0.0
 11
232.0786761201959
 21
-205.8095653646456
 31
0.0
  0
LINE
  5
408
330
4C
100
AcDbEntity
  8
0
  6
Continuous
 62
     7
100
AcDbLine
 10
238.5786760331959
 20
-213.7893010968455
 30
0.0
 11
238.5786761201959
 21
-205.8095653646456
 31
0.0
  0
LINE
  5
409
330
4C
100
AcDbEntity
  8
0
  6
Continuous
 62
     7
100
AcDbLine
 10
232.0786761201959
 20
-394.3095653646456
 30
0.0
 11
232.078675899196
 21
-388.8095636958456
 31
0.0
  0
LINE
  5
40A
330
4C
100
AcDbEntity
  8
0
  6
Continuous
 62
     7
100
AcDbLine
 10
238.5786761201959
 20
-394.3095653646456
 30
0.0
 11
238.5786760331959
 21
-386.3298316592454
 31
0.0
  0
LINE
  5
40B
330
4C
100
AcDbEntity
  8
0
  6
Continuous
 62
     7
100
AcDbLine
 10
20.33589838480003
 20
-300.0595653646456
 30
0.0
 11
20.33589838480003
 21
-365.5095653646454
 31
0.0
  0
LINE
  5
40C
330
4C
100
AcDbEntity
  8
0
  6
Continuous
 62
     7
100
AcDbLine
 10
20.33589838480003
 20
-234.6095653646455
 30
0.0
 11
20.33589838480003
 21
-300.0595653646456
 31
0.0
  0
LINE
  5
40D
330
4C
100
AcDbEntity
  8
0
  6
Continuous
 62
     7
100
AcDbLine
 10
23.80000000000007
 20
-240.6095653646455
 30
0.0
 11
23.80000000000007
 21
-359.5095653646454
 31
0.0
  0
LINE
  5
40E
330
4C
100
AcDbEntity
  8
0
  6
Continuous
 62
     7
100
AcDbLine
 10
242.5786761201959
 20
-205.3095653646456
 30
0.0
 11
242.5786761201959
 21
-213.5595653646456
 31
0.0
  0
LINE
  5
40F
330
4C
100
AcDbEntity
  8
0
  6
Continuous
 62
     7
100
AcDbLine
 10
242.5786761201959
 20
-386.5595653646456
 30
0.0
 11
242.5786761201959
 21
-402.0595644312455
 31
0.0
  0
LINE
  5
410
330
4C
100
AcDbEntity
  8
0
  6
Continuous
 62
     7
100
AcDbLine
 10
3.5
 20
-300.0595653646456
 30
0.0
 11
3.5
 21
-359.5595653646456
 31
0.0
  0
LINE
  5
411
330
4C
100
AcDbEntity
  8
0
  6
Continuous
 62
     7
100
AcDbLine
 10
3.5
 20
-240.5595653646456
 30
0.0
 11
3.5
 21
-300.0595653646456
 31
0.0
  0
LINE
  5
412
330
4C
100
AcDbEntity
  8
0
  6
Continuous
 62
     7
100
AcDbLine
 10
0.0
 20
-300.0595653646456
 30
0.0
 11
0.0
 21
-358.8857559842454
 31
0.0
  0
LINE
  5
413
330
4C
100
AcDbEntity
  8
0
  6
Continuous
 62
     7
100
AcDbLine
 10
0.0
 20
-241.2333747450455
 30
0.0
 11
0.0
 21
-300.0595653646456
 31
0.0
  0
LINE
  5
414
330
4C
100
AcDbEntity
  8
0
  6
Continuous
 62
     7
100
AcDbLine
 10
242.5786761201959
 20
-372.5595653646456
 30
0.0
 11
242.5786761201959
 21
-375.3095653646456
 31
0.0
  0
LINE
  5
415
330
4C
100
AcDbEntity
  8
0
  6
Continuous
 62
     7
100
AcDbLine
 10
253.0786761201959
 20
-394.3095653646456
 30
0.0
 11
253.0786760817959
 21
-388.3095626824454
 31
0.0
  0
LINE
  5
416
330
4C
100
AcDbEntity
  8
0
  6
Continuous
 62
     7
100
AcDbLine
 10
248.5629896035959
 20
-394.3095653646456
 30
0.0
 11
253.0786761201959
 21
-394.3095653646456
 31
0.0
  0
LINE
  5
417
330
4C
100
AcDbEntity
  8
0
  6
Continuous
 62
     7
100
AcDbLine
 10
248.5786761201959
 20
-392.2329093990454
 30
0.0
 11
248.5629896035959
 21
-394.3095653646456
 31
0.0
  0
LINE
  5
418
330
4C
100
AcDbEntity
  8
0
  6
Continuous
 62
     7
100
AcDbLine
 10
253.0786761201959
 20
-404.8095653646456
 30
0.0
 11
253.0786761201959
 21
-394.3095653646456
 31
0.0
  0
LINE
  5
419
330
4C
100
AcDbEntity
  8
0
  6
Continuous
 62
     7
100
AcDbLine
 10
248.5786761201959
 20
-392.2329093990454
 30
0.0
 11
246.5786761201959
 21
-392.2329093990454
 31
0.0
  0
LINE
  5
41A
330
4C
100
AcDbEntity
  8
0
  6
Continuous
 62
     7
100
AcDbLine
 10
246.5786761201959
 20
-392.2329093990454
 30
0.0
 11
246.5786761221959
 21
-385.7102115744456
 31
0.0
  0
LINE
  5
41B
330
4C
100
AcDbEntity
  8
0
  6
Continuous
 62
     7
100
AcDbLine
 10
248.5629896035959
 20
-394.3095653646456
 30
0.0
 11
246.5786761201959
 21
-394.3095653646456
 31
0.0
  0
LINE
  5
41C
330
4C
100
AcDbEntity
  8
0
  6
Continuous
 62
     7
100
AcDbLine
 10
246.5786761201959
 20
-394.3095653646456
 30
0.0
 11
246.5786761201959
 21
-392.2329093990454
 31
0.0
  0
LINE
  5
41D
330
4C
100
AcDbEntity
  8
0
  6
Continuous
 62
     7
100
AcDbLine
 10
246.578676120298
 20
-403.0595653646476
 30
0.0
 11
246.5786761201959
 21
-394.3095653646456
 31
0.0
  0
LINE
  5
41E
330
4C
100
AcDbEntity
  8
0
  6
Continuous
 62
     7
100
AcDbLine
 10
253.0786761201959
 20
-204.8095653646456
 30
0.0
 11
253.0786761201959
 21
-194.3095653646456
 31
0.0
  0
LINE
  5
41F
330
4C
100
AcDbEntity
  8
0
  6
Continuous
 62
     7
100
AcDbLine
 10
248.5629896035959
 20
-204.8095653646456
 30
0.0
 11
253.0786761201959
 21
-204.8095653646456
 31
0.0
  0
LINE
  5
420
330
4C
100
AcDbEntity
  8
0
  6
Continuous
 62
     7
100
AcDbLine
 10
253.0786760817959
 20
-210.8095680470456
 30
0.0
 11
253.0786761201959
 21
-204.8095653646456
 31
0.0
  0
LINE
  5
421
330
4C
100
AcDbEntity
  8
0
  6
Continuous
 62
     7
100
AcDbLine
 10
246.5786761221959
 20
-213.4089191550455
 30
0.0
 11
246.5786761201959
 21
-206.8862213304456
 31
0.0
  0
LINE
  5
422
330
4C
100
AcDbEntity
  8
0
  6
Continuous
 62
     7
100
AcDbLine
 10
246.5786761201959
 20
-206.8862213304456
 30
0.0
 11
248.5786761201959
 21
-206.8862213304456
 31
0.0
  0
LINE
  5
423
330
4C
100
AcDbEntity
  8
0
  6
Continuous
 62
     7
100
AcDbLine
 10
246.5786761201959
 20
-206.8862213304456
 30
0.0
 11
246.5786761201959
 21
-204.8095653646456
 31
0.0
  0
LINE
  5
424
330
4C
100
AcDbEntity
  8
0
  6
Continuous
 62
     7
100
AcDbLine
 10
246.5786761201959
 20
-204.8095653646456
 30
0.0
 11
248.5629896035959
 21
-204.8095653646456
 31
0.0
  0
LINE
  5
425
330
4C
100
AcDbEntity
  8
0
  6
Continuous
 62
     7
100
AcDbLine
 10
246.5786761201959
 20
-204.8095653646456
 30
0.0
 11
246.578676120298
 21
-196.0595653646435
 31
0.0
  0
LINE
  5
426
330
4C
100
AcDbEntity
  8
0
  6
Continuous
 62
     7
100
AcDbLine
 10
242.5786761201959
 20
-402.0595644312455
 30
0.0
 11
242.5786761201959
 21
-386.5595653646456
 31
0.0
  0
LINE
  5
427
330
4C
100
AcDbEntity
  8
0
  6
Continuous
 62
     7
100
AcDbLine
 10
242.5786761201959
 20
-205.3095653646456
 30
0.0
 11
242.5786761201959
 21
-197.0595662982455
 31
0.0
  0
LINE
  5
428
330
4C
100
AcDbEntity
  8
0
  6
Continuous
 62
     7
100
AcDbLine
 10
490.0
 20
-353.0858448064455
 30
0.0
 11
490.0
 21
-246.0332859230455
 31
0.0
  0
LINE
  5
429
330
4C
100
AcDbEntity
  8
0
  6
Continuous
 62
     7
100
AcDbLine
 10
484.5
 20
-354.5595653646456
 30
0.0
 11
484.5
 21
-244.5595653646456
 31
0.0
  0
LINE
  5
42A
330
4C
100
AcDbEntity
  8
0
  6
Continuous
 62
     7
100
AcDbLine
 10
242.5786761201959
 20
-226.5595653646456
 30
0.0
 11
242.5786761201959
 21
-224.3095653646456
 31
0.0
  0
LINE
  5
42B
330
4C
100
AcDbEntity
  8
0
  6
Continuous
 62
     7
100
AcDbLine
 10
254.278675905796
 20
-204.3095623248455
 30
0.0
 11
259.7610575811621
 21
-204.3095623249715
 31
0.0
  0
LINE
  5
42C
330
4C
100
AcDbEntity
  8
0
  6
Continuous
 62
     7
100
AcDbLine
 10
259.7610575811621
 20
-205.3095643515195
 30
0.0
 11
254.278675905796
 21
-205.3095643514455
 31
0.0
  0
LINE
  5
42D
330
4C
100
AcDbEntity
  8
0
  6
Continuous
 62
     7
100
AcDbLine
 10
259.7610575811959
 20
-198.8095660800454
 30
0.0
 11
254.278675905796
 21
-198.8095660800454
 31
0.0
  0
LINE
  5
42E
330
4C
100
AcDbEntity
  8
0
  6
Continuous
 62
     7
100
AcDbLine
 10
254.278675905796
 20
-393.8095663780455
 30
0.0
 11
259.76105758116
 21
-393.8095663779695
 31
0.0
  0
LINE
  5
42F
330
4C
100
AcDbEntity
  8
0
  6
Continuous
 62
     7
100
AcDbLine
 10
259.76105758116
 20
-394.8095684045215
 30
0.0
 11
254.278675905796
 21
-394.8095684046455
 31
0.0
  0
LINE
  5
430
330
4C
100
AcDbEntity
  8
0
  6
Continuous
 62
     7
100
AcDbLine
 10
254.278675905796
 20
-400.3095646494455
 30
0.0
 11
259.7610575813001
 21
-400.3095646494055
 31
0.0
  0
LINE
  5
431
330
4C
100
AcDbEntity
  8
0
  6
Continuous
 62
     7
100
AcDbLine
 10
62.45504069389597
 20
-384.8709223410456
 30
0.0
 11
88.70409514099991
 21
-384.8709260220455
 31
0.0
  0
LINE
  5
432
330
4C
100
AcDbEntity
  8
0
  6
Continuous
 62
     7
100
AcDbLine
 10
97.73877348099995
 20
-384.8709260220455
 30
0.0
 11
196.6987366678
 21
-384.8709260220455
 31
0.0
  0
LINE
  5
433
330
4C
100
AcDbEntity
  8
0
  6
Continuous
 62
     7
100
AcDbLine
 10
205.7334112824001
 20
-384.8709260220455
 30
0.0
 11
231.935015496196
 21
-384.8709223410456
 31
0.0
  0
LINE
  5
434
330
4C
100
AcDbEntity
  8
0
  6
Continuous
 62
     7
100
AcDbLine
 10
210.7150260000001
 20
-388.3687902356455
 30
0.0
 11
208.1707644165999
 21
-388.3687873476456
 31
0.0
  0
LINE
  5
435
330
4C
100
AcDbEntity
  8
0
  6
Continuous
 62
     7
100
AcDbLine
 10
194.23451674
 20
-388.3687873476456
 30
0.0
 11
191.715026
 21
-388.3687902356455
 31
0.0
  0
LINE
  5
436
330
4C
100
AcDbEntity
  8
0
  6
Continuous
 62
     7
100
AcDbLine
 10
102.720391
 20
-388.3687902356455
 30
0.0
 11
100.1761266151999
 21
-388.3687873476456
 31
0.0
  0
LINE
  5
437
330
4C
100
AcDbEntity
  8
0
  6
Continuous
 62
     7
100
AcDbLine
 10
86.23987521319992
 20
-388.3687873476456
 30
0.0
 11
83.72039099999995
 21
-388.3687902356455
 31
0.0
  0
LINE
  5
438
330
4C
100
AcDbEntity
  8
0
  6
Continuous
 62
     7
100
AcDbLine
 10
83.72039099999995
 20
-211.7503404938454
 30
0.0
 11
86.26465584439995
 21
-211.7503379578454
 31
0.0
  0
LINE
  5
439
330
4C
100
AcDbEntity
  8
0
  6
Continuous
 62
     7
100
AcDbLine
 10
100.2009072461999
 20
-211.7503379578454
 30
0.0
 11
102.720391
 21
-211.7503404938454
 31
0.0
  0
LINE
  5
43A
330
4C
100
AcDbEntity
  8
0
  6
Continuous
 62
     7
100
AcDbLine
 10
191.715026
 20
-211.7503404938454
 30
0.0
 11
194.2592899204
 21
-211.7503379578454
 31
0.0
  0
LINE
  5
43B
330
4C
100
AcDbEntity
  8
0
  6
Continuous
 62
     7
100
AcDbLine
 10
208.195537597
 20
-211.7503379578454
 30
0.0
 11
210.7150260000001
 21
-211.7503404938454
 31
0.0
  0
LINE
  5
43C
330
4C
100
AcDbEntity
  8
0
  6
Continuous
 62
     7
100
AcDbLine
 10
231.935015496196
 20
-215.2482083884455
 30
0.0
 11
205.731313944
 21
-215.2482067340454
 31
0.0
  0
LINE
  5
43D
330
4C
100
AcDbEntity
  8
0
  6
Continuous
 62
     7
100
AcDbLine
 10
196.6966430546
 20
-215.2482067340454
 30
0.0
 11
97.73668731839992
 21
-215.2482067340454
 31
0.0
  0
LINE
  5
43E
330
4C
100
AcDbEntity
  8
0
  6
Continuous
 62
     7
100
AcDbLine
 10
88.70200897839993
 20
-215.2482067340454
 30
0.0
 11
62.45504069389597
 21
-215.2482083884455
 31
0.0
  0
LINE
  5
43F
330
4C
100
AcDbEntity
  8
0
  6
Continuous
 62
     7
100
AcDbLine
 10
421.587424110432
 20
-214.7482083884455
 30
0.0
 11
395.3890840548
 21
-214.7482057208455
 31
0.0
  0
LINE
  5
440
330
4C
100
AcDbEntity
  8
0
  6
Continuous
 62
     7
100
AcDbLine
 10
386.3544057148
 20
-214.7482057208455
 30
0.0
 11
287.3890849787999
 21
-214.7482057208455
 31
0.0
  0
LINE
  5
441
330
4C
100
AcDbEntity
  8
0
  6
Continuous
 62
     7
100
AcDbLine
 10
278.3544103639999
 20
-214.7482057208455
 30
0.0
 11
253.3456006407959
 21
-214.7482083884455
 31
0.0
  0
LINE
  5
442
330
4C
100
AcDbEntity
  8
0
  6
Continuous
 62
     7
100
AcDbLine
 10
253.3456006407959
 20
-384.3709223410456
 30
0.0
 11
278.3565077023999
 21
-384.3709250086454
 31
0.0
  0
LINE
  5
443
330
4C
100
AcDbEntity
  8
0
  6
Continuous
 62
     7
100
AcDbLine
 10
287.3911785918
 20
-384.3709250086454
 30
0.0
 11
386.3565067786
 21
-384.3709250086454
 31
0.0
  0
LINE
  5
444
330
4C
100
AcDbEntity
  8
0
  6
Continuous
 62
     7
100
AcDbLine
 10
395.3911851186
 20
-384.3709250086454
 30
0.0
 11
421.587424110432
 21
-384.3709223410456
 31
0.0
  0
LINE
  5
445
330
4C
100
AcDbEntity
  8
0
  6
Continuous
 62
     7
100
AcDbLine
 10
400.372796
 20
-387.8687902356455
 30
0.0
 11
397.8285382528001
 21
-387.8687937850455
 31
0.0
  0
LINE
  5
446
330
4C
100
AcDbEntity
  8
0
  6
Continuous
 62
     7
100
AcDbLine
 10
383.8922868507999
 20
-387.8687937850455
 30
0.0
 11
381.372796
 21
-387.8687902356455
 31
0.0
  0
LINE
  5
447
330
4C
100
AcDbEntity
  8
0
  6
Continuous
 62
     7
100
AcDbLine
 10
292.372796
 20
-387.8687902356455
 30
0.0
 11
289.8285317259999
 21
-387.8687937850455
 31
0.0
  0
LINE
  5
448
330
4C
100
AcDbEntity
  8
0
  6
Continuous
 62
     7
100
AcDbLine
 10
275.8922859119999
 20
-387.8687937850455
 30
0.0
 11
273.372796
 21
-387.8687902356455
 31
0.0
  0
LINE
  5
449
330
4C
100
AcDbEntity
  8
0
  6
Continuous
 62
     7
100
AcDbLine
 10
273.372796
 20
-211.2503404938454
 30
0.0
 11
275.9170590926
 21
-211.2503369444455
 31
0.0
  0
LINE
  5
44A
330
4C
100
AcDbEntity
  8
0
  6
Continuous
 62
     7
100
AcDbLine
 10
289.8533049064
 20
-211.2503369444455
 30
0.0
 11
292.372796
 21
-211.2503404938454
 31
0.0
  0
LINE
  5
44B
330
4C
100
AcDbEntity
  8
0
  6
Continuous
 62
     7
100
AcDbLine
 10
381.372796
 20
-211.2503404938454
 30
0.0
 11
383.9170525808
 21
-211.2503369444455
 31
0.0
  0
LINE
  5
44C
330
4C
100
AcDbEntity
  8
0
  6
Continuous
 62
     7
100
AcDbLine
 10
397.8533039825999
 20
-211.2503369444455
 30
0.0
 11
400.372796
 21
-211.2503404938454
 31
0.0
  0
LINE
  5
44D
330
4C
100
AcDbEntity
  8
0
  6
Continuous
 62
     7
100
AcDbLine
 10
10.756938902
 20
-300.0595653646456
 30
0.0
 11
10.756938902
 21
-365.0075533704455
 31
0.0
  0
LINE
  5
44E
330
4C
100
AcDbEntity
  8
0
  6
Continuous
 62
     7
100
AcDbLine
 10
10.756938902
 20
-235.1115773590454
 30
0.0
 11
10.756938902
 21
-300.0595653646456
 31
0.0
  0
LINE
  5
44F
330
4C
100
AcDbEntity
  8
0
  6
Continuous
 62
     7
100
AcDbLine
 10
7.4798527058
 20
-300.0595653646456
 30
0.0
 11
7.4798527057402
 21
-363.5467045736896
 31
0.0
  0
LINE
  5
450
330
4C
100
AcDbEntity
  8
0
  6
Continuous
 62
     7
100
AcDbLine
 10
7.4798527057402
 20
-236.5724261558015
 30
0.0
 11
7.4798527058
 21
-300.0595653646456
 31
0.0
  0
LINE
  5
451
330
4C
100
AcDbEntity
  8
0
  6
Continuous
 62
     7
100
AcDbLine
 10
241.5786761201959
 20
-214.5595653646456
 30
0.0
 11
241.5786761201959
 21
-197.0595653646456
 31
0.0
  0
LINE
  5
452
330
4C
100
AcDbEntity
  8
0
  6
Continuous
 62
     7
100
AcDbLine
 10
241.5786761201959
 20
-403.0595653646456
 30
0.0
 11
241.5786761201959
 21
-385.5595653646456
 31
0.0
  0
LINE
  5
453
330
4C
100
AcDbEntity
  8
0
  6
Continuous
 62
     7
100
AcDbLine
 10
0.47121798660004
 20
-300.0595653646456
 30
0.0
 11
0.47121798660004
 21
-359.3849268926456
 31
0.0
  0
LINE
  5
454
330
4C
100
AcDbEntity
  8
0
  6
Continuous
 62
     7
100
AcDbLine
 10
0.47121798660004
 20
-240.7342038368455
 30
0.0
 11
0.47121798660004
 21
-300.0595653646456
 31
0.0
  0
LINE
  5
455
330
4C
100
AcDbEntity
  8
0
  6
Continuous
 62
     7
100
AcDbLine
 10
241.5786761201959
 20
-226.5595653646456
 30
0.0
 11
241.5786761201959
 21
-223.8095653646456
 31
0.0
  0
LINE
  5
456
330
4C
100
AcDbEntity
  8
0
  6
Continuous
 62
     7
100
AcDbLine
 10
241.5786761201959
 20
-376.3095653646456
 30
0.0
 11
241.5786761201959
 21
-372.5595653646456
 31
0.0
  0
LINE
  5
457
330
4C
100
AcDbEntity
  8
0
  6
Continuous
 62
     7
100
AcDbLine
 10
248.578676158996
 20
-387.2016389960454
 30
0.0
 11
248.5786761201959
 21
-392.2329093990454
 31
0.0
  0
LINE
  5
458
330
4C
100
AcDbEntity
  8
0
  6
Continuous
 62
     7
100
AcDbLine
 10
248.5629896035959
 20
-394.3095653646456
 30
0.0
 11
248.5629896035959
 21
-404.8095653646456
 31
0.0
  0
LINE
  5
459
330
4C
100
AcDbEntity
  8
0
  6
Continuous
 62
     7
100
AcDbLine
 10
248.5629896035959
 20
-194.3095653646456
 30
0.0
 11
248.5629896035959
 21
-204.8095653646456
 31
0.0
  0
LINE
  5
45A
330
4C
100
AcDbEntity
  8
0
  6
Continuous
 62
     7
100
AcDbLine
 10
248.5786761201959
 20
-206.8862213304456
 30
0.0
 11
248.578676158996
 21
-211.9174917334456
 31
0.0
  0
LINE
  5
45B
330
4C
100
AcDbEntity
  8
0
  6
Continuous
 62
     7
100
AcDbLine
 10
243.5786761201959
 20
-385.5595653646456
 30
0.0
 11
243.5786761201959
 21
-403.0595653646456
 31
0.0
  0
LINE
  5
45C
330
4C
100
AcDbEntity
  8
0
  6
Continuous
 62
     7
100
AcDbLine
 10
243.5786761201959
 20
-196.0595653646456
 30
0.0
 11
243.5786761201959
 21
-213.5595653646456
 31
0.0
  0
LINE
  5
45D
330
4C
100
AcDbEntity
  8
0
  6
Continuous
 62
     7
100
AcDbLine
 10
243.5786761201959
 20
-372.5595653646456
 30
0.0
 11
243.5786761201959
 21
-375.8095653646456
 31
0.0
  0
LINE
  5
45E
330
4C
100
AcDbEntity
  8
0
  6
Continuous
 62
     7
100
AcDbLine
 10
243.5786761201959
 20
-223.3095653646456
 30
0.0
 11
243.5786761201959
 21
-226.5595653646456
 31
0.0
  0
LINE
  5
45F
330
4C
100
AcDbEntity
  8
0
  6
CENTERX2
 62
     7
100
AcDbLine
 10
-1.66371428579998
 20
-300.0595653646456
 30
0.0
 11
492.4505714285999
 21
-300.0595653646456
 31
0.0
  0
LINE
  5
473
330
4C
100
AcDbEntity
  8
0
  6
Continuous
 62
     7
100
AcDbLine
 10
225.5786759965349
 20
-390.3095667356454
 30
0.0
 11
222.466187946731
 21
-390.3095653646456
 31
0.0
  0
LINE
  5
474
330
4C
100
AcDbEntity
  8
0
  6
Continuous
 62
     7
100
AcDbLine
 10
222.466187946731
 20
-390.3095653646456
 30
0.0
 11
222.466187946731
 21
-398.3095680470456
 31
0.0
  0
LINE
  5
475
330
4C
100
AcDbEntity
  8
0
  6
Continuous
 62
     7
100
AcDbLine
 10
221.466187946731
 20
-397.3095687351458
 30
0.0
 11
221.466187946731
 21
-391.3095653646456
 31
0.0
  0
LINE
  5
476
330
4C
100
AcDbEntity
  8
0
  6
Continuous
 62
     7
100
AcDbLine
 10
221.466187946731
 20
-397.3095687351458
 30
0.0
 11
222.466187946731
 21
-398.3095687351458
 31
0.0
  0
LINE
  5
477
330
4C
100
AcDbEntity
  8
0
  6
Continuous
 62
     7
100
AcDbLine
 10
222.4661870026198
 20
-398.3095680470456
 30
0.0
 11
225.5786759965349
 21
-398.3095680470456
 31
0.0
  0
LINE
  5
478
330
4C
100
AcDbEntity
  8
0
  6
Continuous
 62
     7
100
AcDbLine
 10
222.466187946731
 20
-390.3095653646456
 30
0.0
 11
221.466187946731
 21
-391.3095653646456
 31
0.0
  0
LINE
  5
479
330
4C
100
AcDbEntity
  8
0
  6
Continuous
 62
     7
100
AcDbLine
 10
222.466187946731
 20
-209.8095653646453
 30
0.0
 11
225.5786759965349
 21
-209.8095639936455
 31
0.0
  0
LINE
  5
47A
330
4C
100
AcDbEntity
  8
0
  6
Continuous
 62
     7
100
AcDbLine
 10
222.466187946731
 20
-201.8095626822453
 30
0.0
 11
222.466187946731
 21
-209.8095653646453
 31
0.0
  0
LINE
  5
47B
330
4C
100
AcDbEntity
  8
0
  6
Continuous
 62
     7
100
AcDbLine
 10
225.5786759965349
 20
-201.8095626822453
 30
0.0
 11
222.4661870026198
 21
-201.8095626822453
 31
0.0
  0
LINE
  5
47C
330
4C
100
AcDbEntity
  8
0
  6
Continuous
 62
     7
100
AcDbLine
 10
221.466187946731
 20
-208.8095653646453
 30
0.0
 11
222.466187946731
 21
-209.8095653646453
 31
0.0
  0
LINE
  5
47D
330
4C
100
AcDbEntity
  8
0
  6
Continuous
 62
     7
100
AcDbLine
 10
222.466187946731
 20
-201.809561994145
 30
0.0
 11
221.466187946731
 21
-202.809561994145
 31
0.0
  0
LINE
  5
47E
330
4C
100
AcDbEntity
  8
0
  6
Continuous
 62
     7
100
AcDbLine
 10
221.466187946731
 20
-208.8095653646453
 30
0.0
 11
221.466187946731
 21
-202.809561994145
 31
0.0
  0
LINE
  5
47F
330
4C
100
AcDbEntity
  8
0
  6
Continuous
 62
     7
100
AcDbLine
 10
222.466187946731
 20
-201.8095626822453
 30
0.0
 11
222.466187946731
 21
-209.8095653646453
 31
0.0
  0
ARC
  5
480
330
4C
100
AcDbEntity
  8
0
  6
Continuous
 62
     7
100
AcDbCircle
 10
303.9471439999999
 20
-339.8095403640455
 30
0.0
 40
0.4999999999990204
100
AcDbArc
 50
90.57296734485124
 51
150.003308000859
  0
ARC
  5
481
330
4C
100
AcDbEntity
  8
0
  6
Continuous
 62
     7
100
AcDbCircle
 10
307.9371439999999
 20
-339.8095403640455
 30
0.0
 40
0.500000000000963
100
AcDbArc
 50
29.99669199914101
 51
89.42703265512922
  0
ARC
  5
482
330
4C
100
AcDbEntity
  8
0
  6
Continuous
 62
     7
100
AcDbCircle
 10
307.9371439999999
 20
-259.3095903654455
 30
0.0
 40
0.4999999999990221
100
AcDbArc
 50
-89.42703265512922
 51
-29.99669199912973
  0
ARC
  5
483
330
4C
100
AcDbEntity
  8
0
  6
Continuous
 62
     7
100
AcDbCircle
 10
303.9471439999999
 20
-259.3095903654455
 30
0.0
 40
0.5000000000009062
100
AcDbArc
 50
-150.0033080008703
 51
-90.57296734484896
  0
ARC
  5
484
330
4C
100
AcDbEntity
  8
0
  6
Continuous
 62
     7
100
AcDbCircle
 10
11.01861868320003
 20
-240.1047250328455
 30
0.0
 40
5.000000000026406
100
AcDbArc
 50
92.99999999981559
 51
135.0524019315089
  0
ARC
  5
485
330
4C
100
AcDbEntity
  8
0
  6
Continuous
 62
     7
100
AcDbCircle
 10
11.01861868320003
 20
-360.0144056966456
 30
0.0
 40
4.999999999999362
100
AcDbArc
 50
-135.0524019315087
 51
-92.9999999998157
  0
ARC
  5
486
330
4C
100
AcDbEntity
  8
0
  6
Continuous
 62
     7
100
AcDbCircle
 10
241.5786761201959
 20
-213.5595653646456
 30
0.0
 40
1.0
100
AcDbArc
 50
-90.0
 51
0.0
  0
ARC
  5
487
330
4C
100
AcDbEntity
  8
0
  6
Continuous
 62
     7
100
AcDbCircle
 10
241.5786761201959
 20
-198.0595653646456
 30
0.0
 40
1.0
100
AcDbArc
 50
0.0
 51
90.0
  0
ARC
  5
488
330
4C
100
AcDbEntity
  8
0
  6
Continuous
 62
     7
100
AcDbCircle
 10
241.5786761201959
 20
-386.5595653646456
 30
0.0
 40
1.0
100
AcDbArc
 50
0.0
 51
90.0
  0
ARC
  5
489
330
4C
100
AcDbEntity
  8
0
  6
Continuous
 62
     7
100
AcDbCircle
 10
241.5786761201959
 20
-402.0595653646456
 30
0.0
 40
1.0
100
AcDbArc
 50
-90.0
 51
0.0
  0
ARC
  5
48A
330
4C
100
AcDbEntity
  8
0
  6
Continuous
 62
     7
100
AcDbCircle
 10
0.5
 20
-241.2333747450455
 30
0.0
 40
0.4999999998885684
100
AcDbArc
 50
93.29999999157417
 51
180.0
  0
ARC
  5
48B
330
4C
100
AcDbEntity
  8
0
  6
Continuous
 62
     7
100
AcDbCircle
 10
0.5
 20
-358.8857559842454
 30
0.0
 40
0.5
100
AcDbArc
 50
180.0
 51
-93.29999999025374
  0
ARC
  5
48C
330
4C
100
AcDbEntity
  8
0
  6
Continuous
 62
     7
100
AcDbCircle
 10
241.5786761201959
 20
-224.8095653646456
 30
0.0
 40
1.0
100
AcDbArc
 50
0.0
 51
90.0
  0
ARC
  5
48D
330
4C
100
AcDbEntity
  8
0
  6
Continuous
 62
     7
100
AcDbCircle
 10
241.5786761201959
 20
-375.3095653646456
 30
0.0
 40
1.0
100
AcDbArc
 50
-90.0
 51
0.0
  0
ARC
  5
48E
330
4C
100
AcDbEntity
  8
0
  6
Continuous
 62
     7
100
AcDbCircle
 10
248.5629896035959
 20
-402.8095653646456
 30
0.0
 40
1.999999999999692
100
AcDbArc
 50
-172.8192442184832
 51
-90.0
  0
ARC
  5
48F
330
4C
100
AcDbEntity
  8
0
  6
Continuous
 62
     7
100
AcDbCircle
 10
248.5629896035959
 20
-196.3095653646456
 30
0.0
 40
2.0
100
AcDbArc
 50
90.0
 51
172.8192442184799
  0
ARC
  5
490
330
4C
100
AcDbEntity
  8
0
  6
Continuous
 62
     7
100
AcDbCircle
 10
243.5786761201959
 20
-402.0595653646456
 30
0.0
 40
1.0
100
AcDbArc
 50
180.0
 51
-90.0
  0
ARC
  5
491
330
4C
100
AcDbEntity
  8
0
  6
Continuous
 62
     7
100
AcDbCircle
 10
243.5786761201959
 20
-386.5595653646456
 30
0.0
 40
1.0
100
AcDbArc
 50
90.0
 51
180.0
  0
ARC
  5
492
330
4C
100
AcDbEntity
  8
0
  6
Continuous
 62
     7
100
AcDbCircle
 10
243.5786761201959
 20
-212.5595653646456
 30
0.0
 40
1.0
100
AcDbArc
 50
180.0
 51
-90.0
  0
ARC
  5
493
330
4C
100
AcDbEntity
  8
0
  6
Continuous
 62
     7
100
AcDbCircle
 10
243.5786761201959
 20
-197.0595653646456
 30
0.0
 40
1.0
100
AcDbArc
 50
90.0
 51
180.0
  0
ARC
  5
494
330
4C
100
AcDbEntity
  8
0
  6
Continuous
 62
     7
100
AcDbCircle
 10
243.5786761201959
 20
-224.3095653646456
 30
0.0
 40
1.0
100
AcDbArc
 50
90.0
 51
180.0
  0
ARC
  5
495
330
4C
100
AcDbEntity
  8
0
  6
Continuous
 62
     7
100
AcDbCircle
 10
243.5786761201959
 20
-374.8095653646456
 30
0.0
 40
1.0
100
AcDbArc
 50
180.0
 51
-90.0
  0
ARC
  5
496
330
4C
100
AcDbEntity
  8
0
  6
Continuous
 62
     7
100
AcDbCircle
 10
265.6620649247959
 20
-204.8095633382454
 30
0.0
 40
5.922152369104923
100
AcDbArc
 50
175.1568128281009
 51
-175.1568128280989
  0
ARC
  5
497
330
4C
100
AcDbEntity
  8
0
  6
Continuous
 62
     7
100
AcDbCircle
 10
260.631209463596
 20
-198.5595655734455
 30
0.0
 40
0.9053532744587258
100
AcDbArc
 50
163.9702844584418
 51
-163.9702844628025
  0
ARC
  5
498
330
4C
100
AcDbEntity
  8
0
  6
Continuous
 62
     7
100
AcDbCircle
 10
265.661710443796
 20
-394.3095673912455
 30
0.0
 40
5.921799153856132
100
AcDbArc
 50
175.1565232583075
 51
-175.1565232583075
  0
ARC
  5
499
330
4C
100
AcDbEntity
  8
0
  6
Continuous
 62
     7
100
AcDbCircle
 10
261.405994730996
 20
-400.5595651560454
 30
0.0
 40
1.66382645722736
100
AcDbArc
 50
171.3582167344041
 51
-171.3582167294917
  0
ARC
  5
49A
330
4C
100
AcDbEntity
  8
0
  6
Continuous
 62
     7
100
AcDbCircle
 10
299.2116156894
 20
-397.0579424006455
 30
0.0
 40
3.038391948764832
100
AcDbArc
 50
-19.24784306019998
 51
22.58260443290231
  0
ARC
  5
49B
330
4C
100
AcDbEntity
  8
0
  6
Continuous
 62
     7
100
AcDbCircle
 10
310.061243348
 20
-370.8711185912455
 30
0.0
 40
28.57789855600888
100
AcDbArc
 50
-162.0601133046008
 51
-107.9398983044994
  0
ARC
  5
49C
330
4C
100
AcDbEntity
  8
0
  6
Continuous
 62
     7
100
AcDbCircle
 10
283.8809126023999
 20
-381.4976988812455
 30
0.0
 40
2.831072815622889
100
AcDbArc
 50
65.80499150138729
 51
110.860252853318
  0
ARC
  5
49D
330
4C
100
AcDbEntity
  8
0
  6
Continuous
 62
     7
100
AcDbCircle
 10
309.0357521558
 20
-371.8966117250454
 30
0.0
 40
25.00000658353886
100
AcDbArc
 50
-163.6951335222504
 51
-106.3048664776061
  0
ARC
  5
49E
330
4C
100
AcDbEntity
  8
0
  6
Continuous
 62
     7
100
AcDbCircle
 10
310.0746042026
 20
-425.2613698906455
 30
0.0
 40
28.59472649680146
100
AcDbArc
 50
107.9571219734776
 51
162.0428896354987
  0
ARC
  5
49F
330
4C
100
AcDbEntity
  8
0
  6
Continuous
 62
     7
100
AcDbCircle
 10
255.6710013159999
 20
-425.2613579464455
 30
0.0
 40
28.59471060247686
100
AcDbArc
 50
17.9570955278316
 51
72.04289866770047
  0
ARC
  5
4A0
330
4C
100
AcDbEntity
  8
0
  6
Continuous
 62
     7
100
AcDbCircle
 10
255.6710303225999
 20
-370.8577986902456
 30
0.0
 40
28.59467406577206
100
AcDbArc
 50
-72.04293603850272
 51
-17.95705815654734
  0
ARC
  5
4A1
330
4C
100
AcDbEntity
  8
0
  6
Continuous
 62
     7
100
AcDbCircle
 10
283.8744187993999
 20
-414.3983539138455
 30
0.0
 40
3.038423425306751
100
AcDbArc
 50
-109.2476566713786
 51
-67.41758768170446
  0
ARC
  5
4A2
330
4C
100
AcDbEntity
  8
0
  6
Continuous
 62
     7
100
AcDbCircle
 10
299.4345961179999
 20
-399.0676800650456
 30
0.0
 40
2.831137178133426
100
AcDbArc
 50
-24.1945061586885
 51
20.85975624042362
  0
ARC
  5
4A3
330
4C
100
AcDbEntity
  8
0
  6
Continuous
 62
     7
100
AcDbCircle
 10
309.0357332365999
 20
-424.2225044362456
 30
0.0
 40
24.99998311367156
100
AcDbArc
 50
106.3048370350013
 51
163.6951629656406
  0
ARC
  5
4A4
330
4C
100
AcDbEntity
  8
0
  6
Continuous
 62
     7
100
AcDbCircle
 10
266.3109861275999
 20
-397.0514535204454
 30
0.0
 40
2.831127046545409
100
AcDbArc
 50
155.8054348871104
 51
-159.1402946076953
  0
ARC
  5
4A5
330
4C
100
AcDbEntity
  8
0
  6
Continuous
 62
     7
100
AcDbCircle
 10
256.7098378669999
 20
-371.8966090668455
 30
0.0
 40
25.0000098811973
100
AcDbArc
 50
-73.69512938542387
 51
-16.30487061429785
  0
ARC
  5
4A6
330
4C
100
AcDbEntity
  8
0
  6
Continuous
 62
     7
100
AcDbCircle
 10
281.8711728554
 20
-381.7207459104454
 30
0.0
 40
3.038390477912146
100
AcDbArc
 50
70.75210589082508
 51
112.5826497565772
  0
ARC
  5
4A7
330
4C
100
AcDbEntity
  8
0
  6
Continuous
 62
     7
100
AcDbCircle
 10
266.534004989
 20
-399.0611859592455
 30
0.0
 40
3.038420380221612
100
AcDbArc
 50
160.7523295644653
 51
-157.4174812936048
  0
ARC
  5
4A8
330
4C
100
AcDbEntity
  8
0
  6
Continuous
 62
     7
100
AcDbCircle
 10
281.8646835306
 20
-414.6213176186454
 30
0.0
 40
2.831182394877013
100
AcDbArc
 50
-114.1940886886986
 51
-69.14066695860492
  0
ARC
  5
4A9
330
4C
100
AcDbEntity
  8
0
  6
Continuous
 62
     7
100
AcDbCircle
 10
256.7098380368
 20
-424.2225258442454
 30
0.0
 40
25.00000967069509
100
AcDbArc
 50
16.30487035055926
 51
73.69512965015689
  0
ARC
  5
4AA
330
4C
100
AcDbEntity
  8
0
  6
Continuous
 62
     7
100
AcDbCircle
 10
282.8824243518
 20
-397.0801798316454
 30
0.0
 40
21.47939043282168
100
AcDbArc
 50
-91.09481495879855
 51
-90.02568249909977
  0
ARC
  5
4AB
330
4C
100
AcDbEntity
  8
0
  6
Continuous
 62
     7
100
AcDbCircle
 10
282.5087712855999
 20
-416.6760066468455
 30
0.0
 40
1.880000000000237
100
AcDbArc
 50
-163.695139741418
 51
-91.12021528668457
  0
ARC
  5
4AC
330
4C
100
AcDbEntity
  8
0
  6
Continuous
 62
     7
100
AcDbCircle
 10
282.6734075631999
 20
-398.0575667646456
 30
0.0
 40
20.69938944003644
100
AcDbArc
 50
-1.11495922049736
 51
0.0
  0
ARC
  5
4AD
330
4C
100
AcDbEntity
  8
0
  6
Continuous
 62
     7
100
AcDbCircle
 10
301.489237282
 20
-398.4235900792455
 30
0.0
 40
1.880000000000439
100
AcDbArc
 50
-73.69513974142156
 51
-1.12021528680574
  0
ARC
  5
4AE
330
4C
100
AcDbEntity
  8
0
  6
Continuous
 62
     7
100
AcDbCircle
 10
282.8777682095999
 20
-397.5458954450455
 30
0.0
 40
19.98632908939768
100
AcDbArc
 50
88.86524944370241
 51
90.01425309840278
  0
ARC
  5
4AF
330
4C
100
AcDbEntity
  8
0
  6
Continuous
 62
     7
100
AcDbCircle
 10
283.2368207143999
 20
-379.4431240826455
 30
0.0
 40
1.880000000000377
100
AcDbArc
 50
16.30486025858441
 51
88.87978471331724
  0
ARC
  5
4B0
330
4C
100
AcDbEntity
  8
0
  6
Continuous
 62
     7
100
AcDbCircle
 10
282.8572866953999
 20
-398.0594669502455
 30
0.0
 40
20.48449092126899
100
AcDbArc
 50
178.8792211933979
 51
180.0
  0
ARC
  5
4B1
330
4C
100
AcDbEntity
  8
0
  6
Continuous
 62
     7
100
AcDbCircle
 10
264.2563547179999
 20
-397.6955406502455
 30
0.0
 40
1.880000000000455
100
AcDbArc
 50
106.3048602585801
 51
178.8797847131942
  0
ARC
  5
4B2
330
4C
100
AcDbEntity
  8
0
  6
Continuous
 62
     7
100
AcDbCircle
 10
301.489237282
 20
-397.6955406502455
 30
0.0
 40
1.880000000000611
100
AcDbArc
 50
1.12021528680574
 51
73.69513974122663
  0
ARC
  5
4B3
330
4C
100
AcDbEntity
  8
0
  6
Continuous
 62
     7
100
AcDbCircle
 10
282.84434311
 20
-398.0598968450454
 30
0.0
 40
20.52845379952601
100
AcDbArc
 50
0.0
 51
1.11957837179968
  0
ARC
  5
4B4
330
4C
100
AcDbEntity
  8
0
  6
Continuous
 62
     7
100
AcDbCircle
 10
283.2368207143999
 20
-416.6760066468455
 30
0.0
 40
1.880000000000418
100
AcDbArc
 50
-88.87978471331718
 51
-16.30486025877483
  0
ARC
  5
4B5
330
4C
100
AcDbEntity
  8
0
  6
Continuous
 62
     7
100
AcDbCircle
 10
282.8721730494
 20
-398.0010494160456
 30
0.0
 40
20.55851870002037
100
AcDbArc
 50
-89.99826291205221
 51
-88.88123962969993
  0
ARC
  5
4B6
330
4C
100
AcDbEntity
  8
0
  6
Continuous
 62
     7
100
AcDbCircle
 10
264.2563547179999
 20
-398.4235900792455
 30
0.0
 40
1.88000000000042
100
AcDbArc
 50
-178.8797847133137
 51
-106.304860258771
  0
ARC
  5
4B7
330
4C
100
AcDbEntity
  8
0
  6
Continuous
 62
     7
100
AcDbCircle
 10
282.8332536483999
 20
-398.0599031334455
 30
0.0
 40
20.46045787680595
100
AcDbArc
 50
180.0
 51
-178.8785627571987
  0
ARC
  5
4B8
330
4C
100
AcDbEntity
  8
0
  6
Continuous
 62
     7
100
AcDbCircle
 10
282.5087712855999
 20
-379.4431240826455
 30
0.0
 40
1.880000000000533
100
AcDbArc
 50
91.1202152866845
 51
163.6951397412257
  0
ARC
  5
4B9
330
4C
100
AcDbEntity
  8
0
  6
Continuous
 62
     7
100
AcDbCircle
 10
282.8728682564
 20
-398.0616991640454
 30
0.0
 40
20.50213219011414
100
AcDbArc
 50
90.00020097783397
 51
91.1202964799997
  0
ARC
  5
4BA
330
4C
100
AcDbEntity
  8
0
  6
Continuous
 62
     7
100
AcDbCircle
 10
407.2115349094
 20
-200.0579439242455
 30
0.0
 40
3.038471377895955
100
AcDbArc
 50
-19.24735155537519
 51
22.58210147648699
  0
ARC
  5
4BB
330
4C
100
AcDbEntity
  8
0
  6
Continuous
 62
     7
100
AcDbCircle
 10
418.0612783389998
 20
-173.8710875594455
 30
0.0
 40
28.57794323780804
100
AcDbArc
 50
-162.0600703809988
 51
-107.9399528372002
  0
ARC
  5
4BC
330
4C
100
AcDbEntity
  8
0
  6
Continuous
 62
     7
100
AcDbCircle
 10
391.880908858
 20
-184.4978598972455
 30
0.0
 40
2.831226339685055
100
AcDbArc
 50
65.80624223512004
 51
110.8590078414163
  0
ARC
  5
4BD
330
4C
100
AcDbEntity
  8
0
  6
Continuous
 62
     7
100
AcDbCircle
 10
417.035752502
 20
-174.8966098292456
 30
0.0
 40
25.00000353785401
100
AcDbArc
 50
-163.6951373437161
 51
-106.3048626563653
  0
ARC
  5
4BE
330
4C
100
AcDbEntity
  8
0
  6
Continuous
 62
     7
100
AcDbCircle
 10
418.0745786412
 20
-228.2613465664456
 30
0.0
 40
28.59469491290995
100
AcDbArc
 50
107.9570984358312
 51
162.0429247821982
  0
ARC
  5
4BF
330
4C
100
AcDbEntity
  8
0
  6
Continuous
 62
     7
100
AcDbCircle
 10
363.6709743001999
 20
-228.2613844584455
 30
0.0
 40
28.59474264151685
100
AcDbArc
 50
17.95712403621233
 51
72.04285274570218
  0
ARC
  5
4C0
330
4C
100
AcDbEntity
  8
0
  6
Continuous
 62
     7
100
AcDbCircle
 10
363.6709632894
 20
-173.8577383596455
 30
0.0
 40
28.59475651066331
100
AcDbArc
 50
-72.04283855995637
 51
-17.95713822209341
  0
ARC
  5
4C1
330
4C
100
AcDbEntity
  8
0
  6
Continuous
 62
     7
100
AcDbCircle
 10
391.8744202367999
 20
-217.3983618152455
 30
0.0
 40
3.038412636041393
100
AcDbArc
 50
-109.2477748731194
 51
-67.41747520579706
  0
ARC
  5
4C2
330
4C
100
AcDbEntity
  8
0
  6
Continuous
 62
     7
100
AcDbCircle
 10
407.434676794
 20
-202.0676814446455
 30
0.0
 40
2.831063795708045
100
AcDbArc
 50
-24.19504628479097
 51
20.86028491156523
  0
ARC
  5
4C3
330
4C
100
AcDbEntity
  8
0
  6
Continuous
 62
     7
100
AcDbCircle
 10
417.0357418145999
 20
-227.2225058618456
 30
0.0
 40
24.99999027978557
100
AcDbArc
 50
106.304846024279
 51
163.6951539755695
  0
ARC
  5
4C4
330
4C
100
AcDbEntity
  8
0
  6
Continuous
 62
     7
100
AcDbCircle
 10
374.5340252299999
 20
-202.0611867892455
 30
0.0
 40
3.038441372433762
100
AcDbArc
 50
160.7525131118011
 51
-157.4177517391165
  0
ARC
  5
4C5
330
4C
100
AcDbEntity
  8
0
  6
Continuous
 62
     7
100
AcDbCircle
 10
389.8646785350001
 20
-217.6213846660455
 30
0.0
 40
2.831117126057533
100
AcDbArc
 50
-114.1946744765871
 51
-69.14007544303102
  0
ARC
  5
4C6
330
4C
100
AcDbEntity
  8
0
  6
Continuous
 62
     7
100
AcDbCircle
 10
364.7098276441999
 20
-227.2225272364456
 30
0.0
 40
25.00001679555685
100
AcDbArc
 50
16.30487928824591
 51
73.69512071169044
  0
ARC
  5
4C7
330
4C
100
AcDbEntity
  8
0
  6
Continuous
 62
     7
100
AcDbCircle
 10
374.3111692041999
 20
-200.0514558252455
 30
0.0
 40
2.83130101108883
100
AcDbArc
 50
155.8068689637959
 51
-159.1416188826113
  0
ARC
  5
4C8
330
4C
100
AcDbEntity
  8
0
  6
Continuous
 62
     7
100
AcDbCircle
 10
364.7098654828
 20
-174.8966369804455
 30
0.0
 40
24.9999698557748
100
AcDbArc
 50
-73.69517959750652
 51
-16.30482040279792
  0
ARC
  5
4C9
330
4C
100
AcDbEntity
  8
0
  6
Continuous
 62
     7
100
AcDbCircle
 10
389.8711716229999
 20
-184.7207998198455
 30
0.0
 40
3.038445583601707
100
AcDbArc
 50
70.75246256233027
 51
112.5822873581622
  0
ARC
  5
4CA
330
4C
100
AcDbEntity
  8
0
  6
Continuous
 62
     7
100
AcDbCircle
 10
390.86801538
 20
-201.5532410784456
 30
0.0
 40
20.00632324800441
100
AcDbArc
 50
-91.1341765117986
 51
-89.98631053170108
  0
ARC
  5
4CB
330
4C
100
AcDbEntity
  8
0
  6
Continuous
 62
     7
100
AcDbCircle
 10
390.5087712855999
 20
-219.6760066468455
 30
0.0
 40
1.880000000000135
100
AcDbArc
 50
-163.6951397414162
 51
-91.12021528667766
  0
ARC
  5
4CC
330
4C
100
AcDbEntity
  8
0
  6
Continuous
 62
     7
100
AcDbCircle
 10
390.7309973499999
 20
-201.0581254956455
 30
0.0
 40
20.64180240858336
100
AcDbArc
 50
-1.1165069033989
 51
0.0
  0
ARC
  5
4CD
330
4C
100
AcDbEntity
  8
0
  6
Continuous
 62
     7
100
AcDbCircle
 10
409.4892372819999
 20
-201.4235900792455
 30
0.0
 40
1.880000000000427
100
AcDbArc
 50
-73.69513974141967
 51
-1.1202152866836
  0
ARC
  5
4CE
330
4C
100
AcDbEntity
  8
0
  6
Continuous
 62
     7
100
AcDbCircle
 10
390.8629800201999
 20
-202.0585042022456
 30
0.0
 40
21.49894381991857
100
AcDbArc
 50
88.90567148879892
 51
89.97384146769984
  0
ARC
  5
4CF
330
4C
100
AcDbEntity
  8
0
  6
Continuous
 62
     7
100
AcDbCircle
 10
391.2368207143999
 20
-182.4431240826455
 30
0.0
 40
1.880000000000385
100
AcDbArc
 50
16.30486025858523
 51
88.87978471331722
  0
ARC
  5
4D0
330
4C
100
AcDbEntity
  8
0
  6
Continuous
 62
     7
100
AcDbCircle
 10
390.3658302503999
 20
-201.0546569130455
 30
0.0
 40
19.9930322775689
100
AcDbArc
 50
178.8654419361986
 51
-179.9859289796975
  0
ARC
  5
4D1
330
4C
100
AcDbEntity
  8
0
  6
Continuous
 62
     7
100
AcDbCircle
 10
372.2563547179999
 20
-200.6955406502455
 30
0.0
 40
1.880000000000346
100
AcDbArc
 50
106.3048602585811
 51
178.8797847133154
  0
ARC
  5
4D2
330
4C
100
AcDbEntity
  8
0
  6
Continuous
 62
     7
100
AcDbCircle
 10
409.4892372819999
 20
-200.6955406502455
 30
0.0
 40
1.88000000000059
100
AcDbArc
 50
1.12021528668446
 51
73.69513974122472
  0
ARC
  5
4D3
330
4C
100
AcDbEntity
  8
0
  6
Continuous
 62
     7
100
AcDbCircle
 10
390.6335389262
 20
-201.0619538440456
 30
0.0
 40
20.73926091946402
100
AcDbArc
 50
0.0
 51
1.11389273959924
  0
ARC
  5
4D4
330
4C
100
AcDbEntity
  8
0
  6
Continuous
 62
     7
100
AcDbCircle
 10
391.2368207143999
 20
-219.6760066468455
 30
0.0
 40
1.88000000000039
100
AcDbArc
 50
-88.87978471331715
 51
-16.30486025877483
  0
ARC
  5
4D5
330
4C
100
AcDbEntity
  8
0
  6
Continuous
 62
     7
100
AcDbCircle
 10
390.8727375463999
 20
-201.0584869216455
 30
0.0
 40
20.50107683384777
100
AcDbArc
 50
-89.99983826603699
 51
-88.87967469050223
  0
ARC
  5
4D6
330
4C
100
AcDbEntity
  8
0
  6
Continuous
 62
     7
100
AcDbCircle
 10
372.2563547179999
 20
-201.4235900792455
 30
0.0
 40
1.880000000000419
100
AcDbArc
 50
-178.8797847133163
 51
-106.3048602587713
  0
ARC
  5
4D7
330
4C
100
AcDbEntity
  8
0
  6
Continuous
 62
     7
100
AcDbCircle
 10
390.6467460726
 20
-201.0617225966455
 30
0.0
 40
20.27394761137413
100
AcDbArc
 50
180.0
 51
-178.8733999993007
  0
ARC
  5
4D8
330
4C
100
AcDbEntity
  8
0
  6
Continuous
 62
     7
100
AcDbCircle
 10
390.5087712855999
 20
-182.4431240826455
 30
0.0
 40
1.8800000000005
100
AcDbArc
 50
91.12021528667758
 51
163.6951397412248
  0
ARC
  5
4D9
330
4C
100
AcDbEntity
  8
0
  6
Continuous
 62
     7
100
AcDbCircle
 10
390.8734596447999
 20
-201.1226493496455
 30
0.0
 40
20.56308673742406
100
AcDbArc
 50
90.00185076609148
 51
91.11863627719914
  0
ARC
  5
4DA
330
4C
100
AcDbEntity
  8
0
  6
Continuous
 62
     7
100
AcDbCircle
 10
299.2115849956
 20
-200.0579423846455
 30
0.0
 40
3.038421953984875
100
AcDbArc
 50
-19.24770772300424
 51
22.58245764419095
  0
ARC
  5
4DB
330
4C
100
AcDbEntity
  8
0
  6
Continuous
 62
     7
100
AcDbCircle
 10
310.0612581833999
 20
-173.8711068550456
 30
0.0
 40
28.57791723989195
100
AcDbArc
 50
-162.0600941686027
 51
-107.9399174405004
  0
ARC
  5
4DC
330
4C
100
AcDbEntity
  8
0
  6
Continuous
 62
     7
100
AcDbCircle
 10
283.8809091621999
 20
-184.4978127104455
 30
0.0
 40
2.831182024879017
100
AcDbArc
 50
65.80590820559507
 51
110.8593361486113
  0
ARC
  5
4DD
330
4C
100
AcDbEntity
  8
0
  6
Continuous
 62
     7
100
AcDbCircle
 10
309.0357414685999
 20
-174.8966180612455
 30
0.0
 40
24.99999332571678
100
AcDbArc
 50
-163.6951501545033
 51
-106.3048498456726
  0
ARC
  5
4DE
330
4C
100
AcDbEntity
  8
0
  6
Continuous
 62
     7
100
AcDbCircle
 10
310.0745552999999
 20
-228.2613240876456
 30
0.0
 40
28.59466489975646
100
AcDbArc
 50
107.9570589695649
 51
162.0429526395988
  0
ARC
  5
4DF
330
4C
100
AcDbEntity
  8
0
  6
Continuous
 62
     7
100
AcDbCircle
 10
255.6710013159999
 20
-228.2613610460455
 30
0.0
 40
28.59471060244391
100
AcDbArc
 50
17.95709552787394
 51
72.04289866770043
  0
ARC
  5
4E0
330
4C
100
AcDbEntity
  8
0
  6
Continuous
 62
     7
100
AcDbCircle
 10
255.6709814202
 20
-173.8577528870455
 30
0.0
 40
28.59473566324316
100
AcDbArc
 50
-72.04287303496778
 51
-17.95712116074243
  0
ARC
  5
4E1
330
4C
100
AcDbEntity
  8
0
  6
Continuous
 62
     7
100
AcDbCircle
 10
283.8744198257999
 20
-217.3983848190455
 30
0.0
 40
3.038390478081538
100
AcDbArc
 50
-109.2478941078983
 51
-67.41735024519225
  0
ARC
  5
4E2
330
4C
100
AcDbEntity
  8
0
  6
Continuous
 62
     7
100
AcDbCircle
 10
299.4346149045999
 20
-202.0676797246455
 30
0.0
 40
2.831118398173265
100
AcDbArc
 50
-24.19458793901083
 51
20.85982656787195
  0
ARC
  5
4E3
330
4C
100
AcDbEntity
  8
0
  6
Continuous
 62
     7
100
AcDbCircle
 10
309.0357497005999
 20
-227.2225165490455
 30
0.0
 40
25.00000353761035
100
AcDbArc
 50
106.3048626565142
 51
163.6951373439865
  0
ARC
  5
4E4
330
4C
100
AcDbEntity
  8
0
  6
Continuous
 62
     7
100
AcDbCircle
 10
266.3110049139999
 20
-200.0514531800454
 30
0.0
 40
2.831145826573792
100
AcDbArc
 50
155.8055166672815
 51
-159.1403649364076
  0
ARC
  5
4E5
330
4C
100
AcDbEntity
  8
0
  6
Continuous
 62
     7
100
AcDbCircle
 10
256.709854331
 20
-174.8966211796455
 30
0.0
 40
24.99998945716689
100
AcDbArc
 50
-73.69515500749843
 51
-16.30484499259853
  0
ARC
  5
4E6
330
4C
100
AcDbEntity
  8
0
  6
Continuous
 62
     7
100
AcDbCircle
 10
281.8711738815999
 20
-184.7207768156454
 30
0.0
 40
3.03842342525274
100
AcDbArc
 50
70.75234332626412
 51
112.582412317521
  0
ARC
  5
4E7
330
4C
100
AcDbEntity
  8
0
  6
Continuous
 62
     7
100
AcDbCircle
 10
266.5339742954
 20
-202.0611859432455
 30
0.0
 40
3.038390375329333
100
AcDbArc
 50
160.7521942265554
 51
-157.4173345058901
  0
ARC
  5
4E8
330
4C
100
AcDbEntity
  8
0
  6
Continuous
 62
     7
100
AcDbCircle
 10
281.8646800906
 20
-217.6214314480455
 30
0.0
 40
2.83107318552257
100
AcDbArc
 50
-114.1950053934956
 51
-69.13975025508462
  0
ARC
  5
4E9
330
4C
100
AcDbEntity
  8
0
  6
Continuous
 62
     7
100
AcDbCircle
 10
256.7098273493999
 20
-227.2225321802455
 30
0.0
 40
25.00002292882244
100
AcDbArc
 50
16.30488698188074
 51
73.69511301772735
  0
ARC
  5
4EA
330
4C
100
AcDbEntity
  8
0
  6
Continuous
 62
     7
100
AcDbCircle
 10
282.8678244715999
 20
-201.5732352844455
 30
0.0
 40
19.98632908939779
100
AcDbArc
 50
-91.13475055629742
 51
-89.98574690159707
  0
ARC
  5
4EB
330
4C
100
AcDbEntity
  8
0
  6
Continuous
 62
     7
100
AcDbCircle
 10
282.5087712855999
 20
-219.6760066468455
 30
0.0
 40
1.880000000000245
100
AcDbArc
 50
-163.6951397414171
 51
-91.12021528668458
  0
ARC
  5
4EC
330
4C
100
AcDbEntity
  8
0
  6
Continuous
 62
     7
100
AcDbCircle
 10
282.6872566838
 20
-201.0576978010455
 30
0.0
 40
20.68554030742101
100
AcDbArc
 50
-1.11533071470019
 51
0.0
  0
ARC
  5
4ED
330
4C
100
AcDbEntity
  8
0
  6
Continuous
 62
     7
100
AcDbCircle
 10
301.489237282
 20
-201.4235900792455
 30
0.0
 40
1.880000000000411
100
AcDbArc
 50
-73.69513974142131
 51
-1.12021528692698
  0
ARC
  5
4EE
330
4C
100
AcDbEntity
  8
0
  6
Continuous
 62
     7
100
AcDbCircle
 10
282.8631683294
 20
-202.0389508978456
 30
0.0
 40
21.4793904328217
100
AcDbArc
 50
88.90518504120206
 51
89.9743175009007
  0
ARC
  5
4EF
330
4C
100
AcDbEntity
  8
0
  6
Continuous
 62
     7
100
AcDbCircle
 10
283.2368207143999
 20
-182.4431240826455
 30
0.0
 40
1.880000000000385
100
AcDbArc
 50
16.30486025858523
 51
88.87978471331722
  0
ARC
  5
4F0
330
4C
100
AcDbEntity
  8
0
  6
Continuous
 62
     7
100
AcDbCircle
 10
282.8713628971999
 20
-201.0596002436455
 30
0.0
 40
20.49856712282924
100
AcDbArc
 50
178.8796061154984
 51
180.0
  0
ARC
  5
4F1
330
4C
100
AcDbEntity
  8
0
  6
Continuous
 62
     7
100
AcDbCircle
 10
264.2563547179999
 20
-200.6955406502455
 30
0.0
 40
1.880000000000346
100
AcDbArc
 50
106.3048602585811
 51
178.8797847131942
  0
ARC
  5
4F2
330
4C
100
AcDbEntity
  8
0
  6
Continuous
 62
     7
100
AcDbCircle
 10
301.489237282
 20
-200.6955406502455
 30
0.0
 40
1.880000000000611
100
AcDbArc
 50
1.12021528680574
 51
73.69513974122638
  0
ARC
  5
4F3
330
4C
100
AcDbEntity
  8
0
  6
Continuous
 62
     7
100
AcDbCircle
 10
282.8408319609999
 20
-201.0599268212454
 30
0.0
 40
20.53196494903415
100
AcDbArc
 50
0.0
 51
1.11948270039732
  0
ARC
  5
4F4
330
4C
100
AcDbEntity
  8
0
  6
Continuous
 62
     7
100
AcDbCircle
 10
283.2368207143999
 20
-219.6760066468455
 30
0.0
 40
1.88000000000039
100
AcDbArc
 50
-88.87978471331715
 51
-16.30486025877483
  0
ARC
  5
4F5
330
4C
100
AcDbEntity
  8
0
  6
Continuous
 62
     7
100
AcDbCircle
 10
282.8727244247999
 20
-201.0574315654455
 30
0.0
 40
20.50213219011411
100
AcDbArc
 50
-89.99979902216636
 51
-88.87970352
  0
ARC
  5
4F6
330
4C
100
AcDbEntity
  8
0
  6
Continuous
 62
     7
100
AcDbCircle
 10
264.2563547179999
 20
-201.4235900792455
 30
0.0
 40
1.880000000000419
100
AcDbArc
 50
-178.8797847133163
 51
-106.3048602587713
  0
ARC
  5
4F7
330
4C
100
AcDbEntity
  8
0
  6
Continuous
 62
     7
100
AcDbCircle
 10
282.8297673758
 20
-201.0599328794456
 30
0.0
 40
20.456971604822
100
AcDbArc
 50
180.0
 51
-178.8784671348976
  0
ARC
  5
4F8
330
4C
100
AcDbEntity
  8
0
  6
Continuous
 62
     7
100
AcDbCircle
 10
282.5087712855999
 20
-182.4431240826455
 30
0.0
 40
1.880000000000504
100
AcDbArc
 50
91.12021528668451
 51
163.6951397412248
  0
ARC
  5
4F9
330
4C
100
AcDbEntity
  8
0
  6
Continuous
 62
     7
100
AcDbCircle
 10
282.8734196316
 20
-201.1180813134455
 30
0.0
 40
20.55851870002042
100
AcDbArc
 50
90.00173708739064
 51
91.11876037030007
  0
ARC
  5
4FA
330
4C
100
AcDbEntity
  8
0
  6
Continuous
 62
     7
100
AcDbCircle
 10
202.2166477272
 20
-217.8983492848455
 30
0.0
 40
3.038424631846674
100
AcDbArc
 50
-109.247647976493
 51
-67.41759637659801
  0
ARC
  5
4FB
330
4C
100
AcDbEntity
  8
0
  6
Continuous
 62
     7
100
AcDbCircle
 10
228.4168007546
 20
-228.7613460558455
 30
0.0
 40
28.59468934332871
100
AcDbArc
 50
107.9570739046999
 51
162.0429086816749
  0
ARC
  5
4FC
330
4C
100
AcDbEntity
  8
0
  6
Continuous
 62
     7
100
AcDbCircle
 10
217.7768587082
 20
-202.5676788972455
 30
0.0
 40
2.831105617607941
100
AcDbArc
 50
-24.19474498890766
 51
20.85988526843087
  0
ARC
  5
4FD
330
4C
100
AcDbEntity
  8
0
  6
Continuous
 62
     7
100
AcDbCircle
 10
227.3779840094
 20
-227.7225229060455
 30
0.0
 40
25.00001016671786
100
AcDbArc
 50
106.3048709720413
 51
163.6951290276496
  0
ARC
  5
4FE
330
4C
100
AcDbEntity
  8
0
  6
Continuous
 62
     7
100
AcDbCircle
 10
217.5538152322
 20
-200.5579458250455
 30
0.0
 40
3.038421712042847
100
AcDbArc
 50
-19.24766083548613
 51
22.58250910898857
  0
ARC
  5
4FF
330
4C
100
AcDbEntity
  8
0
  6
Continuous
 62
     7
100
AcDbCircle
 10
228.4035234266
 20
-174.3710706986456
 30
0.0
 40
28.57796320300312
100
AcDbArc
 50
-162.0600456738005
 51
-107.9399601306944
  0
ARC
  5
500
330
4C
100
AcDbEntity
  8
0
  6
Continuous
 62
     7
100
AcDbCircle
 10
202.2231381158
 20
-184.9978141240455
 30
0.0
 40
2.831182394876816
100
AcDbArc
 50
65.80591131130463
 51
110.8593330439508
  0
ARC
  5
501
330
4C
100
AcDbEntity
  8
0
  6
Continuous
 62
     7
100
AcDbCircle
 10
227.3779837018001
 20
-175.3966058066455
 30
0.0
 40
25.00000978495998
100
AcDbArc
 50
-163.6951295068364
 51
-106.3048704937187
  0
ARC
  5
502
330
4C
100
AcDbEntity
  8
0
  6
Continuous
 62
     7
100
AcDbCircle
 10
174.013247699
 20
-228.7613473208455
 30
0.0
 40
28.59469178623056
100
AcDbArc
 50
17.95709239644196
 51
72.04291921269952
  0
ARC
  5
503
330
4C
100
AcDbEntity
  8
0
  6
Continuous
 62
     7
100
AcDbCircle
 10
174.0132067978
 20
-174.3577512058455
 30
0.0
 40
28.59473990671069
100
AcDbArc
 50
-72.04286431044262
 51
-17.95712408048002
  0
ARC
  5
504
330
4C
100
AcDbEntity
  8
0
  6
Continuous
 62
     7
100
AcDbCircle
 10
184.6532846208
 20
-200.5514533978455
 30
0.0
 40
2.831191785020486
100
AcDbArc
 50
155.8059522003092
 51
-159.1407021219312
  0
ARC
  5
505
330
4C
100
AcDbEntity
  8
0
  6
Continuous
 62
     7
100
AcDbCircle
 10
175.052071946
 20
-175.3966108424455
 30
0.0
 40
25.0000035377029
100
AcDbArc
 50
-73.69513734400144
 51
-16.30486265640171
  0
ARC
  5
506
330
4C
100
AcDbEntity
  8
0
  6
Continuous
 62
     7
100
AcDbCircle
 10
200.213402847
 20
-185.2207778290456
 30
0.0
 40
3.038423425375854
100
AcDbArc
 50
70.75234333107237
 51
112.582412317155
  0
ARC
  5
507
330
4C
100
AcDbEntity
  8
0
  6
Continuous
 62
     7
100
AcDbCircle
 10
184.8762235854
 20
-202.5611888288455
 30
0.0
 40
3.03840842277075
100
AcDbArc
 50
160.752275659564
 51
-157.4175142877119
  0
ARC
  5
508
330
4C
100
AcDbEntity
  8
0
  6
Continuous
 62
     7
100
AcDbCircle
 10
200.2069090442
 20
-218.1214328616454
 30
0.0
 40
2.831072815622189
100
AcDbArc
 50
-114.1950084985756
 51
-69.13974714884087
  0
ARC
  5
509
330
4C
100
AcDbEntity
  8
0
  6
Continuous
 62
     7
100
AcDbCircle
 10
175.052080178
 20
-227.7225093304455
 30
0.0
 40
24.99999332569667
100
AcDbArc
 50
16.30484984556769
 51
73.69515015473789
  0
ARC
  5
50A
330
4C
100
AcDbEntity
  8
0
  6
Continuous
 62
     7
100
AcDbCircle
 10
201.2100534368
 20
-202.0732362976455
 30
0.0
 40
19.98632908938577
100
AcDbArc
 50
-91.13475055629809
 51
-89.98574690159722
  0
ARC
  5
50B
330
4C
100
AcDbEntity
  8
0
  6
Continuous
 62
     7
100
AcDbCircle
 10
200.8510012856
 20
-220.1760066468455
 30
0.0
 40
1.880000000000354
100
AcDbArc
 50
-163.6951397414181
 51
-91.12021528668458
  0
ARC
  5
50C
330
4C
100
AcDbEntity
  8
0
  6
Continuous
 62
     7
100
AcDbCircle
 10
201.0652322484
 20
-201.5581443198455
 30
0.0
 40
20.64979367270306
100
AcDbArc
 50
-1.11602534360023
 51
0.0
  0
ARC
  5
50D
330
4C
100
AcDbEntity
  8
0
  6
Continuous
 62
     7
100
AcDbCircle
 10
219.8314672819999
 20
-201.9235900792455
 30
0.0
 40
1.880000000000467
100
AcDbArc
 50
-73.6951397414155
 51
-1.12021528680569
  0
ARC
  5
50E
330
4C
100
AcDbEntity
  8
0
  6
Continuous
 62
     7
100
AcDbCircle
 10
201.2134413328
 20
-201.7167091376455
 30
0.0
 40
20.65714556216299
100
AcDbArc
 50
88.88390634990174
 51
89.99560660660195
  0
ARC
  5
50F
330
4C
100
AcDbEntity
  8
0
  6
Continuous
 62
     7
100
AcDbCircle
 10
201.5790507144
 20
-182.9431240826455
 30
0.0
 40
1.880000000000385
100
AcDbArc
 50
16.30486025858523
 51
88.87978471331635
  0
ARC
  5
510
330
4C
100
AcDbEntity
  8
0
  6
Continuous
 62
     7
100
AcDbCircle
 10
201.3721067458
 20
-201.5611512798455
 30
0.0
 40
20.65708206692759
100
AcDbArc
 50
178.8839046413019
 51
180.0
  0
ARC
  5
511
330
4C
100
AcDbEntity
  8
0
  6
Continuous
 62
     7
100
AcDbCircle
 10
182.598584718
 20
-201.1955406502455
 30
0.0
 40
1.880000000000354
100
AcDbArc
 50
106.3048602585819
 51
178.8797847131943
  0
ARC
  5
512
330
4C
100
AcDbEntity
  8
0
  6
Continuous
 62
     7
100
AcDbCircle
 10
219.8314672819999
 20
-201.1955406502455
 30
0.0
 40
1.880000000000696
100
AcDbArc
 50
1.12021528680569
 51
73.69513974122306
  0
ARC
  5
513
330
4C
100
AcDbEntity
  8
0
  6
Continuous
 62
     7
100
AcDbCircle
 10
201.2056371032
 20
-201.5596117756455
 30
0.0
 40
20.50938876892602
100
AcDbArc
 50
0.0
 51
1.11983203140163
  0
ARC
  5
514
330
4C
100
AcDbEntity
  8
0
  6
Continuous
 62
     7
100
AcDbCircle
 10
201.5790507144
 20
-220.1760066468455
 30
0.0
 40
1.88000000000039
100
AcDbArc
 50
-88.87978471331628
 51
-16.30486025877532
  0
ARC
  5
515
330
4C
100
AcDbEntity
  8
0
  6
Continuous
 62
     7
100
AcDbCircle
 10
201.2149383378
 20
-201.5555122238454
 30
0.0
 40
20.50405254496054
100
AcDbArc
 50
-89.99975697966862
 51
-88.87975597659845
  0
ARC
  5
516
330
4C
100
AcDbEntity
  8
0
  6
Continuous
 62
     7
100
AcDbCircle
 10
182.598584718
 20
-201.9235900792455
 30
0.0
 40
1.880000000000504
100
AcDbArc
 50
-178.8797847133164
 51
-106.3048602587754
  0
ARC
  5
517
330
4C
100
AcDbEntity
  8
0
  6
Continuous
 62
     7
100
AcDbCircle
 10
201.2154036662
 20
-201.5595094302455
 30
0.0
 40
20.500378926694
100
AcDbArc
 50
180.0
 51
-178.8796556198018
  0
ARC
  5
518
330
4C
100
AcDbEntity
  8
0
  6
Continuous
 62
     7
100
AcDbCircle
 10
200.8510012856
 20
-182.9431240826455
 30
0.0
 40
1.880000000000504
100
AcDbArc
 50
91.12021528668451
 51
163.6951397412248
  0
ARC
  5
519
330
4C
100
AcDbEntity
  8
0
  6
Continuous
 62
     7
100
AcDbCircle
 10
201.215648597
 20
-201.6180823266454
 30
0.0
 40
20.55851869988224
100
AcDbArc
 50
90.00173708799804
 51
91.11876037030022
  0
ARC
  5
51A
330
4C
100
AcDbEntity
  8
0
  6
Continuous
 62
     7
100
AcDbCircle
 10
202.2166477272
 20
-414.8983536360454
 30
0.0
 40
3.038424631846889
100
AcDbArc
 50
-109.2476479764915
 51
-67.41759637659882
  0
ARC
  5
51B
330
4C
100
AcDbEntity
  8
0
  6
Continuous
 62
     7
100
AcDbCircle
 10
228.4168084308001
 20
-425.7613470602455
 30
0.0
 40
28.59469561379619
100
AcDbArc
 50
107.9570860014
 51
162.0429198030811
  0
ARC
  5
51C
330
4C
100
AcDbEntity
  8
0
  6
Continuous
 62
     7
100
AcDbCircle
 10
217.7768391212
 20
-399.5676792144454
 30
0.0
 40
2.83112513732734
100
AcDbArc
 50
-24.19465699781821
 51
20.85980872985704
  0
ARC
  5
51D
330
4C
100
AcDbEntity
  8
0
  6
Continuous
 62
     7
100
AcDbCircle
 10
227.3779675454
 20
-424.7225107932454
 30
0.0
 40
24.99998974262657
100
AcDbArc
 50
106.3048453503231
 51
163.6951546494192
  0
ARC
  5
51E
330
4C
100
AcDbEntity
  8
0
  6
Continuous
 62
     7
100
AcDbCircle
 10
217.5538254716
 20
-397.5579424274456
 30
0.0
 40
3.038412143304384
100
AcDbArc
 50
-19.2477297955211
 51
22.58257806630452
  0
ARC
  5
51F
330
4C
100
AcDbEntity
  8
0
  6
Continuous
 62
     7
100
AcDbCircle
 10
228.4034818873999
 20
-371.3711091386456
 30
0.0
 40
28.57791088844022
100
AcDbArc
 50
-162.0600992541019
 51
-107.9399065507139
  0
ARC
  5
520
330
4C
100
AcDbEntity
  8
0
  6
Continuous
 62
     7
100
AcDbCircle
 10
202.2231314936
 20
-381.9977336972454
 30
0.0
 40
2.831107777790571
100
AcDbArc
 50
65.80508590841191
 51
110.8597650465323
  0
ARC
  5
521
330
4C
100
AcDbEntity
  8
0
  6
Continuous
 62
     7
100
AcDbCircle
 10
227.3779713014
 20
-372.3966120270454
 30
0.0
 40
24.99999735859033
100
AcDbArc
 50
-163.6951256396929
 51
-106.3048492136498
  0
ARC
  5
522
330
4C
100
AcDbEntity
  8
0
  6
Continuous
 62
     7
100
AcDbCircle
 10
174.0132307024
 20
-425.7613576454455
 30
0.0
 40
28.59470979651371
100
AcDbArc
 50
17.95709328266796
 51
72.04289510809838
  0
ARC
  5
523
330
4C
100
AcDbEntity
  8
0
  6
Continuous
 62
     7
100
AcDbCircle
 10
174.0132663463999
 20
-371.3578076552456
 30
0.0
 40
28.59466489947014
100
AcDbArc
 50
-72.04294103021516
 51
-17.95704736032433
  0
ARC
  5
524
330
4C
100
AcDbEntity
  8
0
  6
Continuous
 62
     7
100
AcDbCircle
 10
184.8762542793999
 20
-399.5611888450455
 30
0.0
 40
3.038438427965816
100
AcDbArc
 50
160.7524109961909
 51
-157.4176610750073
  0
ARC
  5
525
330
4C
100
AcDbEntity
  8
0
  6
Continuous
 62
     7
100
AcDbCircle
 10
200.2069124844
 20
-415.1213190322455
 30
0.0
 40
2.831182024878812
100
AcDbArc
 50
-114.1940917944055
 51
-69.14066385498842
  0
ARC
  5
526
330
4C
100
AcDbEntity
  8
0
  6
Continuous
 62
     7
100
AcDbCircle
 10
175.0520981882
 20
-424.7224956712455
 30
0.0
 40
24.99997098353578
100
AcDbArc
 50
16.30482181744512
 51
73.69517818257361
  0
ARC
  5
527
330
4C
100
AcDbEntity
  8
0
  6
Continuous
 62
     7
100
AcDbCircle
 10
184.6533228148
 20
-397.5514514102456
 30
0.0
 40
2.831227079795193
100
AcDbArc
 50
155.8062484471027
 51
-159.1409983660525
  0
ARC
  5
528
330
4C
100
AcDbEntity
  8
0
  6
Continuous
 62
     7
100
AcDbCircle
 10
175.05208188
 20
-372.3966145966456
 30
0.0
 40
24.9999941708045
100
AcDbArc
 50
-73.69515478546914
 51
-16.30487036150122
  0
ARC
  5
529
330
4C
100
AcDbEntity
  8
0
  6
Continuous
 62
     7
100
AcDbCircle
 10
200.2134103364
 20
-382.2207008824455
 30
0.0
 40
3.038351237202554
100
AcDbArc
 50
70.75201760283927
 51
112.5831314390645
  0
ARC
  5
52A
330
4C
100
AcDbEntity
  8
0
  6
Continuous
 62
     7
100
AcDbCircle
 10
201.215984485
 20
-398.4274762690454
 30
0.0
 40
20.63208542251168
100
AcDbArc
 50
-91.1157037075027
 51
-90.00266366259741
  0
ARC
  5
52B
330
4C
100
AcDbEntity
  8
0
  6
Continuous
 62
     7
100
AcDbCircle
 10
200.8510012856
 20
-417.1760066468455
 30
0.0
 40
1.880000000000346
100
AcDbArc
 50
-163.6951397414189
 51
-91.12021528668457
  0
ARC
  5
52C
330
4C
100
AcDbEntity
  8
0
  6
Continuous
 62
     7
100
AcDbCircle
 10
201.0506871616
 20
-398.5580065370455
 30
0.0
 40
20.66433876921415
100
AcDbArc
 50
-1.11563387019865
 51
0.0
  0
ARC
  5
52D
330
4C
100
AcDbEntity
  8
0
  6
Continuous
 62
     7
100
AcDbCircle
 10
219.8314672819999
 20
-398.9235900792455
 30
0.0
 40
1.880000000000495
100
AcDbArc
 50
-73.69513974141574
 51
-1.12021528692693
  0
ARC
  5
52E
330
4C
100
AcDbEntity
  8
0
  6
Continuous
 62
     7
100
AcDbCircle
 10
201.2199346864
 20
-398.0526631572454
 30
0.0
 40
19.99309577260446
100
AcDbArc
 50
88.86544376020035
 51
90.01406919629918
  0
ARC
  5
52F
330
4C
100
AcDbEntity
  8
0
  6
Continuous
 62
     7
100
AcDbCircle
 10
201.5790507144
 20
-379.9431240826455
 30
0.0
 40
1.880000000000377
100
AcDbArc
 50
16.30486025858441
 51
88.87978471331637
  0
ARC
  5
530
330
4C
100
AcDbEntity
  8
0
  6
Continuous
 62
     7
100
AcDbCircle
 10
201.3721067458
 20
-398.5611481804456
 30
0.0
 40
20.6570820669276
100
AcDbArc
 50
178.8839046413008
 51
180.0
  0
ARC
  5
531
330
4C
100
AcDbEntity
  8
0
  6
Continuous
 62
     7
100
AcDbCircle
 10
182.598584718
 20
-398.1955406502455
 30
0.0
 40
1.880000000000463
100
AcDbArc
 50
106.3048602585809
 51
178.8797847131943
  0
ARC
  5
532
330
4C
100
AcDbEntity
  8
0
  6
Continuous
 62
     7
100
AcDbCircle
 10
219.8314672819999
 20
-398.1955406502455
 30
0.0
 40
1.880000000000776
100
AcDbArc
 50
1.1202152869304
 51
73.6951397412233
  0
ARC
  5
533
330
4C
100
AcDbEntity
  8
0
  6
Continuous
 62
     7
100
AcDbCircle
 10
201.2056371032
 20
-398.5596086762455
 30
0.0
 40
20.50938876892602
100
AcDbArc
 50
0.0
 51
1.11983203140163
  0
ARC
  5
534
330
4C
100
AcDbEntity
  8
0
  6
Continuous
 62
     7
100
AcDbCircle
 10
201.5790507144
 20
-417.1760066468455
 30
0.0
 40
1.880000000000419
100
AcDbArc
 50
-88.87978471331631
 51
-16.30486025877532
  0
ARC
  5
535
330
4C
100
AcDbEntity
  8
0
  6
Continuous
 62
     7
100
AcDbCircle
 10
201.2156481754
 20
-398.5891918780455
 30
0.0
 40
20.47036980069229
100
AcDbArc
 50
-90.00174338782783
 51
-88.8798996363991
  0
ARC
  5
536
330
4C
100
AcDbEntity
  8
0
  6
Continuous
 62
     7
100
AcDbCircle
 10
182.598584718
 20
-398.9235900792455
 30
0.0
 40
1.880000000000505
100
AcDbArc
 50
-178.8797847133138
 51
-106.3048602587752
  0
ARC
  5
537
330
4C
100
AcDbEntity
  8
0
  6
Continuous
 62
     7
100
AcDbCircle
 10
201.218910488
 20
-398.5594794914455
 30
0.0
 40
20.50388574850601
100
AcDbArc
 50
180.0
 51
-178.8797514208994
  0
ARC
  5
538
330
4C
100
AcDbEntity
  8
0
  6
Continuous
 62
     7
100
AcDbCircle
 10
200.8510012856
 20
-379.9431240826455
 30
0.0
 40
1.880000000000533
100
AcDbArc
 50
91.1202152866845
 51
163.6951397412257
  0
ARC
  5
539
330
4C
100
AcDbEntity
  8
0
  6
Continuous
 62
     7
100
AcDbCircle
 10
201.212882629
 20
-398.3352243808454
 30
0.0
 40
20.27565650666206
100
AcDbArc
 50
89.99394513613576
 51
91.12655232199825
  0
ARC
  5
53A
330
4C
100
AcDbEntity
  8
0
  6
Continuous
 62
     7
100
AcDbCircle
 10
94.22200742259992
 20
-414.8983267592455
 30
0.0
 40
3.038450409140093
100
AcDbArc
 50
-109.2475026628031
 51
-67.41774741610024
  0
ARC
  5
53B
330
4C
100
AcDbEntity
  8
0
  6
Continuous
 62
     7
100
AcDbCircle
 10
120.4221449629999
 20
-425.7613295846454
 30
0.0
 40
28.59466935355802
100
AcDbArc
 50
107.9570372223995
 51
162.0429395592905
  0
ARC
  5
53C
330
4C
100
AcDbEntity
  8
0
  6
Continuous
 62
     7
100
AcDbCircle
 10
109.7822463701999
 20
-399.5676827982454
 30
0.0
 40
2.831082575343972
100
AcDbArc
 50
-24.1949645025072
 51
20.86021458101787
  0
ARC
  5
53D
330
4C
100
AcDbEntity
  8
0
  6
Continuous
 62
     7
100
AcDbCircle
 10
119.3833350875999
 20
-424.7225161368456
 30
0.0
 40
24.99999637164587
100
AcDbArc
 50
106.3048536664
 51
163.6951463334544
  0
ARC
  5
53E
330
4C
100
AcDbEntity
  8
0
  6
Continuous
 62
     7
100
AcDbCircle
 10
66.01865562919994
 20
-425.7612894056456
 30
0.0
 40
28.59462554159798
100
AcDbArc
 50
17.95700426158483
 51
72.04297251999942
  0
ARC
  5
53F
330
4C
100
AcDbEntity
  8
0
  6
Continuous
 62
     7
100
AcDbCircle
 10
66.01868382339995
 20
-371.3578684450454
 30
0.0
 40
28.59459002831615
100
AcDbArc
 50
-72.04300884443143
 51
-17.95696793750127
  0
ARC
  5
540
330
4C
100
AcDbEntity
  8
0
  6
Continuous
 62
     7
100
AcDbCircle
 10
120.4088599129999
 20
-371.3710851272456
 30
0.0
 40
28.57793688608477
100
AcDbArc
 50
-162.0600655287758
 51
-107.9399112524301
  0
ARC
  5
541
330
4C
100
AcDbEntity
  8
0
  6
Continuous
 62
     7
100
AcDbCircle
 10
109.5591937871999
 20
-397.5579397852455
 30
0.0
 40
3.038405480761536
100
AcDbArc
 50
-19.24782643874666
 51
22.58257635999733
  0
ARC
  5
542
330
4C
100
AcDbEntity
  8
0
  6
Continuous
 62
     7
100
AcDbCircle
 10
94.2284927753999
 20
-381.9977057008455
 30
0.0
 40
2.831082616455402
100
AcDbArc
 50
65.80483676858854
 51
110.8600199118813
  0
ARC
  5
543
330
4C
100
AcDbEntity
  8
0
  6
Continuous
 62
     7
100
AcDbCircle
 10
119.3833284641999
 20
-372.3966170628455
 30
0.0
 40
24.99999111149115
100
AcDbArc
 50
-163.695133476456
 51
-106.3048413771151
  0
ARC
  5
544
330
4C
100
AcDbEntity
  8
0
  6
Continuous
 62
     7
100
AcDbCircle
 10
76.88158867219994
 20
-399.5611898712455
 30
0.0
 40
3.038405480660415
100
AcDbArc
 50
160.7521735611087
 51
-157.4174236399902
  0
ARC
  5
545
330
4C
100
AcDbEntity
  8
0
  6
Continuous
 62
     7
100
AcDbCircle
 10
92.21227499399993
 20
-415.1213858064455
 30
0.0
 40
2.831118190135034
100
AcDbArc
 50
-114.1945138260146
 51
-69.1402589999323
  0
ARC
  5
546
330
4C
100
AcDbEntity
  8
0
  6
Continuous
 62
     7
100
AcDbCircle
 10
67.05745960539991
 20
-424.7225039032455
 30
0.0
 40
24.99998119547255
100
AcDbArc
 50
16.30483462822513
 51
73.69516537176884
  0
ARC
  5
547
330
4C
100
AcDbEntity
  8
0
  6
Continuous
 62
     7
100
AcDbCircle
 10
76.65857427899994
 20
-397.5514479700455
 30
0.0
 40
2.831117865974341
100
AcDbArc
 50
155.8053317343873
 51
-159.1400816576077
  0
ARC
  5
548
330
4C
100
AcDbEntity
  8
0
  6
Continuous
 62
     7
100
AcDbCircle
 10
67.05744084179992
 20
-372.3966039092454
 30
0.0
 40
25.00000742895531
100
AcDbArc
 50
-73.69513815331152
 51
-16.30488699340152
  0
ARC
  5
549
330
4C
100
AcDbEntity
  8
0
  6
Continuous
 62
     7
100
AcDbCircle
 10
92.21877326019995
 20
-382.2206471862455
 30
0.0
 40
3.038299075509042
100
AcDbArc
 50
70.75176302710344
 51
112.5834031982295
  0
ARC
  5
54A
330
4C
100
AcDbEntity
  8
0
  6
Continuous
 62
     7
100
AcDbCircle
 10
93.22127874439991
 20
-398.4352032432455
 30
0.0
 40
20.62435844546324
100
AcDbArc
 50
-91.11591228480266
 51
-90.00248627029796
  0
ARC
  5
54B
330
4C
100
AcDbEntity
  8
0
  6
Continuous
 62
     7
100
AcDbCircle
 10
92.8563662855999
 20
-417.1760066468455
 30
0.0
 40
1.880000000000346
100
AcDbArc
 50
-163.6951397414189
 51
-91.12021528668284
  0
ARC
  5
54C
330
4C
100
AcDbEntity
  8
0
  6
Continuous
 62
     7
100
AcDbCircle
 10
93.22542353219995
 20
-398.0393304584454
 30
0.0
 40
19.97976310679685
100
AcDbArc
 50
88.86506050360076
 51
90.01445245289987
  0
ARC
  5
54D
330
4C
100
AcDbEntity
  8
0
  6
Continuous
 62
     7
100
AcDbCircle
 10
93.58441571439994
 20
-379.9431240826455
 30
0.0
 40
1.880000000000377
100
AcDbArc
 50
16.30486025858441
 51
88.8797847133155
  0
ARC
  5
54E
330
4C
100
AcDbEntity
  8
0
  6
Continuous
 62
     7
100
AcDbCircle
 10
93.06330606439991
 20
-398.5579814762455
 30
0.0
 40
20.65708206692758
100
AcDbArc
 50
-1.11609535869871
 51
0.0
  0
ARC
  5
54F
330
4C
100
AcDbEntity
  8
0
  6
Continuous
 62
     7
100
AcDbCircle
 10
111.8368322819999
 20
-398.9235900792455
 30
0.0
 40
1.880000000000463
100
AcDbArc
 50
-73.69513974141906
 51
-1.12021528680577
  0
ARC
  5
550
330
4C
100
AcDbEntity
  8
0
  6
Continuous
 62
     7
100
AcDbCircle
 10
93.37747639499992
 20
-398.5611481804456
 30
0.0
 40
20.65708206692757
100
AcDbArc
 50
178.8839046413008
 51
180.0
  0
ARC
  5
551
330
4C
100
AcDbEntity
  8
0
  6
Continuous
 62
     7
100
AcDbCircle
 10
74.60394971799991
 20
-398.1955406502455
 30
0.0
 40
1.880000000000455
100
AcDbArc
 50
106.3048602585801
 51
178.879784713312
  0
ARC
  5
552
330
4C
100
AcDbEntity
  8
0
  6
Continuous
 62
     7
100
AcDbCircle
 10
111.8368322819999
 20
-398.1955406502455
 30
0.0
 40
1.880000000000648
100
AcDbArc
 50
1.12021528693047
 51
73.69513974122663
  0
ARC
  5
553
330
4C
100
AcDbEntity
  8
0
  6
Continuous
 62
     7
100
AcDbCircle
 10
93.44302250099992
 20
-398.5574351590456
 30
0.0
 40
20.27736568153199
100
AcDbArc
 50
0.0
 51
1.12650464270103
  0
ARC
  5
554
330
4C
100
AcDbEntity
  8
0
  6
Continuous
 62
     7
100
AcDbCircle
 10
93.58441571439994
 20
-417.1760066468455
 30
0.0
 40
1.880000000000419
100
AcDbArc
 50
-88.87978471331544
 51
-16.30486025877435
  0
ARC
  5
555
330
4C
100
AcDbEntity
  8
0
  6
Continuous
 62
     7
100
AcDbCircle
 10
93.22103552639993
 20
-398.5921507074454
 30
0.0
 40
20.46741097222295
100
AcDbArc
 50
-90.00182447916632
 51
-88.8798185453997
  0
ARC
  5
556
330
4C
100
AcDbEntity
  8
0
  6
Continuous
 62
     7
100
AcDbCircle
 10
74.60394971799991
 20
-398.9235900792455
 30
0.0
 40
1.880000000000477
100
AcDbArc
 50
-178.8797847133137
 51
-106.3048602587744
  0
ARC
  5
557
330
4C
100
AcDbEntity
  8
0
  6
Continuous
 62
     7
100
AcDbCircle
 10
92.99775995839991
 20
-398.5616944976455
 30
0.0
 40
20.27736568153199
100
AcDbArc
 50
180.0
 51
-178.8734953572991
  0
ARC
  5
558
330
4C
100
AcDbEntity
  8
0
  6
Continuous
 62
     7
100
AcDbCircle
 10
92.8563662855999
 20
-379.9431240826455
 30
0.0
 40
1.880000000000532
100
AcDbArc
 50
91.12021528668278
 51
163.6951397412252
  0
ARC
  5
559
330
4C
100
AcDbEntity
  8
0
  6
Continuous
 62
     7
100
AcDbCircle
 10
93.21824226119992
 20
-398.3342061266455
 30
0.0
 40
20.27463825247541
100
AcDbArc
 50
89.99394810716954
 51
91.12658059519936
  0
ARC
  5
55A
330
4C
100
AcDbEntity
  8
0
  6
Continuous
 62
     7
100
AcDbCircle
 10
418.074627544
 20
-425.2613923698455
 30
0.0
 40
28.59475651059676
100
AcDbArc
 50
107.9571614400999
 51
162.0428617779994
  0
ARC
  5
55B
330
4C
100
AcDbEntity
  8
0
  6
Continuous
 62
     7
100
AcDbCircle
 10
363.6709743001999
 20
-425.2613813590456
 30
0.0
 40
28.59474264153608
100
AcDbArc
 50
17.95712403614944
 51
72.04285274570218
  0
ARC
  5
55C
330
4C
100
AcDbEntity
  8
0
  6
Continuous
 62
     7
100
AcDbCircle
 10
363.6710121922
 20
-370.8577841630454
 30
0.0
 40
28.59469491305025
100
AcDbArc
 50
-72.04290156413398
 51
-17.95707521780188
  0
ARC
  5
55D
330
4C
100
AcDbEntity
  8
0
  6
Continuous
 62
     7
100
AcDbCircle
 10
418.0612635034
 20
-370.8710992954455
 30
0.0
 40
28.57792455401156
100
AcDbArc
 50
-162.0600895168335
 51
-107.939933701247
  0
ARC
  5
55E
330
4C
100
AcDbEntity
  8
0
  6
Continuous
 62
     7
100
AcDbCircle
 10
391.8744192106
 20
-414.3983309096454
 30
0.0
 40
3.038445583687389
100
AcDbArc
 50
-109.2475374367888
 51
-67.41771264209162
  0
ARC
  5
55F
330
4C
100
AcDbEntity
  8
0
  6
Continuous
 62
     7
100
AcDbCircle
 10
407.4346580077998
 20
-399.0676817850456
 30
0.0
 40
2.831082575344032
100
AcDbArc
 50
-24.19496450250287
 51
20.86021458102074
  0
ARC
  5
560
330
4C
100
AcDbEntity
  8
0
  6
Continuous
 62
     7
100
AcDbCircle
 10
417.0357253507999
 20
-424.2224937490455
 30
0.0
 40
24.99996985588367
100
AcDbArc
 50
106.3048204030031
 51
163.6951795972887
  0
ARC
  5
561
330
4C
100
AcDbEntity
  8
0
  6
Continuous
 62
     7
100
AcDbCircle
 10
407.2115656033999
 20
-397.0579439402454
 30
0.0
 40
3.038441372537424
100
AcDbArc
 50
-19.24748688851661
 51
22.58224826088009
  0
ARC
  5
562
330
4C
100
AcDbEntity
  8
0
  6
Continuous
 62
     7
100
AcDbCircle
 10
391.8809122984
 20
-381.4977460634455
 30
0.0
 40
2.831117126055796
100
AcDbArc
 50
65.8053255233971
 51
110.8599245560412
  0
ARC
  5
563
330
4C
100
AcDbEntity
  8
0
  6
Continuous
 62
     7
100
AcDbCircle
 10
417.0357631891999
 20
-371.8966034930454
 30
0.0
 40
25.00001679555706
100
AcDbArc
 50
-163.6951207117497
 51
-106.3048792883088
  0
ARC
  5
564
330
4C
100
AcDbEntity
  8
0
  6
Continuous
 62
     7
100
AcDbCircle
 10
374.534055924
 20
-399.0611868052456
 30
0.0
 40
3.03847137789425
100
AcDbArc
 50
160.7526484446096
 51
-157.4178985235153
  0
ARC
  5
565
330
4C
100
AcDbEntity
  8
0
  6
Continuous
 62
     7
100
AcDbCircle
 10
389.8646819754
 20
-414.6212708322455
 30
0.0
 40
2.831226339685047
100
AcDbArc
 50
-114.1937577648838
 51
-69.14099215519624
  0
ARC
  5
566
330
4C
100
AcDbEntity
  8
0
  6
Continuous
 62
     7
100
AcDbCircle
 10
364.7098383316001
 20
-424.2225209002454
 30
0.0
 40
25.00000353766183
100
AcDbArc
 50
16.30486265641295
 51
73.69513734407522
  0
ARC
  5
567
330
4C
100
AcDbEntity
  8
0
  6
Continuous
 62
     7
100
AcDbCircle
 10
374.3111504167999
 20
-397.0514561656455
 30
0.0
 40
2.831282230157527
100
AcDbArc
 50
155.8067871896914
 51
-159.141548562605
  0
ARC
  5
568
330
4C
100
AcDbEntity
  8
0
  6
Continuous
 62
     7
100
AcDbCircle
 10
364.7098490187999
 20
-371.8966248676454
 30
0.0
 40
24.9999902797666
100
AcDbArc
 50
-73.69515397564086
 51
-16.30484602450114
  0
ARC
  5
569
330
4C
100
AcDbEntity
  8
0
  6
Continuous
 62
     7
100
AcDbCircle
 10
389.8711705965999
 20
-381.7207689142456
 30
0.0
 40
3.038412635923348
100
AcDbArc
 50
70.75222512386665
 51
112.5825247936065
  0
ARC
  5
56A
330
4C
100
AcDbEntity
  8
0
  6
Continuous
 62
     7
100
AcDbCircle
 10
390.882638123
 20
-397.0578336696456
 30
0.0
 40
21.5017366897727
100
AcDbArc
 50
-91.0942591365998
 51
-90.02622790689931
  0
ARC
  5
56B
330
4C
100
AcDbEntity
  8
0
  6
Continuous
 62
     7
100
AcDbCircle
 10
390.5087712855999
 20
-416.6760066468455
 30
0.0
 40
1.880000000000127
100
AcDbArc
 50
-163.695139741417
 51
-91.12021528667763
  0
ARC
  5
56C
330
4C
100
AcDbEntity
  8
0
  6
Continuous
 62
     7
100
AcDbCircle
 10
390.715717702
 20
-398.0579804628455
 30
0.0
 40
20.6570820669275
100
AcDbArc
 50
-1.11609535869824
 51
0.0
  0
ARC
  5
56D
330
4C
100
AcDbEntity
  8
0
  6
Continuous
 62
     7
100
AcDbCircle
 10
409.4892372819999
 20
-398.4235900792455
 30
0.0
 40
1.880000000000455
100
AcDbArc
 50
-73.69513974141991
 51
-1.12021528668619
  0
ARC
  5
56E
330
4C
100
AcDbEntity
  8
0
  6
Continuous
 62
     7
100
AcDbCircle
 10
390.877602763
 20
-397.5630967930456
 30
0.0
 40
20.00353039673867
100
AcDbArc
 50
88.86574335419913
 51
90.01376960229844
  0
ARC
  5
56F
330
4C
100
AcDbEntity
  8
0
  6
Continuous
 62
     7
100
AcDbCircle
 10
391.2368207143999
 20
-379.4431240826455
 30
0.0
 40
1.880000000000377
100
AcDbArc
 50
16.30486025858441
 51
88.87978471331724
  0
ARC
  5
570
330
4C
100
AcDbEntity
  8
0
  6
Continuous
 62
     7
100
AcDbCircle
 10
390.3524291726
 20
-398.0545301292455
 30
0.0
 40
19.9796312308818
100
AcDbArc
 50
178.8650569787003
 51
-179.9855648512999
  0
ARC
  5
571
330
4C
100
AcDbEntity
  8
0
  6
Continuous
 62
     7
100
AcDbCircle
 10
372.2563547179999
 20
-397.6955406502455
 30
0.0
 40
1.880000000000455
100
AcDbArc
 50
106.3048602585801
 51
178.879784713312
  0
ARC
  5
572
330
4C
100
AcDbEntity
  8
0
  6
Continuous
 62
     7
100
AcDbCircle
 10
409.4892372819999
 20
-397.6955406502455
 30
0.0
 40
1.880000000000592
100
AcDbArc
 50
1.12021528668793
 51
73.69513974122496
  0
ARC
  5
573
330
4C
100
AcDbEntity
  8
0
  6
Continuous
 62
     7
100
AcDbCircle
 10
390.6371402516
 20
-398.0619230236455
 30
0.0
 40
20.73565959092389
100
AcDbArc
 50
0.0
 51
1.113989020299
  0
ARC
  5
574
330
4C
100
AcDbEntity
  8
0
  6
Continuous
 62
     7
100
AcDbCircle
 10
391.2368207143999
 20
-416.6760066468455
 30
0.0
 40
1.880000000000418
100
AcDbArc
 50
-88.87978471331718
 51
-16.30486025877483
  0
ARC
  5
575
330
4C
100
AcDbEntity
  8
0
  6
Continuous
 62
     7
100
AcDbCircle
 10
390.8721861338
 20
-398.0021004206456
 30
0.0
 40
20.55746769498696
100
AcDbArc
 50
-89.99830186573463
 51
-88.88121109060165
  0
ARC
  5
576
330
4C
100
AcDbEntity
  8
0
  6
Continuous
 62
     7
100
AcDbCircle
 10
372.2563547179999
 20
-398.4235900792455
 30
0.0
 40
1.88000000000042
100
AcDbArc
 50
-178.8797847133137
 51
-106.304860258771
  0
ARC
  5
577
330
4C
100
AcDbEntity
  8
0
  6
Continuous
 62
     7
100
AcDbCircle
 10
390.6501641454
 20
-398.0616934842456
 30
0.0
 40
20.27736568153205
100
AcDbArc
 50
180.0
 51
-178.8734953572993
  0
ARC
  5
578
330
4C
100
AcDbEntity
  8
0
  6
Continuous
 62
     7
100
AcDbCircle
 10
390.5087712855999
 20
-379.4431240826455
 30
0.0
 40
1.880000000000528
100
AcDbArc
 50
91.12021528667756
 51
163.6951397412257
  0
ARC
  5
579
330
4C
100
AcDbEntity
  8
0
  6
Continuous
 62
     7
100
AcDbCircle
 10
390.8729082321999
 20
-398.0662628486455
 30
0.0
 40
20.50669587498642
100
AcDbArc
 50
90.00031520698775
 51
91.12017183660126
  0
ARC
  5
57A
330
4C
100
AcDbEntity
  8
0
  6
Continuous
 62
     7
100
AcDbCircle
 10
120.4221372867999
 20
-228.7613285802455
 30
0.0
 40
28.59466308309653
100
AcDbArc
 50
107.9570251257992
 51
162.0429284379018
  0
ARC
  5
57B
330
4C
100
AcDbEntity
  8
0
  6
Continuous
 62
     7
100
AcDbCircle
 10
66.01867262579992
 20
-228.7612790810455
 30
0.0
 40
28.59460753134741
100
AcDbArc
 50
17.95700337522459
 51
72.04299662460205
  0
ARC
  5
57C
330
4C
100
AcDbEntity
  8
0
  6
Continuous
 62
     7
100
AcDbCircle
 10
66.01862427499992
 20
-174.3578119960455
 30
0.0
 40
28.59466503502509
100
AcDbArc
 50
-72.04293212420409
 51
-17.957044657398
  0
ARC
  5
57D
330
4C
100
AcDbEntity
  8
0
  6
Continuous
 62
     7
100
AcDbCircle
 10
120.4089014523999
 20
-174.3710466874455
 30
0.0
 40
28.57798920076863
100
AcDbArc
 50
-162.0600119490913
 51
-107.9399648329572
  0
ARC
  5
57E
330
4C
100
AcDbEntity
  8
0
  6
Continuous
 62
     7
100
AcDbCircle
 10
109.5591835479999
 20
-200.5579431828455
 30
0.0
 40
3.03841504942383
100
AcDbArc
 50
-19.24775748098947
 51
22.58250740209881
  0
ARC
  5
57F
330
4C
100
AcDbEntity
  8
0
  6
Continuous
 62
     7
100
AcDbCircle
 10
94.2284993973999
 20
-184.9977861242455
 30
0.0
 40
2.831157230155938
100
AcDbArc
 50
65.80566215607541
 51
110.8595879194627
  0
ARC
  5
580
330
4C
100
AcDbEntity
  8
0
  6
Continuous
 62
     7
100
AcDbCircle
 10
119.3833408643999
 20
-175.3966108424455
 30
0.0
 40
25.00000353788881
100
AcDbArc
 50
-163.6951373433285
 51
-106.304862656208
  0
ARC
  5
581
330
4C
100
AcDbEntity
  8
0
  6
Continuous
 62
     7
100
AcDbCircle
 10
94.22200742259992
 20
-217.8983224080455
 30
0.0
 40
3.038450409140119
100
AcDbArc
 50
-109.2475026628029
 51
-67.41774741610044
  0
ARC
  5
582
330
4C
100
AcDbEntity
  8
0
  6
Continuous
 62
     7
100
AcDbCircle
 10
109.7822659569999
 20
-202.5676824812456
 30
0.0
 40
2.831063055896212
100
AcDbArc
 50
-24.19505249508951
 51
20.86029112310902
  0
ARC
  5
583
330
4C
100
AcDbEntity
  8
0
  6
Continuous
 62
     7
100
AcDbCircle
 10
119.3833515515999
 20
-227.7225282496455
 30
0.0
 40
25.00001679551471
100
AcDbArc
 50
106.3048792880972
 51
163.6951207116989
  0
ARC
  5
584
330
4C
100
AcDbEntity
  8
0
  6
Continuous
 62
     7
100
AcDbCircle
 10
76.88155797839994
 20
-202.5611898552455
 30
0.0
 40
3.038375475518314
100
AcDbArc
 50
160.7520382224993
 51
-157.417276849686
  0
ARC
  5
585
330
4C
100
AcDbEntity
  8
0
  6
Continuous
 62
     7
100
AcDbCircle
 10
92.21227155399993
 20
-218.1214996304454
 30
0.0
 40
2.831008986087233
100
AcDbArc
 50
-114.1954305259079
 51
-69.13934230019764
  0
ARC
  5
586
330
4C
100
AcDbEntity
  8
0
  6
Continuous
 62
     7
100
AcDbCircle
 10
67.05744159499994
 20
-227.7225175624456
 30
0.0
 40
25.00000353791895
100
AcDbArc
 50
16.30486265641778
 51
73.69513734324852
  0
ARC
  5
587
330
4C
100
AcDbEntity
  8
0
  6
Continuous
 62
     7
100
AcDbCircle
 10
76.65853608919991
 20
-200.5514499576455
 30
0.0
 40
2.831082575343864
100
AcDbArc
 50
155.8050354974962
 51
-159.1397854144777
  0
ARC
  5
588
330
4C
100
AcDbEntity
  8
0
  6
Continuous
 62
     7
100
AcDbCircle
 10
67.05743090779993
 20
-175.3966001552456
 30
0.0
 40
25.00001679553446
100
AcDbArc
 50
-73.69512071171539
 51
-16.30487928820007
  0
ARC
  5
589
330
4C
100
AcDbEntity
  8
0
  6
Continuous
 62
     7
100
AcDbCircle
 10
92.21876577059993
 20
-185.2207241308455
 30
0.0
 40
3.038371261783221
100
AcDbArc
 50
70.75208875098204
 51
112.5826840696713
  0
ARC
  5
58A
330
4C
100
AcDbEntity
  8
0
  6
Continuous
 62
     7
100
AcDbCircle
 10
93.21535616099993
 20
-202.0800660364455
 30
0.0
 40
19.97949936475766
100
AcDbArc
 50
-91.13494654609786
 51
-89.98558215619926
  0
ARC
  5
58B
330
4C
100
AcDbEntity
  8
0
  6
Continuous
 62
     7
100
AcDbCircle
 10
92.8563662855999
 20
-220.1760066468455
 30
0.0
 40
1.880000000000354
100
AcDbArc
 50
-163.6951397414181
 51
-91.12021528668285
  0
ARC
  5
58C
330
4C
100
AcDbEntity
  8
0
  6
Continuous
 62
     7
100
AcDbCircle
 10
93.0785857123999
 20
-201.5581265088455
 30
0.0
 40
20.64180240858347
100
AcDbArc
 50
-1.11650690339882
 51
0.0
  0
ARC
  5
58D
330
4C
100
AcDbEntity
  8
0
  6
Continuous
 62
     7
100
AcDbCircle
 10
111.8368322819999
 20
-201.9235900792455
 30
0.0
 40
1.880000000000435
100
AcDbArc
 50
-73.69513974141881
 51
-1.12021528692701
  0
ARC
  5
58E
330
4C
100
AcDbEntity
  8
0
  6
Continuous
 62
     7
100
AcDbCircle
 10
93.21894866839995
 20
-201.7014855644454
 30
0.0
 40
20.64192197803314
100
AcDbArc
 50
88.88349639310168
 51
89.99601656340229
  0
ARC
  5
58F
330
4C
100
AcDbEntity
  8
0
  6
Continuous
 62
     7
100
AcDbCircle
 10
93.58441571439994
 20
-182.9431240826455
 30
0.0
 40
1.880000000000385
100
AcDbArc
 50
16.30486025858523
 51
88.8797847133155
  0
ARC
  5
590
330
4C
100
AcDbEntity
  8
0
  6
Continuous
 62
     7
100
AcDbCircle
 10
93.37747639439993
 20
-201.5611512798455
 30
0.0
 40
20.65708206639547
100
AcDbArc
 50
178.8839046413005
 51
180.0
  0
ARC
  5
591
330
4C
100
AcDbEntity
  8
0
  6
Continuous
 62
     7
100
AcDbCircle
 10
74.60394971799991
 20
-201.1955406502455
 30
0.0
 40
1.880000000000346
100
AcDbArc
 50
106.3048602585811
 51
178.8797847133155
  0
ARC
  5
592
330
4C
100
AcDbEntity
  8
0
  6
Continuous
 62
     7
100
AcDbCircle
 10
111.8368322819999
 20
-201.1955406502455
 30
0.0
 40
1.880000000000568
100
AcDbArc
 50
1.12021528680577
 51
73.69513974122638
  0
ARC
  5
593
330
4C
100
AcDbEntity
  8
0
  6
Continuous
 62
     7
100
AcDbCircle
 10
93.44302249959992
 20
-201.5574382584455
 30
0.0
 40
20.27736568297998
100
AcDbArc
 50
0.0
 51
1.12650464269944
  0
ARC
  5
594
330
4C
100
AcDbEntity
  8
0
  6
Continuous
 62
     7
100
AcDbCircle
 10
93.58441571439994
 20
-220.1760066468455
 30
0.0
 40
1.880000000000391
100
AcDbArc
 50
-88.87978471331542
 51
-16.30486025877435
  0
ARC
  5
595
330
4C
100
AcDbEntity
  8
0
  6
Continuous
 62
     7
100
AcDbCircle
 10
93.22032590899994
 20
-201.5584879348455
 30
0.0
 40
20.50107683386769
100
AcDbArc
 50
-89.9998382664286
 51
-88.87967469050254
  0
ARC
  5
596
330
4C
100
AcDbEntity
  8
0
  6
Continuous
 62
     7
100
AcDbCircle
 10
74.60394971799991
 20
-201.9235900792455
 30
0.0
 40
1.880000000000476
100
AcDbArc
 50
-178.8797847133163
 51
-106.3048602587746
  0
ARC
  5
597
330
4C
100
AcDbEntity
  8
0
  6
Continuous
 62
     7
100
AcDbCircle
 10
92.99434188559991
 20
-201.5617236098456
 30
0.0
 40
20.27394761137396
100
AcDbArc
 50
180.0
 51
-178.8733999993009
  0
ARC
  5
598
330
4C
100
AcDbEntity
  8
0
  6
Continuous
 62
     7
100
AcDbCircle
 10
92.8563662855999
 20
-182.9431240826455
 30
0.0
 40
1.880000000000503
100
AcDbArc
 50
91.1202152866828
 51
163.6951397412243
  0
ARC
  5
599
330
4C
100
AcDbEntity
  8
0
  6
Continuous
 62
     7
100
AcDbCircle
 10
93.22100803299992
 20
-201.6170361256454
 30
0.0
 40
20.55747249882393
100
AcDbArc
 50
90.00173985944413
 51
91.11878884279791
  0
ARC
  5
59A
330
4C
100
AcDbEntity
  8
0
  6
Continuous
 62
     7
100
AcDbCircle
 10
184.838641781996
 20
-366.0483384322454
 30
0.0
 40
0.9999999999998099
100
AcDbArc
 50
-132.0604655136198
 51
-45.0000000000046
  0
ARC
  5
59B
330
4C
100
AcDbEntity
  8
0
  6
Continuous
 62
     7
100
AcDbCircle
 10
191.370308068396
 20
-358.8095653646456
 30
0.0
 40
10.75000000000045
100
AcDbArc
 50
-137.9395344863976
 51
-132.0604655135364
  0
ARC
  5
59C
330
4C
100
AcDbEntity
  8
0
  6
Continuous
 62
     7
100
AcDbCircle
 10
184.1315350007959
 20
-365.3412316510455
 30
0.0
 40
0.9999999999991841
100
AcDbArc
 50
134.9999999999943
 51
-137.9395344856528
  0
ARC
  5
59D
330
4C
100
AcDbEntity
  8
0
  6
Continuous
 62
     7
100
AcDbCircle
 10
191.370308068396
 20
-358.8095653646456
 30
0.0
 40
8.99999999999958
100
AcDbArc
 50
-170.4059317731009
 51
-144.5940682260102
  0
ARC
  5
59E
330
4C
100
AcDbEntity
  8
0
  6
Continuous
 62
     7
100
AcDbCircle
 10
181.633137021396
 20
-359.3095653646456
 30
0.0
 40
0.9999999999996626
100
AcDbArc
 50
-177.0604655134542
 51
-90.0
  0
ARC
  5
59F
330
4C
100
AcDbEntity
  8
0
  6
Continuous
 62
     7
100
AcDbCircle
 10
191.370308068396
 20
-358.8095653646456
 30
0.0
 40
10.75000000000004
100
AcDbArc
 50
177.0604655135973
 51
-177.0604655135347
  0
ARC
  5
5A0
330
4C
100
AcDbEntity
  8
0
  6
Continuous
 62
     7
100
AcDbCircle
 10
181.633137021396
 20
-358.3095653646456
 30
0.0
 40
1.0
100
AcDbArc
 50
90.0
 51
177.0604655141264
  0
ARC
  5
5A1
330
4C
100
AcDbEntity
  8
0
  6
Continuous
 62
     7
100
AcDbCircle
 10
191.370308068396
 20
-358.8095653646456
 30
0.0
 40
8.999999999998929
100
AcDbArc
 50
144.5940682268988
 51
170.4059317730871
  0
ARC
  5
5A2
330
4C
100
AcDbEntity
  8
0
  6
Continuous
 62
     7
100
AcDbCircle
 10
184.1315350007959
 20
-352.2778990784454
 30
0.0
 40
0.9999999999997045
100
AcDbArc
 50
137.9395344863748
 51
-134.9999999999908
  0
ARC
  5
5A3
330
4C
100
AcDbEntity
  8
0
  6
Continuous
 62
     7
100
AcDbCircle
 10
191.370308068396
 20
-358.8095653646456
 30
0.0
 40
10.75000000000069
100
AcDbArc
 50
132.0604655136029
 51
137.939534487255
  0
ARC
  5
5A4
330
4C
100
AcDbEntity
  8
0
  6
Continuous
 62
     7
100
AcDbCircle
 10
184.838641781996
 20
-351.5707922972454
 30
0.0
 40
0.9999999999992645
100
AcDbArc
 50
45.00000000000115
 51
132.0604655066742
  0
ARC
  5
5A5
330
4C
100
AcDbEntity
  8
0
  6
Continuous
 62
     7
100
AcDbCircle
 10
191.370308068396
 20
-358.8095653646456
 30
0.0
 40
8.9999999999996
100
AcDbArc
 50
99.5940682268998
 51
125.4059317736895
  0
ARC
  5
5A6
330
4C
100
AcDbEntity
  8
0
  6
Continuous
 62
     7
100
AcDbCircle
 10
190.870308068396
 20
-349.0723943176454
 30
0.0
 40
0.9999999999994245
100
AcDbArc
 50
92.93953448643887
 51
180.0
  0
ARC
  5
5A7
330
4C
100
AcDbEntity
  8
0
  6
Continuous
 62
     7
100
AcDbCircle
 10
191.370308068396
 20
-358.8095653646456
 30
0.0
 40
10.75000000000006
100
AcDbArc
 50
87.06046551359803
 51
92.93953448645526
  0
ARC
  5
5A8
330
4C
100
AcDbEntity
  8
0
  6
Continuous
 62
     7
100
AcDbCircle
 10
191.870308068396
 20
-349.0723943176454
 30
0.0
 40
1.0
100
AcDbArc
 50
0.0
 51
87.06046551413391
  0
ARC
  5
5A9
330
4C
100
AcDbEntity
  8
0
  6
Continuous
 62
     7
100
AcDbCircle
 10
191.370308068396
 20
-358.8095653646456
 30
0.0
 40
9.000000000000604
100
AcDbArc
 50
54.59406822690816
 51
80.40593177308719
  0
ARC
  5
5AA
330
4C
100
AcDbEntity
  8
0
  6
Continuous
 62
     7
100
AcDbCircle
 10
197.901974354796
 20
-351.5707922972454
 30
0.0
 40
0.9999999999997256
100
AcDbArc
 50
47.93953448637587
 51
135.0000000000035
  0
ARC
  5
5AB
330
4C
100
AcDbEntity
  8
0
  6
Continuous
 62
     7
100
AcDbCircle
 10
191.370308068396
 20
-358.8095653646456
 30
0.0
 40
10.75000000000057
100
AcDbArc
 50
42.06046551360424
 51
47.93953448575073
  0
ARC
  5
5AC
330
4C
100
AcDbEntity
  8
0
  6
Continuous
 62
     7
100
AcDbCircle
 10
198.609081135996
 20
-352.2778990784454
 30
0.0
 40
0.9999999999992444
100
AcDbArc
 50
-45.0000000000023
 51
42.06046552285738
  0
ARC
  5
5AD
330
4C
100
AcDbEntity
  8
0
  6
Continuous
 62
     7
100
AcDbCircle
 10
191.370308068396
 20
-358.8095653646456
 30
0.0
 40
8.999999999999629
100
AcDbArc
 50
9.59406822690087
 51
35.40593177295313
  0
ARC
  5
5AE
330
4C
100
AcDbEntity
  8
0
  6
Continuous
 62
     7
100
AcDbCircle
 10
201.107479115396
 20
-358.3095653646456
 30
0.0
 40
0.9999999999995606
100
AcDbArc
 50
2.93953448643195
 51
90.0
  0
ARC
  5
5AF
330
4C
100
AcDbEntity
  8
0
  6
Continuous
 62
     7
100
AcDbCircle
 10
191.370308068396
 20
-358.8095653646456
 30
0.0
 40
10.75000000000002
100
AcDbArc
 50
-2.93953448640093
 51
2.93953448645469
  0
ARC
  5
5B0
330
4C
100
AcDbEntity
  8
0
  6
Continuous
 62
     7
100
AcDbCircle
 10
198.609081135996
 20
-365.3412316510455
 30
0.0
 40
0.9999999999998058
100
AcDbArc
 50
-42.06046551362437
 51
45.0000000000023
  0
ARC
  5
5B1
330
4C
100
AcDbEntity
  8
0
  6
Continuous
 62
     7
100
AcDbCircle
 10
191.370308068396
 20
-358.8095653646456
 30
0.0
 40
8.999999999999595
100
AcDbArc
 50
-80.40593177310038
 51
-54.59406822689915
  0
ARC
  5
5B2
330
4C
100
AcDbEntity
  8
0
  6
Continuous
 62
     7
100
AcDbCircle
 10
191.870308068396
 20
-368.5467364118454
 30
0.0
 40
0.9999999999995322
100
AcDbArc
 50
-87.06046551356796
 51
0.0
  0
ARC
  5
5B3
330
4C
100
AcDbEntity
  8
0
  6
Continuous
 62
     7
100
AcDbCircle
 10
191.370308068396
 20
-358.8095653646456
 30
0.0
 40
10.74999999999995
100
AcDbArc
 50
-92.93953448640217
 51
-87.06046551359992
  0
ARC
  5
5B4
330
4C
100
AcDbEntity
  8
0
  6
Continuous
 62
     7
100
AcDbCircle
 10
190.870308068396
 20
-368.5467364118454
 30
0.0
 40
1.0
100
AcDbArc
 50
180.0
 51
-92.93953448645445
  0
ARC
  5
5B5
330
4C
100
AcDbEntity
  8
0
  6
Continuous
 62
     7
100
AcDbCircle
 10
191.370308068396
 20
-358.8095653646456
 30
0.0
 40
8.999999999996904
100
AcDbArc
 50
-125.4059317729525
 51
-99.59406822670094
  0
ARC
  5
5B6
330
4C
100
AcDbEntity
  8
0
  6
Continuous
 62
     7
100
AcDbCircle
 10
191.370308068396
 20
-358.8095653646456
 30
0.0
 40
7.499999999895556
100
AcDbArc
 50
76.50660117825686
 51
103.4933988215986
  0
ARC
  5
5B7
330
4C
100
AcDbEntity
  8
0
  6
Continuous
 62
     7
100
AcDbCircle
 10
191.370308068396
 20
-358.8095653646456
 30
0.0
 40
7.500000000089845
100
AcDbArc
 50
-103.493398821387
 51
-76.50660117861301
  0
ARC
  5
5B8
330
4C
100
AcDbEntity
  8
0
  6
Continuous
 62
     7
100
AcDbCircle
 10
191.370308068396
 20
-358.8095653646456
 30
0.0
 40
9.000000000000352
100
AcDbArc
 50
-35.40593177309209
 51
-9.59406822691291
  0
ARC
  5
5B9
330
4C
100
AcDbEntity
  8
0
  6
Continuous
 62
     7
100
AcDbCircle
 10
201.107479115396
 20
-359.3095653646456
 30
0.0
 40
1.0
100
AcDbArc
 50
-90.0
 51
-2.93953448585403
  0
ARC
  5
5BA
330
4C
100
AcDbEntity
  8
0
  6
Continuous
 62
     7
100
AcDbCircle
 10
191.370308068396
 20
-358.8095653646456
 30
0.0
 40
10.75000000000041
100
AcDbArc
 50
-47.93953448639602
 51
-42.06046551353555
  0
ARC
  5
5BB
330
4C
100
AcDbEntity
  8
0
  6
Continuous
 62
     7
100
AcDbCircle
 10
197.901974354796
 20
-366.0483384322454
 30
0.0
 40
1.00000000001912
100
AcDbArc
 50
-134.9999999999943
 51
-47.93953448565231
  0
ARC
  5
5BC
330
4C
100
AcDbEntity
  8
0
  6
Continuous
 62
     7
100
AcDbCircle
 10
231.936150941596
 20
-379.3754122250455
 30
0.0
 40
5.495513914261715
100
AcDbArc
 50
-90.01183628419484
 51
0.01185570159378
  0
ARC
  5
5BD
330
4C
100
AcDbEntity
  8
0
  6
Continuous
 62
     7
100
AcDbCircle
 10
231.931181134196
 20
-379.3704354306456
 30
0.0
 40
8.998352734012364
100
AcDbArc
 50
-89.9755841379056
 51
-0.02444849139447
  0
ARC
  5
5BE
330
4C
100
AcDbEntity
  8
0
  6
Continuous
 62
     7
100
AcDbCircle
 10
231.9311705409959
 20
-220.7487004646455
 30
0.0
 40
8.998363328518833
100
AcDbArc
 50
0.02446845230011
 51
89.97551671620363
  0
ARC
  5
5BF
330
4C
100
AcDbEntity
  8
0
  6
Continuous
 62
     7
100
AcDbCircle
 10
231.936161520396
 20
-220.7437099524454
 30
0.0
 40
5.495503337794042
100
AcDbArc
 50
-0.01196601530705
 51
90.01194659949783
  0
ARC
  5
5C0
330
4C
100
AcDbEntity
  8
0
  6
Continuous
 62
     7
100
AcDbCircle
 10
62.45390675349598
 20
-379.3754083928454
 30
0.0
 40
5.495517745885079
100
AcDbArc
 50
179.9881842607061
 51
-89.98818426070493
  0
ARC
  5
5C1
330
4C
100
AcDbEntity
  8
0
  6
Continuous
 62
     7
100
AcDbCircle
 10
62.45389617489594
 20
-220.7437137844455
 30
0.0
 40
5.495507169425095
100
AcDbArc
 50
89.98807394570628
 51
-179.9880739457066
  0
ARC
  5
5C2
330
4C
100
AcDbEntity
  8
0
  6
Continuous
 62
     7
100
AcDbCircle
 10
62.45889686489597
 20
-220.7487144744455
 30
0.0
 40
8.998377343185364
100
AcDbArc
 50
90.0245576185995
 51
179.9754423814003
  0
ARC
  5
5C3
330
4C
100
AcDbEntity
  8
0
  6
Continuous
 62
     7
100
AcDbCircle
 10
62.45888627169598
 20
-379.3704214210454
 30
0.0
 40
8.998366748645283
100
AcDbArc
 50
-179.9754623422973
 51
-90.02449019689944
  0
ARC
  5
5C4
330
4C
100
AcDbEntity
  8
0
  6
Continuous
 62
     7
100
AcDbCircle
 10
232.377672350196
 20
-379.8169280470454
 30
0.0
 40
8.992635845613268
100
AcDbArc
 50
-90.01198632399843
 51
0.01195666100159
  0
ARC
  5
5C5
330
4C
100
AcDbEntity
  8
0
  6
Continuous
 62
     7
100
AcDbCircle
 10
232.377672350196
 20
-220.3022047090456
 30
0.0
 40
8.992635845612503
100
AcDbArc
 50
-0.01195666100159
 51
90.01198632399843
  0
ARC
  5
5C6
330
4C
100
AcDbEntity
  8
0
  6
Continuous
 62
     7
100
AcDbCircle
 10
62.01238795689597
 20
-220.3022130156455
 30
0.0
 40
8.992644150975417
100
AcDbArc
 50
89.98804881339406
 51
-179.9880962741953
  0
ARC
  5
5C7
330
4C
100
AcDbEntity
  8
0
  6
Continuous
 62
     7
100
AcDbCircle
 10
62.01238795689597
 20
-379.8169197404454
 30
0.0
 40
8.992644150974764
100
AcDbArc
 50
179.9880962741958
 51
-89.98804881339406
  0
ARC
  5
5C8
330
4C
100
AcDbEntity
  8
0
  6
Continuous
 62
     7
100
AcDbCircle
 10
220.7162627144
 20
-395.5306347428455
 30
0.0
 40
7.00043812629195
100
AcDbArc
 50
90.01012439986974
 51
163.4136179934944
  0
ARC
  5
5C9
330
4C
100
AcDbEntity
  8
0
  6
Continuous
 62
     7
100
AcDbCircle
 10
220.7166566959999
 20
-395.8104623826455
 30
0.0
 40
7.000898876784135
100
AcDbArc
 50
90.01334810284438
 51
161.1528789147966
  0
ARC
  5
5CA
330
4C
100
AcDbEntity
  8
0
  6
Continuous
 62
     7
100
AcDbCircle
 10
181.7135427194
 20
-395.5309585520454
 30
0.0
 40
7.000761983521592
100
AcDbArc
 50
16.88469920309667
 51
89.98785423371393
  0
ARC
  5
5CB
330
4C
100
AcDbEntity
  8
0
  6
Continuous
 62
     7
100
AcDbCircle
 10
181.7135535218
 20
-204.5881682864456
 30
0.0
 40
7.000760448215027
100
AcDbArc
 50
-89.98794264029486
 51
-16.58841200979355
  0
ARC
  5
5CC
330
4C
100
AcDbEntity
  8
0
  6
Continuous
 62
     7
100
AcDbCircle
 10
220.7166947518
 20
-204.5879198372455
 30
0.0
 40
7.001008941344557
100
AcDbArc
 50
-163.1138024727943
 51
-90.01365933907583
  0
ARC
  5
5CD
330
4C
100
AcDbEntity
  8
0
  6
Continuous
 62
     7
100
AcDbCircle
 10
220.7164611846
 20
-204.3089355322455
 30
0.0
 40
7.000633675117328
100
AcDbArc
 50
-161.404693946894
 51
-90.01174847073818
  0
ARC
  5
5CE
330
4C
100
AcDbEntity
  8
0
  6
Continuous
 62
     7
100
AcDbCircle
 10
181.7135873902
 20
-395.8102035450454
 30
0.0
 40
7.000639997303089
100
AcDbArc
 50
18.59540756759972
 51
89.98821962412762
  0
ARC
  5
5CF
330
4C
100
AcDbEntity
  8
0
  6
Continuous
 62
     7
100
AcDbCircle
 10
181.7135977532
 20
-204.3089552686455
 30
0.0
 40
7.000613937449952
100
AcDbArc
 50
-89.98830439514737
 51
-18.84545333689832
  0
ARC
  5
5D0
330
4C
100
AcDbEntity
  8
0
  6
Continuous
 62
     7
100
AcDbCircle
 10
112.7218562805999
 20
-395.5309350180455
 30
0.0
 40
7.000738446583275
100
AcDbArc
 50
90.01203277938009
 51
163.4117858561951
  0
ARC
  5
5D1
330
4C
100
AcDbEntity
  8
0
  6
Continuous
 62
     7
100
AcDbCircle
 10
73.71892747079994
 20
-395.5309281420455
 30
0.0
 40
7.000731570368167
100
AcDbArc
 50
16.88451465959934
 51
89.98797778122324
  0
ARC
  5
5D2
330
4C
100
AcDbEntity
  8
0
  6
Continuous
 62
     7
100
AcDbCircle
 10
112.7218238211999
 20
-204.3089297396455
 30
0.0
 40
7.000639468243829
100
AcDbArc
 50
-161.4046598783081
 51
-90.01176728996461
  0
ARC
  5
5D3
330
4C
100
AcDbEntity
  8
0
  6
Continuous
 62
     7
100
AcDbCircle
 10
112.7218337365999
 20
-204.5882258172455
 30
0.0
 40
7.000702912183009
100
AcDbArc
 50
-163.1156592240954
 51
-90.01184833382968
  0
ARC
  5
5D4
330
4C
100
AcDbEntity
  8
0
  6
Continuous
 62
     7
100
AcDbCircle
 10
112.7218180385999
 20
-395.8101868624456
 30
0.0
 40
7.000623313058965
100
AcDbArc
 50
90.01171999010802
 51
161.1544917779073
  0
ARC
  5
5D5
330
4C
100
AcDbEntity
  8
0
  6
Continuous
 62
     7
100
AcDbCircle
 10
73.71918290939993
 20
-204.5885315920455
 30
0.0
 40
7.000397092779406
100
AcDbArc
 50
-89.99006788163007
 51
-16.58619527629724
  0
ARC
  5
5D6
330
4C
100
AcDbEntity
  8
0
  6
Continuous
 62
     7
100
AcDbCircle
 10
73.71895408419994
 20
-395.8102128402454
 30
0.0
 40
7.00064929307009
100
AcDbArc
 50
18.59546223589551
 51
89.98819545337211
  0
ARC
  5
5D7
330
4C
100
AcDbEntity
  8
0
  6
Continuous
 62
     7
100
AcDbCircle
 10
73.71870871179993
 20
-204.3085885004455
 30
0.0
 40
7.000980763224617
100
AcDbArc
 50
-89.98618789316014
 51
-18.84760033729599
  0
ARC
  5
5D8
330
4C
100
AcDbEntity
  8
0
  6
Continuous
 62
     7
100
AcDbCircle
 10
296.6421008359999
 20
-257.7592409136455
 30
0.0
 40
0.1999581050714392
100
AcDbArc
 50
89.99663224900232
 51
180.0
  0
ARC
  5
5D9
330
4C
100
AcDbEntity
  8
0
  6
Continuous
 62
     7
100
AcDbCircle
 10
296.668283782
 20
-257.7854201344455
 30
0.0
 40
0.1999559858812236
100
AcDbArc
 50
89.99602486076077
 51
180.0
  0
ARC
  5
5DA
330
4C
100
AcDbEntity
  8
0
  6
Continuous
 62
     7
100
AcDbCircle
 10
296.2421867459999
 20
-259.0596089206455
 30
0.0
 40
0.1999559856812346
100
AcDbArc
 50
-90.00397508195823
 51
0.0
  0
ARC
  5
5DB
330
4C
100
AcDbEntity
  8
0
  6
Continuous
 62
     7
100
AcDbCircle
 10
296.2683696921999
 20
-259.0857881416455
 30
0.0
 40
0.1999581047454535
100
AcDbArc
 50
-90.00336780651217
 51
0.0
  0
ARC
  5
5DC
330
4C
100
AcDbEntity
  8
0
  6
Continuous
 62
     7
100
AcDbCircle
 10
295.2421884447999
 20
-257.7592387942455
 30
0.0
 40
0.1999559857119948
100
AcDbArc
 50
0.0
 51
90.00397513923923
  0
ARC
  5
5DD
330
4C
100
AcDbEntity
  8
0
  6
Continuous
 62
     7
100
AcDbCircle
 10
295.2159996934
 20
-257.7854275454455
 30
0.0
 40
0.1999633964898635
100
AcDbArc
 50
0.0
 51
90.00185145091967
  0
ARC
  5
5DE
330
4C
100
AcDbEntity
  8
0
  6
Continuous
 62
     7
100
AcDbCircle
 10
297.9421873268
 20
-256.7598088562455
 30
0.0
 40
0.1999581047339802
100
AcDbArc
 50
0.0
 51
90.00336779509459
  0
ARC
  5
5DF
330
4C
100
AcDbEntity
  8
0
  6
Continuous
 62
     7
100
AcDbCircle
 10
297.9683654945999
 20
-256.7336269632456
 30
0.0
 40
0.1999612770741237
100
AcDbArc
 50
0.0
 51
90.00245875146238
  0
ARC
  5
5E0
330
4C
100
AcDbEntity
  8
0
  6
Continuous
 62
     7
100
AcDbCircle
 10
296.6682822324
 20
-256.3337112506455
 30
0.0
 40
0.1999544362340657
100
AcDbArc
 50
180.0
 51
-89.99558083200114
  0
ARC
  5
5E1
330
4C
100
AcDbEntity
  8
0
  6
Continuous
 62
     7
100
AcDbCircle
 10
296.6421082474
 20
-256.3598852356455
 30
0.0
 40
0.1999655161181408
100
AcDbArc
 50
180.0
 51
-89.99875595146369
  0
ARC
  5
5E2
330
4C
100
AcDbEntity
  8
0
  6
Continuous
 62
     7
100
AcDbCircle
 10
296.2683659502
 20
-255.0333454358455
 30
0.0
 40
0.1999618466338688
100
AcDbArc
 50
0.0
 51
90.00229553494884
  0
ARC
  5
5E3
330
4C
100
AcDbEntity
  8
0
  6
Continuous
 62
     7
100
AcDbCircle
 10
296.2421867459999
 20
-255.0595209148455
 30
0.0
 40
0.1999559857119948
100
AcDbArc
 50
0.0
 51
90.00397508195823
  0
ARC
  5
5E4
330
4C
100
AcDbEntity
  8
0
  6
Continuous
 62
     7
100
AcDbCircle
 10
295.2160012434
 20
-256.3337038398455
 30
0.0
 40
0.19996184656051
100
AcDbArc
 50
-90.00229559228102
 51
0.0
  0
ARC
  5
5E5
330
4C
100
AcDbEntity
  8
0
  6
Continuous
 62
     7
100
AcDbCircle
 10
295.2421810335999
 20
-256.3598873554455
 30
0.0
 40
0.1999633965043938
100
AcDbArc
 50
-90.00185145085452
 51
0.0
  0
ARC
  5
5E6
330
4C
100
AcDbEntity
  8
0
  6
Continuous
 62
     7
100
AcDbCircle
 10
295.6159175249999
 20
-255.0333380248455
 30
0.0
 40
0.1999544357941673
100
AcDbArc
 50
89.99664816608984
 51
180.0
  0
ARC
  5
5E7
330
4C
100
AcDbEntity
  8
0
  6
Continuous
 62
     7
100
AcDbCircle
 10
295.6421057068
 20
-255.0595262064455
 30
0.0
 40
0.1999612769840392
100
AcDbArc
 50
89.99754119121911
 51
180.0
  0
ARC
  5
5E8
330
4C
100
AcDbEntity
  8
0
  6
Continuous
 62
     7
100
AcDbCircle
 10
297.9421799152
 20
-257.3593172928455
 30
0.0
 40
0.1999655160471564
100
AcDbArc
 50
-90.0012440486027
 51
0.0
  0
ARC
  5
5E9
330
4C
100
AcDbEntity
  8
0
  6
Continuous
 62
     7
100
AcDbCircle
 10
297.9683654945999
 20
-257.3855028722455
 30
0.0
 40
0.1999612769840874
100
AcDbArc
 50
-90.00245875146484
 51
0.0
  0
ARC
  5
5EA
330
4C
100
AcDbEntity
  8
0
  6
Continuous
 62
     7
100
AcDbCircle
 10
295.6421057068
 20
-259.0596036288455
 30
0.0
 40
0.19996127707401
100
AcDbArc
 50
180.0
 51
-89.99754119122159
  0
ARC
  5
5EB
330
4C
100
AcDbEntity
  8
0
  6
Continuous
 62
     7
100
AcDbCircle
 10
295.6159137829999
 20
-259.0857955528455
 30
0.0
 40
0.1999506938298623
100
AcDbArc
 50
180.0
 51
-89.9955758470008
  0
ARC
  5
5EC
330
4C
100
AcDbEntity
  8
0
  6
Continuous
 62
     7
100
AcDbCircle
 10
293.9159216666
 20
-256.7336269632456
 30
0.0
 40
0.1999612771842331
100
AcDbArc
 50
89.99754124857019
 51
180.0
  0
ARC
  5
5ED
330
4C
100
AcDbEntity
  8
0
  6
Continuous
 62
     7
100
AcDbCircle
 10
293.9159216666
 20
-257.3855028722455
 30
0.0
 40
0.19996127707401
100
AcDbArc
 50
180.0
 51
-89.99754124856774
  0
ARC
  5
5EE
330
4C
100
AcDbEntity
  8
0
  6
Continuous
 62
     7
100
AcDbCircle
 10
293.9420961489999
 20
-256.7598014452456
 30
0.0
 40
0.1999506943185189
100
AcDbArc
 50
89.99450850729055
 51
180.0
  0
ARC
  5
5EF
330
4C
100
AcDbEntity
  8
0
  6
Continuous
 62
     7
100
AcDbCircle
 10
293.94210356
 20
-257.3593247042455
 30
0.0
 40
0.1999581050700385
100
AcDbArc
 50
180.0
 51
-89.99663225079186
  0
ARC
  5
5F0
330
4C
100
AcDbEntity
  8
0
  6
Continuous
 62
     7
100
AcDbCircle
 10
296.6421082474
 20
-342.7592454938456
 30
0.0
 40
0.1999655161172457
100
AcDbArc
 50
89.99875593366093
 51
180.0
  0
ARC
  5
5F1
330
4C
100
AcDbEntity
  8
0
  6
Continuous
 62
     7
100
AcDbCircle
 10
296.6682822324
 20
-342.7854194788454
 30
0.0
 40
0.1999544361946821
100
AcDbArc
 50
89.99558080108532
 51
180.0
  0
ARC
  5
5F2
330
4C
100
AcDbEntity
  8
0
  6
Continuous
 62
     7
100
AcDbCircle
 10
297.9683654945999
 20
-342.3855037662454
 30
0.0
 40
0.1999612770741291
100
AcDbArc
 50
-90.0024587629302
 51
0.0
  0
ARC
  5
5F3
330
4C
100
AcDbEntity
  8
0
  6
Continuous
 62
     7
100
AcDbCircle
 10
297.9683654945999
 20
-341.7336278572454
 30
0.0
 40
0.1999612770741237
100
AcDbArc
 50
0.0
 51
90.0024587629302
  0
ARC
  5
5F4
330
4C
100
AcDbEntity
  8
0
  6
Continuous
 62
     7
100
AcDbCircle
 10
296.668283782
 20
-341.3337105950454
 30
0.0
 40
0.1999559857119948
100
AcDbArc
 50
180.0
 51
-89.9960248607568
  0
ARC
  5
5F5
330
4C
100
AcDbEntity
  8
0
  6
Continuous
 62
     7
100
AcDbCircle
 10
296.2683696921999
 20
-340.0333425878455
 30
0.0
 40
0.1999581047340939
100
AcDbArc
 50
0.0
 51
90.0033677950783
  0
ARC
  5
5F6
330
4C
100
AcDbEntity
  8
0
  6
Continuous
 62
     7
100
AcDbCircle
 10
295.6159137829999
 20
-340.0333351766456
 30
0.0
 40
0.199950693796065
100
AcDbArc
 50
89.9955758470008
 51
180.0
  0
ARC
  5
5F7
330
4C
100
AcDbEntity
  8
0
  6
Continuous
 62
     7
100
AcDbCircle
 10
295.2159996934
 20
-341.3337031840454
 30
0.0
 40
0.1999633964885896
100
AcDbArc
 50
-90.00185143543048
 51
0.0
  0
ARC
  5
5F8
330
4C
100
AcDbEntity
  8
0
  6
Continuous
 62
     7
100
AcDbCircle
 10
293.9159216666
 20
-341.7336278572454
 30
0.0
 40
0.1999612771841194
100
AcDbArc
 50
89.99754124857019
 51
180.0
  0
ARC
  5
5F9
330
4C
100
AcDbEntity
  8
0
  6
Continuous
 62
     7
100
AcDbCircle
 10
293.9159216666
 20
-342.3855037662454
 30
0.0
 40
0.19996127707401
100
AcDbArc
 50
180.0
 51
-89.9975412370698
  0
ARC
  5
5FA
330
4C
100
AcDbEntity
  8
0
  6
Continuous
 62
     7
100
AcDbCircle
 10
295.2160012434
 20
-342.7854268896456
 30
0.0
 40
0.1999618466339257
100
AcDbArc
 50
0.0
 51
90.00229559228102
  0
ARC
  5
5FB
330
4C
100
AcDbEntity
  8
0
  6
Continuous
 62
     7
100
AcDbCircle
 10
295.6159175249999
 20
-344.0857927046454
 30
0.0
 40
0.1999544357938703
100
AcDbArc
 50
180.0
 51
-89.99664816608984
  0
ARC
  5
5FC
330
4C
100
AcDbEntity
  8
0
  6
Continuous
 62
     7
100
AcDbCircle
 10
296.2683659502
 20
-344.0857852936454
 30
0.0
 40
0.1999618465605588
100
AcDbArc
 50
-90.00229553494884
 51
0.0
  0
ARC
  5
5FD
330
4C
100
AcDbEntity
  8
0
  6
Continuous
 62
     7
100
AcDbCircle
 10
297.9421799152
 20
-341.7598134366456
 30
0.0
 40
0.1999655161180272
100
AcDbArc
 50
0.0
 51
90.00124406633907
  0
ARC
  5
5FE
330
4C
100
AcDbEntity
  8
0
  6
Continuous
 62
     7
100
AcDbCircle
 10
296.6421008359999
 20
-341.3598898158455
 30
0.0
 40
0.199958105069868
100
AcDbArc
 50
180.0
 51
-89.99663225076266
  0
ARC
  5
5FF
330
4C
100
AcDbEntity
  8
0
  6
Continuous
 62
     7
100
AcDbCircle
 10
296.2421867459999
 20
-340.0595218088454
 30
0.0
 40
0.1999559857119948
100
AcDbArc
 50
0.0
 51
90.00397508195823
  0
ARC
  5
600
330
4C
100
AcDbEntity
  8
0
  6
Continuous
 62
     7
100
AcDbCircle
 10
295.2421884447999
 20
-341.3598919352455
 30
0.0
 40
0.1999559858813373
100
AcDbArc
 50
-90.00397513923923
 51
0.0
  0
ARC
  5
601
330
4C
100
AcDbEntity
  8
0
  6
Continuous
 62
     7
100
AcDbCircle
 10
295.6421057068
 20
-340.0595271006455
 30
0.0
 40
0.1999612771841849
100
AcDbArc
 50
89.99754119122159
 51
180.0
  0
ARC
  5
602
330
4C
100
AcDbEntity
  8
0
  6
Continuous
 62
     7
100
AcDbCircle
 10
295.6421057068
 20
-344.0596045230454
 30
0.0
 40
0.19996127707401
100
AcDbArc
 50
180.0
 51
-89.9975412370698
  0
ARC
  5
603
330
4C
100
AcDbEntity
  8
0
  6
Continuous
 62
     7
100
AcDbCircle
 10
297.9421873268
 20
-342.3593218732456
 30
0.0
 40
0.199958104745283
100
AcDbArc
 50
-90.00336780659362
 51
0.0
  0
ARC
  5
604
330
4C
100
AcDbEntity
  8
0
  6
Continuous
 62
     7
100
AcDbCircle
 10
296.2421867459999
 20
-344.0596098146455
 30
0.0
 40
0.1999559856811209
100
AcDbArc
 50
-90.00397508195823
 51
0.0
  0
ARC
  5
605
330
4C
100
AcDbEntity
  8
0
  6
Continuous
 62
     7
100
AcDbCircle
 10
295.2421810335999
 20
-342.7592433740456
 30
0.0
 40
0.1999633964901477
100
AcDbArc
 50
0.0
 51
90.00185145085452
  0
ARC
  5
606
330
4C
100
AcDbEntity
  8
0
  6
Continuous
 62
     7
100
AcDbCircle
 10
293.9420961489999
 20
-342.3593292840455
 30
0.0
 40
0.1999506944819132
100
AcDbArc
 50
180.0
 51
-89.99450850729603
  0
ARC
  5
607
330
4C
100
AcDbEntity
  8
0
  6
Continuous
 62
     7
100
AcDbCircle
 10
293.94210356
 20
-341.7598060252456
 30
0.0
 40
0.1999581049454169
100
AcDbArc
 50
89.99663225079186
 51
180.0
  0
ARC
  5
608
330
4C
100
AcDbEntity
  8
0
  6
Continuous
 62
     7
100
AcDbCircle
 10
280.442144
 20
-251.5595653646456
 30
0.0
 40
2.0
100
AcDbArc
 50
90.0
 51
180.0
  0
ARC
  5
609
330
4C
100
AcDbEntity
  8
0
  6
Continuous
 62
     7
100
AcDbCircle
 10
280.442144
 20
-347.5595653646456
 30
0.0
 40
2.0
100
AcDbArc
 50
180.0
 51
-90.0
  0
ARC
  5
60A
330
4C
100
AcDbEntity
  8
0
  6
Continuous
 62
     7
100
AcDbCircle
 10
295.942144
 20
-257.0595653646456
 30
0.0
 40
10.9999999999993
100
AcDbArc
 50
42.97774618219816
 51
137.0141139197961
  0
ARC
  5
60B
330
4C
100
AcDbEntity
  8
0
  6
Continuous
 62
     7
100
AcDbCircle
 10
295.942144
 20
-342.0595653646456
 30
0.0
 40
11.00000000000011
100
AcDbArc
 50
-137.0141139197972
 51
-42.97774618239726
  0
ARC
  5
60C
330
4C
100
AcDbEntity
  8
0
  6
Continuous
 62
     7
100
AcDbCircle
 10
295.942144
 20
-342.0595653646456
 30
0.0
 40
8.999999999999863
100
AcDbArc
 50
-123.5573097618985
 51
-56.44269023810246
  0
ARC
  5
60D
330
4C
100
AcDbEntity
  8
0
  6
Continuous
 62
     7
100
AcDbCircle
 10
295.942144
 20
-257.0595653646456
 30
0.0
 40
9.000000000000005
100
AcDbArc
 50
56.44269023810345
 51
123.5573097618974
  0
ARC
  5
60E
330
4C
100
AcDbEntity
  8
0
  6
Continuous
 62
     7
100
AcDbCircle
 10
295.942144
 20
-257.0595653646456
 30
0.0
 40
7.75000000000087
100
AcDbArc
 50
75.4074493980036
 51
104.5925506019968
  0
ARC
  5
60F
330
4C
100
AcDbEntity
  8
0
  6
Continuous
 62
     7
100
AcDbCircle
 10
295.942144
 20
-342.0595653646456
 30
0.0
 40
7.750000000000608
100
AcDbArc
 50
-104.5925506019973
 51
-75.40744939800308
  0
ARC
  5
610
330
4C
100
AcDbEntity
  8
0
  6
Continuous
 62
     7
100
AcDbCircle
 10
421.5885618188319
 20
-378.8754189520455
 30
0.0
 40
5.495506175885942
100
AcDbArc
 50
-90.01193641719921
 51
0.01193641719861
  0
ARC
  5
611
330
4C
100
AcDbEntity
  8
0
  6
Continuous
 62
     7
100
AcDbCircle
 10
421.5835855718321
 20
-378.8704427050454
 30
0.0
 40
8.998351895685419
100
AcDbArc
 50
-89.97560427620343
 51
-0.02439572420557
  0
ARC
  5
612
330
4C
100
AcDbEntity
  8
0
  6
Continuous
 62
     7
100
AcDbCircle
 10
421.5835855718321
 20
-220.2486880244455
 30
0.0
 40
8.998351895685078
100
AcDbArc
 50
0.0243957237973
 51
89.97560427620343
  0
ARC
  5
613
330
4C
100
AcDbEntity
  8
0
  6
Continuous
 62
     7
100
AcDbCircle
 10
421.5885618188319
 20
-220.2437117774455
 30
0.0
 40
5.495506175886113
100
AcDbArc
 50
-0.01193641720009
 51
90.01193641719921
  0
ARC
  5
614
330
4C
100
AcDbEntity
  8
0
  6
Continuous
 62
     7
100
AcDbCircle
 10
253.344462047196
 20
-378.8754140644455
 30
0.0
 40
5.495511062207891
100
AcDbArc
 50
179.9881145515961
 51
-89.98812972010735
  0
ARC
  5
615
330
4C
100
AcDbEntity
  8
0
  6
Continuous
 62
     7
100
AcDbCircle
 10
253.344462047196
 20
-220.2437166650454
 30
0.0
 40
5.49551106220809
100
AcDbArc
 50
89.98812972019091
 51
-179.9881145514912
  0
ARC
  5
616
330
4C
100
AcDbEntity
  8
0
  6
Continuous
 62
     7
100
AcDbCircle
 10
253.349449324796
 20
-220.2487030682455
 30
0.0
 40
8.99836694688581
100
AcDbArc
 50
90.02450630360053
 51
179.9755085279026
  0
ARC
  5
617
330
4C
100
AcDbEntity
  8
0
  6
Continuous
 62
     7
100
AcDbCircle
 10
253.349449324796
 20
-378.8704276612455
 30
0.0
 40
8.998366946885842
100
AcDbArc
 50
-179.9755085279026
 51
-90.02450630360053
  0
ARC
  5
618
330
4C
100
AcDbEntity
  8
0
  6
Continuous
 62
     7
100
AcDbCircle
 10
422.030077517232
 20
-219.8022035282455
 30
0.0
 40
8.992635678611624
100
AcDbArc
 50
-0.01195773179902
 51
90.01200518999462
  0
ARC
  5
619
330
4C
100
AcDbEntity
  8
0
  6
Continuous
 62
     7
100
AcDbCircle
 10
422.030077517232
 20
-379.3169272012456
 30
0.0
 40
8.992635678611
100
AcDbArc
 50
-90.01200518999462
 51
0.01195772920024
  0
ARC
  5
61A
330
4C
100
AcDbEntity
  8
0
  6
Continuous
 62
     7
100
AcDbCircle
 10
252.902943851396
 20
-219.8022038812455
 30
0.0
 40
8.992636031212578
100
AcDbArc
 50
89.98801040869637
 51
-179.9880445200971
  0
ARC
  5
61B
330
4C
100
AcDbEntity
  8
0
  6
Continuous
 62
     7
100
AcDbCircle
 10
252.902943851396
 20
-379.3169268482454
 30
0.0
 40
8.992636031213795
100
AcDbArc
 50
179.9880445211037
 51
-89.98801040869637
  0
ARC
  5
61C
330
4C
100
AcDbEntity
  8
0
  6
Continuous
 62
     7
100
AcDbCircle
 10
371.3712995463999
 20
-204.0881453994455
 30
0.0
 40
7.000789776928952
100
AcDbArc
 50
-89.98777605255103
 51
-16.58852729909311
  0
ARC
  5
61D
330
4C
100
AcDbEntity
  8
0
  6
Continuous
 62
     7
100
AcDbCircle
 10
410.3742868542
 20
-204.0881592818455
 30
0.0
 40
7.000775893517079
100
AcDbArc
 50
-163.1152801140996
 51
-90.01218769274845
  0
ARC
  5
61E
330
4C
100
AcDbEntity
  8
0
  6
Continuous
 62
     7
100
AcDbCircle
 10
410.3740377323999
 20
-395.0306453072456
 30
0.0
 40
7.000449704630618
100
AcDbArc
 50
90.01014930191452
 51
163.4135473456903
  0
ARC
  5
61F
330
4C
100
AcDbEntity
  8
0
  6
Continuous
 62
     7
100
AcDbCircle
 10
410.3744095747999
 20
-395.3104372854455
 30
0.0
 40
7.000874788562617
100
AcDbArc
 50
90.01319187687074
 51
161.1530198935054
  0
ARC
  5
620
330
4C
100
AcDbEntity
  8
0
  6
Continuous
 62
     7
100
AcDbCircle
 10
410.3742400128
 20
-203.8089189024455
 30
0.0
 40
7.000649293070333
100
AcDbArc
 50
-161.4045377641044
 51
-90.01180454662756
  0
ARC
  5
621
330
4C
100
AcDbEntity
  8
0
  6
Continuous
 62
     7
100
AcDbCircle
 10
371.3713039792
 20
-395.0309714476455
 30
0.0
 40
7.000775893517113
100
AcDbArc
 50
16.88471988590128
 51
89.98781230725156
  0
ARC
  5
622
330
4C
100
AcDbEntity
  8
0
  6
Continuous
 62
     7
100
AcDbCircle
 10
371.3713508206
 20
-395.3102118270456
 30
0.0
 40
7.000649293070055
100
AcDbArc
 50
18.59546223589757
 51
89.98819545337246
  0
ARC
  5
623
330
4C
100
AcDbEntity
  8
0
  6
Continuous
 62
     7
100
AcDbCircle
 10
371.3713611571999
 20
-203.8089448802455
 30
0.0
 40
7.000623313259094
100
AcDbArc
 50
-89.98828000825449
 51
-18.84550822209244
  0
ARC
  5
624
330
4C
100
AcDbEntity
  8
0
  6
Continuous
 62
     7
100
AcDbCircle
 10
263.371556836
 20
-204.0884916906455
 30
0.0
 40
7.000443436062632
100
AcDbArc
 50
-89.98985845290281
 51
-16.58641440370072
  0
ARC
  5
625
330
4C
100
AcDbEntity
  8
0
  6
Continuous
 62
     7
100
AcDbCircle
 10
302.3744896758
 20
-204.0878920920454
 30
0.0
 40
7.001043130102756
100
AcDbArc
 50
-163.1136587786012
 51
-90.01387002396201
  0
ARC
  5
626
330
4C
100
AcDbEntity
  8
0
  6
Continuous
 62
     7
100
AcDbCircle
 10
302.3742857294
 20
-395.0309766372454
 30
0.0
 40
7.00078108354154
100
AcDbArc
 50
90.01220140534102
 51
163.411525739606
  0
ARC
  5
627
330
4C
100
AcDbEntity
  8
0
  6
Continuous
 62
     7
100
AcDbCircle
 10
263.3713191362
 20
-395.0309447210454
 30
0.0
 40
7.000749164331522
100
AcDbArc
 50
16.88455769519958
 51
89.98791350462476
  0
ARC
  5
628
330
4C
100
AcDbEntity
  8
0
  6
Continuous
 62
     7
100
AcDbCircle
 10
302.3742238931999
 20
-395.3101764740454
 30
0.0
 40
7.000613937449952
100
AcDbArc
 50
90.01169560485265
 51
161.1545466631013
  0
ARC
  5
629
330
4C
100
AcDbEntity
  8
0
  6
Continuous
 62
     7
100
AcDbCircle
 10
302.3739934091999
 20
-203.8092632706455
 30
0.0
 40
7.000304878804449
100
AcDbArc
 50
-161.4065631427063
 51
-90.0098096661285
  0
ARC
  5
62A
330
4C
100
AcDbEntity
  8
0
  6
Continuous
 62
     7
100
AcDbCircle
 10
263.3713571668
 20
-395.3102042828455
 30
0.0
 40
7.000641748165916
100
AcDbArc
 50
18.59541786650042
 51
89.98822457534011
  0
ARC
  5
62B
330
4C
100
AcDbEntity
  8
0
  6
Continuous
 62
     7
100
AcDbCircle
 10
263.3711554742
 20
-203.8086561156455
 30
0.0
 40
7.00091212359805
100
AcDbArc
 50
-89.9865743687627
 51
-18.84719861360221
  0
ARC
  5
62C
330
4C
100
AcDbEntity
  8
0
  6
Continuous
 62
     7
100
AcDbCircle
 10
295.942144
 20
-257.0595653646456
 30
0.0
 40
10.00000000000015
100
AcDbArc
 50
48.59037789069541
 51
131.4096221093046
  0
ARC
  5
62D
330
4C
100
AcDbEntity
  8
0
  6
Continuous
 62
     7
100
AcDbCircle
 10
295.942144
 20
-342.0595653646456
 30
0.0
 40
9.999999999999918
100
AcDbArc
 50
-131.4096221093058
 51
-48.59037789069423
  0
CIRCLE
  5
62E
330
4C
100
AcDbEntity
  8
0
  6
Continuous
 62
     7
100
AcDbCircle
 10
282.872796
 20
-398.0595653646456
 30
0.0
 40
8.816509577380032
  0
CIRCLE
  5
62F
330
4C
100
AcDbEntity
  8
0
  6
Continuous
 62
     7
100
AcDbCircle
 10
282.872796
 20
-398.0595653646456
 30
0.0
 40
9.25
  0
CIRCLE
  5
630
330
4C
100
AcDbEntity
  8
0
  6
Continuous
 62
     7
100
AcDbCircle
 10
93.22039099999995
 20
-201.5595653646456
 30
0.0
 40
8.816509577379946
  0
CIRCLE
  5
631
330
4C
100
AcDbEntity
  8
0
  6
Continuous
 62
     7
100
AcDbCircle
 10
93.22039099999995
 20
-201.5595653646456
 30
0.0
 40
9.250000000000057
  0
CIRCLE
  5
632
330
4C
100
AcDbEntity
  8
0
  6
Continuous
 62
     7
100
AcDbCircle
 10
201.215026
 20
-398.5595653646456
 30
0.0
 40
8.816509577380003
  0
CIRCLE
  5
633
330
4C
100
AcDbEntity
  8
0
  6
Continuous
 62
     7
100
AcDbCircle
 10
201.215026
 20
-398.5595653646456
 30
0.0
 40
9.250000000000114
  0
CIRCLE
  5
634
330
4C
100
AcDbEntity
  8
0
  6
Continuous
 62
     7
100
AcDbCircle
 10
93.22039099999995
 20
-398.5595653646456
 30
0.0
 40
8.816509577379946
  0
CIRCLE
  5
635
330
4C
100
AcDbEntity
  8
0
  6
Continuous
 62
     7
100
AcDbCircle
 10
93.22039099999995
 20
-398.5595653646456
 30
0.0
 40
9.250000000000057
  0
CIRCLE
  5
636
330
4C
100
AcDbEntity
  8
0
  6
Continuous
 62
     7
100
AcDbCircle
 10
390.872796
 20
-398.0595653646456
 30
0.0
 40
8.816509577380032
  0
CIRCLE
  5
637
330
4C
100
AcDbEntity
  8
0
  6
Continuous
 62
     7
100
AcDbCircle
 10
390.872796
 20
-398.0595653646456
 30
0.0
 40
9.25
  0
CIRCLE
  5
638
330
4C
100
AcDbEntity
  8
0
  6
Continuous
 62
     7
100
AcDbCircle
 10
390.872796
 20
-201.0595653646456
 30
0.0
 40
8.816509577380032
  0
CIRCLE
  5
639
330
4C
100
AcDbEntity
  8
0
  6
Continuous
 62
     7
100
AcDbCircle
 10
390.872796
 20
-201.0595653646456
 30
0.0
 40
9.25
  0
CIRCLE
  5
63A
330
4C
100
AcDbEntity
  8
0
  6
Continuous
 62
     7
100
AcDbCircle
 10
282.872796
 20
-201.0595653646456
 30
0.0
 40
8.816509577380032
  0
CIRCLE
  5
63B
330
4C
100
AcDbEntity
  8
0
  6
Continuous
 62
     7
100
AcDbCircle
 10
282.872796
 20
-201.0595653646456
 30
0.0
 40
9.25
  0
CIRCLE
  5
63C
330
4C
100
AcDbEntity
  8
0
  6
Continuous
 62
     7
100
AcDbCircle
 10
201.215026
 20
-201.5595653646456
 30
0.0
 40
8.816509577380003
  0
CIRCLE
  5
63D
330
4C
100
AcDbEntity
  8
0
  6
Continuous
 62
     7
100
AcDbCircle
 10
201.215026
 20
-201.5595653646456
 30
0.0
 40
9.250000000000114
  0
CIRCLE
  5
63E
330
4C
100
AcDbEntity
  8
0
  6
Continuous
 62
     7
100
AcDbCircle
 10
282.872796
 20
-398.0595653646456
 30
0.0
 40
9.25
  0
CIRCLE
  5
63F
330
4C
100
AcDbEntity
  8
0
  6
Continuous
 62
     7
100
AcDbCircle
 10
390.872796
 20
-201.0595653646456
 30
0.0
 40
9.25
  0
CIRCLE
  5
640
330
4C
100
AcDbEntity
  8
0
  6
Continuous
 62
     7
100
AcDbCircle
 10
282.872796
 20
-201.0595653646456
 30
0.0
 40
9.25
  0
CIRCLE
  5
641
330
4C
100
AcDbEntity
  8
0
  6
Continuous
 62
     7
100
AcDbCircle
 10
201.215026
 20
-201.5595653646456
 30
0.0
 40
9.250000000000114
  0
CIRCLE
  5
642
330
4C
100
AcDbEntity
  8
0
  6
Continuous
 62
     7
100
AcDbCircle
 10
201.215026
 20
-398.5595653646456
 30
0.0
 40
9.250000000000114
  0
CIRCLE
  5
643
330
4C
100
AcDbEntity
  8
0
  6
Continuous
 62
     7
100
AcDbCircle
 10
93.22039099999995
 20
-398.5595653646456
 30
0.0
 40
9.250000000000057
  0
CIRCLE
  5
644
330
4C
100
AcDbEntity
  8
0
  6
Continuous
 62
     7
100
AcDbCircle
 10
390.872796
 20
-398.0595653646456
 30
0.0
 40
9.25
  0
CIRCLE
  5
645
330
4C
100
AcDbEntity
  8
0
  6
Continuous
 62
     7
100
AcDbCircle
 10
93.22039099999995
 20
-201.5595653646456
 30
0.0
 40
9.250000000000057
  0
CIRCLE
  5
646
330
4C
100
AcDbEntity
  8
0
  6
Continuous
 62
     7
100
AcDbCircle
 10
191.370308068396
 20
-358.8095653646456
 30
0.0
 40
12.25
  0
CIRCLE
  5
647
330
4C
100
AcDbEntity
  8
0
  6
Continuous
 62
     7
100
AcDbCircle
 10
191.370308068396
 20
-358.8095653646456
 30
0.0
 40
13.25
  0
CIRCLE
  5
648
330
4C
100
AcDbEntity
  8
0
  6
Continuous
 62
     7
100
AcDbCircle
 10
295.942144
 20
-257.0595653646456
 30
0.0
 40
3.5
  0
CIRCLE
  5
649
330
4C
100
AcDbEntity
  8
0
  6
Continuous
 62
     7
100
AcDbCircle
 10
295.942144
 20
-257.0595653646456
 30
0.0
 40
3.699999999999932
  0
CIRCLE
  5
64A
330
4C
100
AcDbEntity
  8
0
  6
Continuous
 62
     7
100
AcDbCircle
 10
295.942144
 20
-342.0595653646456
 30
0.0
 40
3.5
  0
CIRCLE
  5
64B
330
4C
100
AcDbEntity
  8
0
  6
Continuous
 62
     7
100
AcDbCircle
 10
295.942144
 20
-342.0595653646456
 30
0.0
 40
3.699999999999932
  0
CIRCLE
  5
64C
330
4C
100
AcDbEntity
  8
0
  6
Continuous
 62
     7
100
AcDbCircle
 10
295.942144
 20
-257.0595653646456
 30
0.0
 40
4.900000000000034
  0
CIRCLE
  5
64D
330
4C
100
AcDbEntity
  8
0
  6
Continuous
 62
     7
100
AcDbCircle
 10
295.942144
 20
-342.0595653646456
 30
0.0
 40
4.900000000000034
  0
LWPOLYLINE
  5
64E
330
4C
100
AcDbEntity
  8
0
  6
Continuous
 62
     7
100
AcDbPolyline
 90
        3
 70
     0
 43
0.0
 10
248.562989659996
 20
-204.8095633382454
 10
248.563066610596
 20
-204.9115990394455
 10
248.578676158996
 20
-206.8862189644456
  0
LWPOLYLINE
  5
64F
330
4C
100
AcDbEntity
  8
0
  6
Continuous
 62
     7
100
AcDbPolyline
 90
       10
 70
     0
 43
0.0
 10
303.4421457412
 20
-249.5595646196455
 10
303.4117585483999
 20
-249.5899480874455
 10
303.3215282919999
 20
-249.6801783436455
 10
303.1741930607999
 20
-249.8275135750455
 10
302.9742343785999
 20
-250.0274759822455
 10
302.7277207438
 20
-250.2739896172454
 10
302.4421437148
 20
-250.5595666462455
 10
302.1261832179999
 20
-250.8755234176456
 10
301.7894393267999
 20
-251.2122673088455
 10
301.4421454134
 20
-251.5595649474456
  0
LWPOLYLINE
  5
650
330
4C
100
AcDbEntity
  8
0
  6
Continuous
 62
     7
100
AcDbPolyline
 90
        9
 70
     0
 43
0.0
 10
301.4421454134
 20
-347.5595657820454
 10
301.8323248687999
 20
-347.9497452372455
 10
302.2075100306
 20
-348.3249303990456
 10
302.5532840256
 20
-348.6707043940455
 10
302.856358743
 20
-348.9737791114455
 10
303.105081475
 20
-349.2225055688455
 10
303.2899043025999
 20
-349.4073246712455
 10
303.4037156466
 20
-349.5211360150454
 10
303.4421457412
 20
-349.5595661098455
  0
ENDBLK
  5
4E
330
4C
100
AcDbEntity
  8
0
100
AcDbBlockEnd
  0
BLOCK
  5
65B
330
651
100
AcDbEntity
  8
0
100
AcDbBlockBegin
  2
*D3
 70
     1
 71
     0
 10
0.0
 20
0.0
 30
0.0
  3
*D3
  1

  0
LINE
  5
652
330
651
100
AcDbEntity
  8
1
  6
Continuous
 62
     4
100
AcDbLine
 10
459.1403267105912
 20
-30.99913390357665
 30
0.0
 11
459.1403267105912
 21
-60.99913390357671
 31
0.0
  0
LINE
  5
653
330
651
100
AcDbEntity
  8
1
  6
Continuous
 62
     4
100
AcDbLine
 10
459.1403267105912
 20
0.0
 30
0.0
 11
459.1403267105912
 21
-30.99913390357665
 31
0.0
  0
LINE
  5
654
330
651
100
AcDbEntity
  8
1
  6
Continuous
 62
     4
100
AcDbLine
 10
459.1403267105912
 20
54.8627824209334
 30
0.0
 11
459.1403267105912
 21
0.0
 31
0.0
  0
LINE
  5
655
330
651
100
AcDbEntity
  8
1
  6
Continuous
 62
     4
100
AcDbLine
 10
415.1091006060375
 20
-30.99913390357665
 30
0.0
 11
461.1403267105912
 21
-30.99913390357665
 31
0.0
  0
LINE
  5
656
330
651
100
AcDbEntity
  8
1
  6
Continuous
 62
     4
100
AcDbLine
 10
75.05531021013786
 20
0.0
 30
0.0
 11
461.1403267105912
 21
0.0
 31
0.0
  0
SOLID
  5
657
330
651
100
AcDbEntity
  8
1
 62
     4
100
AcDbTrace
 10
457.1655392467803
 20
15.0
 30
0.0
 11
461.1151141744021
 21
15.0
 31
0.0
 12
459.1403267105912
 22
0.0
 32
0.0
 13
459.1403267105912
 23
0.0
 33
0.0
  0
SOLID
  5
658
330
651
100
AcDbEntity
  8
1
 62
     4
100
AcDbTrace
 10
461.1151141744021
 20
-45.99913390357665
 30
0.0
 11
457.1655392467803
 21
-45.99913390357665
 31
0.0
 12
459.1403267105912
 22
-30.99913390357665
 32
0.0
 13
459.1403267105912
 23
-30.99913390357665
 33
0.0
  0
MTEXT
  5
65A
330
651
100
AcDbEntity
  8
1
 62
     1
100
AcDbMText
 10
457.1403267105912
 20
36.8627824209334
 30
0.0
 40
15.0
 41
0.0
 71
     7
 72
     1
  1
31
  7
CONVERTER_11
 11
0.0
 21
1.0
 31
0.0
 73
     1
 44
0.60024009603842
  0
ENDBLK
  5
65C
330
651
100
AcDbEntity
  8
0
100
AcDbBlockEnd
  0
BLOCK
  5
666
330
65F
100
AcDbEntity
  8
0
100
AcDbBlockBegin
  2
*D4
 70
     1
 71
     0
 10
0.0
 20
0.0
 30
0.0
  3
*D4
  1

  0
LINE
  5
660
330
65F
100
AcDbEntity
  8
1
  6
Continuous
 62
     4
100
AcDbLine
 10
519.46051715868
 20
24.00233499999996
 30
0.0
 11
519.46051715868
 21
-85.99851399999989
 31
0.0
  0
LINE
  5
661
330
65F
100
AcDbEntity
  8
1
  6
Continuous
 62
     4
100
AcDbLine
 10
485.500285
 20
-85.99851399999989
 30
0.0
 11
521.46051715868
 21
-85.99851399999989
 31
0.0
  0
LINE
  5
662
330
65F
100
AcDbEntity
  8
1
  6
Continuous
 62
     4
100
AcDbLine
 10
485.500285
 20
24.00233499999996
 30
0.0
 11
521.46051715868
 21
24.00233499999996
 31
0.0
  0
SOLID
  5
663
330
65F
100
AcDbEntity
  8
1
 62
     4
100
AcDbTrace
 10
521.4353046224909
 20
9.00233499999996
 30
0.0
 11
517.4857296948691
 21
9.00233499999996
 31
0.0
 12
519.46051715868
 22
24.00233499999996
 32
0.0
 13
519.46051715868
 23
24.00233499999996
 33
0.0
  0
SOLID
  5
664
330
65F
100
AcDbEntity
  8
1
 62
     4
100
AcDbTrace
 10
517.4857296948691
 20
-70.99851399999989
 30
0.0
 11
521.4353046224909
 21
-70.99851399999989
 31
0.0
 12
519.46051715868
 22
-85.99851399999989
 32
0.0
 13
519.46051715868
 23
-85.99851399999989
 33
0.0
  0
MTEXT
  5
665
330
65F
100
AcDbEntity
  8
1
 62
     1
100
AcDbMText
 10
517.46051715868
 20
-54.41017568403865
 30
0.0
 40
15.0
 41
0.0
 71
     7
 72
     1
  1
\C1;DN\C1;110
  7
CONVERTER_11
 11
0.0
 21
1.0
 31
0.0
 73
     1
 44
0.60024009603842
  0
ENDBLK
  5
667
330
65F
100
AcDbEntity
  8
0
100
AcDbBlockEnd
  0
BLOCK
  5
671
330
66A
100
AcDbEntity
  8
0
100
AcDbBlockBegin
  2
*D5
 70
     1
 71
     0
 10
0.0
 20
0.0
 30
0.0
  3
*D5
  1

  0
LINE
  5
66B
330
66A
100
AcDbEntity
  8
1
  6
Continuous
 62
     4
100
AcDbLine
 10
490.0004744605146
 20
-116.69857046515
 30
0.0
 11
0.0008569220646
 21
-116.7058405780887
 31
0.0
  0
LINE
  5
66C
330
66A
100
AcDbEntity
  8
1
  6
Continuous
 62
     4
100
AcDbLine
 10
0.0
 20
-58.95000000000006
 30
0.0
 11
0.00088659601812
 21
-118.7058405778686
 31
0.0
  0
LINE
  5
66D
330
66A
100
AcDbEntity
  8
1
  6
Continuous
 62
     4
100
AcDbLine
 10
490.0
 20
-84.72032300000002
 30
0.0
 11
490.0005041344681
 21
-118.6985704649299
 31
0.0
  0
SOLID
  5
66E
330
66A
100
AcDbEntity
  8
1
 62
     4
100
AcDbTrace
 10
475.0005037620414
 20
-118.673580483395
 30
0.0
 11
475.00044516229
 21
-114.7240055562079
 31
0.0
 12
490.0004744605146
 22
-116.69857046515
 32
0.0
 13
490.0004744605146
 23
-116.69857046515
 33
0.0
  0
SOLID
  5
66F
330
66A
100
AcDbEntity
  8
1
 62
     4
100
AcDbTrace
 10
15.00082762053787
 20
-114.7308305598438
 30
0.0
 11
15.00088622028929
 21
-118.6804054870309
 31
0.0
 12
0.0008569220646
 22
-116.7058405780887
 32
0.0
 13
0.0008569220646
 23
-116.7058405780887
 33
0.0
  0
MTEXT
  5
670
330
66A
100
AcDbEntity
  8
1
 62
     1
100
AcDbMText
 10
234.915402640001
 20
-114.7023551562128
 30
0.0
 40
15.0
 41
0.0
 71
     7
 72
     1
  1
490
  7
CONVERTER_11
 11
0.999999999889932
 21
1.483697676011676E-5
 31
0.0
 73
     1
 44
0.60024009603842
  0
ENDBLK
  5
672
330
66A
100
AcDbEntity
  8
0
100
AcDbBlockEnd
  0
BLOCK
  5
67C
330
675
100
AcDbEntity
  8
0
100
AcDbBlockBegin
  2
*D6
 70
     1
 71
     0
 10
0.0
 20
0.0
 30
0.0
  3
*D6
  1

  0
LINE
  5
676
330
675
100
AcDbEntity
  8
1
  6
Continuous
 62
     4
100
AcDbLine
 10
-16.0
 20
55.0
 30
0.0
 11
-16.0
 21
-55.0
 31
0.0
  0
LINE
  5
677
330
675
100
AcDbEntity
  8
1
  6
Continuous
 62
     4
100
AcDbLine
 10
-6.0
 20
-55.0
 30
0.0
 11
-18.0
 21
-55.0
 31
0.0
  0
LINE
  5
678
330
675
100
AcDbEntity
  8
1
  6
Continuous
 62
     4
100
AcDbLine
 10
-6.0
 20
55.0
 30
0.0
 11
-18.0
 21
55.0
 31
0.0
  0
SOLID
  5
679
330
675
100
AcDbEntity
  8
1
 62
     4
100
AcDbTrace
 10
-14.02521253618907
 20
40.0
 30
0.0
 11
-17.97478746381094
 21
40.0
 31
0.0
 12
-16.0
 22
55.0
 32
0.0
 13
-16.0
 23
55.0
 33
0.0
  0
SOLID
  5
67A
330
675
100
AcDbEntity
  8
1
 62
     4
100
AcDbTrace
 10
-17.97478746381094
 20
-40.0
 30
0.0
 11
-14.02521253618906
 21
-40.0
 31
0.0
 12
-16.0
 22
-55.0
 32
0.0
 13
-16.0
 23
-55.0
 33
0.0
  0
MTEXT
  5
67B
330
675
100
AcDbEntity
  8
1
 62
     1
100
AcDbMText
 10
-18.0
 20
-21.75031170029458
 30
0.0
 40
15.0
 41
0.0
 71
     7
 72
     1
  1
\C1;DN\C1;110
  7
CONVERTER_11
 11
0.0
 21
1.0
 31
0.0
 73
     1
 44
0.60024009603842
  0
ENDBLK
  5
67D
330
675
100
AcDbEntity
  8
0
100
AcDbBlockEnd
  0
BLOCK
  5
687
330
680
100
AcDbEntity
  8
0
100
AcDbBlockBegin
  2
*D7
 70
     1
 71
     0
 10
0.0
 20
0.0
 30
0.0
  3
*D7
  1

  0
LINE
  5
681
330
680
100
AcDbEntity
  8
1
  6
Continuous
 62
     4
100
AcDbLine
 10
53.019744
 20
173.3732427552214
 30
0.0
 11
431.022713
 21
173.3732427552214
 31
0.0
  0
LINE
  5
682
330
680
100
AcDbEntity
  8
1
  6
Continuous
 62
     4
100
AcDbLine
 10
431.022713
 20
101.496358
 30
0.0
 11
431.022713
 21
175.3732427552214
 31
0.0
  0
LINE
  5
683
330
680
100
AcDbEntity
  8
1
  6
Continuous
 62
     4
100
AcDbLine
 10
53.019744
 20
116.245725
 30
0.0
 11
53.019744
 21
175.3732427552214
 31
0.0
  0
SOLID
  5
684
330
680
100
AcDbEntity
  8
1
 62
     4
100
AcDbTrace
 10
68.019744
 20
175.3480302190324
 30
0.0
 11
68.019744
 21
171.3984552914105
 31
0.0
 12
53.019744
 22
173.3732427552214
 32
0.0
 13
53.019744
 23
173.3732427552214
 33
0.0
  0
SOLID
  5
685
330
680
100
AcDbEntity
  8
1
 62
     4
100
AcDbTrace
 10
416.022713
 20
171.3984552914105
 30
0.0
 11
416.022713
 21
175.3480302190324
 31
0.0
 12
431.022713
 22
173.3732427552214
 32
0.0
 13
431.022713
 23
173.3732427552214
 33
0.0
  0
MTEXT
  5
686
330
680
100
AcDbEntity
  8
1
 62
     1
100
AcDbMText
 10
186.252346010167
 20
175.3732427552214
 30
0.0
 40
15.0
 41
0.0
 71
     7
 72
     1
  1
378
  7
CONVERTER_11
 11
0.9999999999970619
 21
2.424068405545306E-6
 31
0.0
 73
     1
 44
0.60024009603842
  0
ENDBLK
  5
688
330
680
100
AcDbEntity
  8
0
100
AcDbBlockEnd
  0
BLOCK
  5
692
330
68B
100
AcDbEntity
  8
0
100
AcDbBlockBegin
  2
*D8
 70
     1
 71
     0
 10
0.0
 20
0.0
 30
0.0
  3
*D8
  1

  0
LINE
  5
68C
330
68B
100
AcDbEntity
  8
1
  6
Continuous
 62
     4
100
AcDbLine
 10
547.0531367055955
 20
-90.999367
 30
0.0
 11
547.0531367055955
 21
229.003791
 31
0.0
  0
LINE
  5
68D
330
68B
100
AcDbEntity
  8
1
  6
Continuous
 62
     4
100
AcDbLine
 10
301.4421439999999
 20
229.003791
 30
0.0
 11
549.0531367055955
 21
229.003791
 31
0.0
  0
LINE
  5
68E
330
68B
100
AcDbEntity
  8
1
  6
Continuous
 62
     4
100
AcDbLine
 10
279.9430969999999
 20
-90.999367
 30
0.0
 11
549.0531367055955
 21
-90.999367
 31
0.0
  0
SOLID
  5
68F
330
68B
100
AcDbEntity
  8
1
 62
     4
100
AcDbTrace
 10
545.0783492417846
 20
-75.999367
 30
0.0
 11
549.0279241694064
 21
-75.999367
 31
0.0
 12
547.0531367055955
 22
-90.999367
 32
0.0
 13
547.0531367055955
 23
-90.999367
 33
0.0
  0
SOLID
  5
690
330
68B
100
AcDbEntity
  8
1
 62
     4
100
AcDbTrace
 10
549.0279241694064
 20
214.003791
 30
0.0
 11
545.0783492417846
 21
214.003791
 31
0.0
 12
547.0531367055955
 22
229.003791
 32
0.0
 13
547.0531367055955
 23
229.003791
 33
0.0
  0
MTEXT
  5
691
330
68B
100
AcDbEntity
  8
1
 62
     1
100
AcDbMText
 10
545.0531367055955
 20
44.6357432883264
 30
0.0
 40
15.0
 41
0.0
 71
     7
 72
     1
  1
\C1;220-\C1;320
  7
CONVERTER_11
 11
0.0
 21
1.0
 31
0.0
 73
     1
 44
0.60024009603842
  0
ENDBLK
  5
693
330
68B
100
AcDbEntity
  8
0
100
AcDbBlockEnd
  0
ENDSEC
  0
SECTION
  2
ENTITIES
  0
INSERT
  5
4F
330
1F
100
AcDbEntity
  8
0
100
AcDbBlockReference
  2
HL_710_2_Rückstauverschluss__1
 10
-659.290850392019
 20
-890.4358168735074
 30
0.0
  0
INSERT
  5
50
330
1F
100
AcDbEntity
  8
1
100
AcDbBlockReference
  2
HL710_2-Draufsicht
 10
-1.66371428579998
 20
-419.0595616796115
 30
0.0
  0
DIMENSION
  5
65E
330
1F
100
AcDbEntity
  8
1
100
AcDbDimension
  2
*D3
 10
459.1403267105912
 20
0.0
 30
0.0
 11
449.6403267105912
 21
45.8627824209334
 31
0.0
 70
    32
  1
<>
 71
     5
 42
-1.0
 53
90.0
  3
ME10_DIM_10
100
AcDbAlignedDimension
 13
415.1091006060376
 23
-30.99913390357665
 33
0.0
 14
75.05531021013797
 24
0.0
 34
0.0
 50
90.0
100
AcDbRotatedDimension
  0
DIMENSION
  5
669
330
1F
100
AcDbEntity
  8
1
100
AcDbDimension
  2
*D4
 10
519.46051715868
 20
24.00233499999996
 30
0.0
 11
509.96051715868
 21
-32.81017568403865
 31
0.0
 70
    32
  1
<>
 71
     5
 42
-1.0
 53
90.0
  3
ME10_DIM_11
100
AcDbAlignedDimension
 13
485.500285
 23
-85.99851399999989
 33
0.0
 14
485.500285
 24
24.00233499999996
 34
0.0
 50
90.0
100
AcDbRotatedDimension
  0
DIMENSION
  5
674
330
1F
100
AcDbEntity
  8
1
100
AcDbDimension
  2
*D5
 10
490.0004744605146
 20
-116.69857046515
 30
0.0
 11
252.9152913606941
 21
-107.2020880914566
 31
0.0
 70
    32
  1
<>
 71
     5
 42
-1.0
 53
0.00085009614912
  3
ME10_DIM_12
100
AcDbAlignedDimension
 13
0.0
 23
-58.95000000000005
 33
0.0
 14
490.0
 24
-84.72032300000001
 34
0.0
 50
0.00085009614912
100
AcDbRotatedDimension
  0
DIMENSION
  5
67F
330
1F
100
AcDbEntity
  8
1
100
AcDbDimension
  2
*D6
 10
-16.0
 20
55.0
 30
0.0
 11
-25.5
 21
-0.15031170029459
 31
0.0
 70
    32
  1
<>
 71
     5
 42
-1.0
 53
90.0
  3
ME10_DIM_13
100
AcDbAlignedDimension
 13
-6.0
 23
-55.0
 33
0.0
 14
-6.0
 24
55.0
 34
0.0
 50
90.0
100
AcDbRotatedDimension
  0
DIMENSION
  5
68A
330
1F
100
AcDbEntity
  8
1
100
AcDbDimension
  2
*D7
 10
53.019744
 20
173.3732427552214
 30
0.0
 11
204.252346010167
 21
182.8732427552214
 31
0.0
 70
    32
  1
<>
 71
     5
 42
-1.0
 53
0.00013888888889
  3
ME10_DIM_14
100
AcDbAlignedDimension
 13
431.022713
 23
101.496358
 33
0.0
 14
53.01974399999995
 24
116.245725
 34
0.0
100
AcDbRotatedDimension
  0
DIMENSION
  5
695
330
1F
100
AcDbEntity
  8
1
100
AcDbDimension
  2
*D8
 10
547.0531367055955
 20
-90.999367
 30
0.0
 11
537.5531367055955
 21
84.0857432883264
 31
0.0
 70
    32
  1
<>
 71
     5
 42
-1.0
 53
90.0
  3
ME10_DIM_15
100
AcDbAlignedDimension
 13
301.442144
 23
229.003791
 33
0.0
 14
279.943097
 24
-90.999367
 34
0.0
 50
90.0
100
AcDbRotatedDimension
  0
ENDSEC
  0
SECTION
  2
OBJECTS
  0
DICTIONARY
  5
C
330
0
100
AcDbDictionary
281
     1
  3
ACAD_GROUP
350
D
  3
ACAD_LAYOUT
350
1A
  3
ACAD_MLINESTYLE
350
17
  3
ACAD_PLOTSETTINGS
350
19
  3
ACAD_PLOTSTYLENAME
350
E
  3
ACAD_TABLESTYLE
350
696
  3
ACAD_VISUALSTYLE
350
2A
  0
DICTIONARY
  5
D
102
{ACAD_REACTORS
330
C
102
}
330
C
100
AcDbDictionary
281
     1
  0
DICTIONARY
  5
1A
102
{ACAD_REACTORS
330
C
102
}
330
C
100
AcDbDictionary
281
     1
  3
Layout1
350
1E
  3
Layout2
350
26
  3
Model
350
22
  0
DICTIONARY
  5
17
102
{ACAD_REACTORS
330
C
102
}
330
C
100
AcDbDictionary
281
     1
  3
Standard
350
18
  0
DICTIONARY
  5
19
102
{ACAD_REACTORS
330
C
102
}
330
C
100
AcDbDictionary
281
     1
  0
ACDBDICTIONARYWDFLT
  5
E
102
{ACAD_REACTORS
330
C
102
}
330
C
100
AcDbDictionary
281
     1
  3
Normal
350
F
100
AcDbDictionaryWithDefault
340
F
  0
DICTIONARY
  5
696
102
{ACAD_REACTORS
330
C
102
}
330
C
100
AcDbDictionary
281
     1
  0
DICTIONARY
  5
2A
102
{ACAD_REACTORS
330
C
102
}
330
C
100
AcDbDictionary
281
     1
  3
2dWireframe
350
2F
  3
3D Hidden
350
31
  3
3dWireframe
350
30
  3
Basic
350
32
  3
Brighten
350
36
  3
ColorChange
350
3A
  3
Conceptual
350
34
  3
Dim
350
35
  3
Facepattern
350
39
  3
Flat
350
2B
  3
FlatWithEdges
350
2C
  3
Gouraud
350
2D
  3
GouraudWithEdges
350
2E
  3
Linepattern
350
38
  3
Realistic
350
33
  3
Thicken
350
37
  0
LAYOUT
  5
1E
102
{ACAD_REACTORS
330
1A
102
}
330
1A
100
AcDbPlotSettings
  1

  2
none_device
  4

  6

 40
0.0
 41
0.0
 42
0.0
 43
0.0
 44
0.0
 45
0.0
 46
0.0
 47
0.0
 48
0.0
 49
0.0
140
0.0
141
0.0
142
1.0
143
1.0
 70
   688
 72
     0
 73
     0
 74
     5
  7

 75
    16
147
1.0
148
0.0
149
0.0
100
AcDbLayout
  1
Layout1
 70
     1
 71
     1
 10
0.0
 20
0.0
 11
12.0
 21
9.0
 12
0.0
 22
0.0
 32
0.0
 14
1.00000000000000E+20
 24
1.00000000000000E+20
 34
1.00000000000000E+20
 15
-1.00000000000000E+20
 25
-1.00000000000000E+20
 35
-1.00000000000000E+20
146
0.0
 13
0.0
 23
0.0
 33
0.0
 16
1.0
 26
0.0
 36
0.0
 17
0.0
 27
1.0
 37
0.0
 76
     0
330
1B
  0
LAYOUT
  5
26
102
{ACAD_REACTORS
330
1A
102
}
330
1A
100
AcDbPlotSettings
  1

  2
none_device
  4

  6

 40
0.0
 41
0.0
 42
0.0
 43
0.0
 44
0.0
 45
0.0
 46
0.0
 47
0.0
 48
0.0
 49
0.0
140
0.0
141
0.0
142
1.0
143
1.0
 70
   688
 72
     0
 73
     0
 74
     5
  7

 75
    16
147
1.0
148
0.0
149
0.0
100
AcDbLayout
  1
Layout2
 70
     1
 71
     2
 10
0.0
 20
0.0
 11
0.0
 21
0.0
 12
0.0
 22
0.0
 32
0.0
 14
0.0
 24
0.0
 34
0.0
 15
0.0
 25
0.0
 35
0.0
146
0.0
 13
0.0
 23
0.0
 33
0.0
 16
1.0
 26
0.0
 36
0.0
 17
0.0
 27
1.0
 37
0.0
 76
     0
330
23
  0
LAYOUT
  5
22
102
{ACAD_REACTORS
330
1A
102
}
330
1A
100
AcDbPlotSettings
  1

  2
none_device
  4

  6

 40
0.0
 41
0.0
 42
0.0
 43
0.0
 44
0.0
 45
0.0
 46
0.0
 47
0.0
 48
0.0
 49
0.0
140
0.0
141
0.0
142
1.0
143
1.0
 70
  1712
 72
     0
 73
     0
 74
     0
  7

 75
     0
147
1.0
148
0.0
149
0.0
100
AcDbLayout
  1
Model
 70
     1
 71
     0
 10
0.0
 20
0.0
 11
12.0
 21
9.0
 12
0.0
 22
0.0
 32
0.0
 14
-33.0
 24
-419.0595616796114
 34
0.0
 15
549.0531367055955
 25
229.003791
 35
0.0
146
0.0
 13
0.0
 23
0.0
 33
0.0
 16
1.0
 26
0.0
 36
0.0
 17
0.0
 27
1.0
 37
0.0
 76
     0
330
1F
331
29
  0
MLINESTYLE
  5
18
102
{ACAD_REACTORS
330
17
102
}
330
17
100
AcDbMlineStyle
  2
Standard
 70
     0
  3

 62
   256
 51
90.0
 52
90.0
 71
     2
 49
0.5
 62
   256
  6
BYLAYER
 49
-0.5
 62
   256
  6
BYLAYER
  0
ACDBPLACEHOLDER
  5
F
102
{ACAD_REACTORS
330
E
102
}
330
E
  0
VISUALSTYLE
  5
2F
102
{ACAD_REACTORS
330
2A
102
}
330
2A
100
AcDbVisualStyle
  2
2dWireframe
 70
     4
 71
     0
 72
     2
 73
     0
 90
        0
 40
-0.6
 41
-30.0
 62
     5
 63
     7
 74
     1
 91
        4
 64
     7
 65
   257
 75
     1
175
     1
 42
1.0
 92
        0
 66
   257
 43
1.0
 76
     1
 77
     6
 78
     2
 67
     7
 79
     5
170
     0
171
     0
290
     0
174
     0
 93
        1
 44
0.0
173
     0
291
     0
 45
0.0
1001
ACAD
1000
AcDbSavedByObjectVersion
1070
     0
  0
VISUALSTYLE
  5
31
102
{ACAD_REACTORS
330
2A
102
}
330
2A
100
AcDbVisualStyle
  2
3D Hidden
 70
     6
 71
     1
 72
     2
 73
     2
 90
        0
 40
-0.6
 41
-30.0
 62
     5
 63
     7
 74
     2
 91
        2
 64
     7
 65
   257
 75
     2
175
     1
 42
40.0
 92
        0
 66
   257
 43
1.0
 76
     1
 77
     6
 78
     2
 67
     7
 79
     3
170
     0
171
     0
290
     0
174
     0
 93
        1
 44
0.0
173
     0
291
     0
 45
0.0
1001
ACAD
1000
AcDbSavedByObjectVersion
1070
     0
  0
VISUALSTYLE
  5
30
102
{ACAD_REACTORS
330
2A
102
}
330
2A
100
AcDbVisualStyle
  2
3dWireframe
 70
     5
 71
     0
 72
     2
 73
     0
 90
        0
 40
-0.6
 41
-30.0
 62
     5
 63
     7
 74
     1
 91
        4
 64
     7
 65
   257
 75
     1
175
     1
 42
1.0
 92
        0
 66
   257
 43
1.0
 76
     1
 77
     6
 78
     2
 67
     7
 79
     5
170
     0
171
     0
290
     0
174
     0
 93
        1
 44
0.0
173
     0
291
     0
 45
0.0
1001
ACAD
1000
AcDbSavedByObjectVersion
1070
     0
  0
VISUALSTYLE
  5
32
102
{ACAD_REACTORS
330
2A
102
}
330
2A
100
AcDbVisualStyle
  2
Basic
 70
     7
 71
     1
 72
     0
 73
     1
 90
        0
 40
-0.6
 41
-30.0
 62
     5
 63
     7
 74
     0
 91
        4
 64
     7
 65
   257
 75
     1
175
     1
 42
1.0
 92
        8
 66
     7
 43
1.0
 76
     1
 77
     6
 78
     2
 67
     7
 79
     5
170
     0
171
     0
290
     0
174
     0
 93
        1
 44
0.0
173
     0
291
     1
 45
0.0
1001
ACAD
1000
AcDbSavedByObjectVersion
1070
     0
  0
VISUALSTYLE
  5
36
102
{ACAD_REACTORS
330
2A
102
}
330
2A
100
AcDbVisualStyle
  2
Brighten
 70
    12
 71
     2
 72
     2
 73
     0
 90
        0
 40
-0.6
 41
-30.0
 62
     5
 63
     7
 74
     1
 91
        4
 64
     7
 65
   257
 75
     1
175
     1
 42
1.0
 92
        8
 66
     7
 43
1.0
 76
     1
 77
     6
 78
     2
 67
     7
 79
     5
170
     0
171
     0
290
     0
174
     0
 93
        1
 44
50.0
173
     0
291
     1
 45
0.0
1001
ACAD
1000
AcDbSavedByObjectVersion
1070
     0
  0
VISUALSTYLE
  5
3A
102
{ACAD_REACTORS
330
2A
102
}
330
2A
100
AcDbVisualStyle
  2
ColorChange
 70
    16
 71
     2
 72
     2
 73
     3
 90
        0
 40
-0.6
 41
-30.0
 62
     5
 63
     8
 74
     1
 91
        4
 64
     7
 65
   257
 75
     1
175
     1
 42
1.0
 92
        8
 66
     8
 43
1.0
 76
     1
 77
     6
 78
     2
 67
     7
 79
     5
170
     0
171
     0
290
     0
174
     0
 93
        1
 44
0.0
173
     0
291
     1
 45
0.0
1001
ACAD
1000
AcDbSavedByObjectVersion
1070
     0
  0
VISUALSTYLE
  5
34
102
{ACAD_REACTORS
330
2A
102
}
330
2A
100
AcDbVisualStyle
  2
Conceptual
 70
     9
 71
     3
 72
     2
 73
     0
 90
        0
 40
-0.6
 41
-30.0
 62
     5
 63
     7
 74
     2
 91
        2
 64
     7
 65
   257
 75
     1
175
     1
 42
40.0
 92
        8
 66
     7
 43
1.0
 76
     1
 77
     6
 78
     2
 67
     7
 79
     3
170
     0
171
     0
290
     0
174
     0
 93
        1
 44
0.0
173
     0
291
     0
 45
0.0
1001
ACAD
1000
AcDbSavedByObjectVersion
1070
     0
  0
VISUALSTYLE
  5
35
102
{ACAD_REACTORS
330
2A
102
}
330
2A
100
AcDbVisualStyle
  2
Dim
 70
    11
 71
     2
 72
     2
 73
     0
 90
        0
 40
-0.6
 41
-30.0
 62
     5
 63
     7
 74
     1
 91
        4
 64
     7
 65
   257
 75
     1
175
     1
 42
1.0
 92
        8
 66
     7
 43
1.0
 76
     1
 77
     6
 78
     2
 67
     7
 79
     5
170
     0
171
     0
290
     0
174
     0
 93
        1
 44
-50.0
173
     0
291
     1
 45
0.0
1001
ACAD
1000
AcDbSavedByObjectVersion
1070
     0
  0
VISUALSTYLE
  5
39
102
{ACAD_REACTORS
330
2A
102
}
330
2A
100
AcDbVisualStyle
  2
Facepattern
 70
    15
 71
     2
 72
     2
 73
     0
 90
        0
 40
-0.6
 41
-30.0
 62
     5
 63
     7
 74
     1
 91
        4
 64
     7
 65
   257
 75
     1
175
     1
 42
1.0
 92
        8
 66
     7
 43
1.0
 76
     1
 77
     6
 78
     2
 67
     7
 79
     5
170
     0
171
     0
290
     0
174
     0
 93
        1
 44
0.0
173
     0
291
     1
 45
0.0
1001
ACAD
1000
AcDbSavedByObjectVersion
1070
     0
  0
VISUALSTYLE
  5
2B
102
{ACAD_REACTORS
330
2A
102
}
330
2A
100
AcDbVisualStyle
  2
Flat
 70
     0
 71
     2
 72
     1
 73
     1
 90
        2
 40
-0.6
 41
30.0
 62
     5
 63
     7
 74
     0
 91
        4
 64
     7
 65
   257
 75
     1
175
     1
 42
1.0
 92
        8
 66
     7
 43
1.0
 76
     1
 77
     6
 78
     2
 67
     7
 79
     5
170
     0
171
     0
290
     0
174
     0
 93
       13
 44
0.0
173
     0
291
     1
 45
0.0
1001
ACAD
1000
AcDbSavedByObjectVersion
1070
     0
  0
VISUALSTYLE
  5
2C
102
{ACAD_REACTORS
330
2A
102
}
330
2A
100
AcDbVisualStyle
  2
FlatWithEdges
 70
     1
 71
     2
 72
     1
 73
     1
 90
        2
 40
-0.6
 41
30.0
 62
     5
 63
     7
 74
     1
 91
        4
 64
     7
 65
   257
 75
     1
175
     1
 42
1.0
 92
        0
 66
   257
 43
1.0
 76
     1
 77
     6
 78
     2
 67
     7
 79
     5
170
     0
171
     0
290
     0
174
     0
 93
       13
 44
0.0
173
     0
291
     1
 45
0.0
1001
ACAD
1000
AcDbSavedByObjectVersion
1070
     0
  0
VISUALSTYLE
  5
2D
102
{ACAD_REACTORS
330
2A
102
}
330
2A
100
AcDbVisualStyle
  2
Gouraud
 70
     2
 71
     2
 72
     2
 73
     1
 90
        2
 40
-0.6
 41
30.0
 62
     5
 63
     7
 74
     0
 91
        4
 64
     7
 65
   257
 75
     1
175
     1
 42
1.0
 92
        0
 66
     7
 43
1.0
 76
     1
 77
     6
 78
     2
 67
     7
 79
     5
170
     0
171
     0
290
     0
174
     0
 93
       13
 44
0.0
173
     0
291
     1
 45
0.0
1001
ACAD
1000
AcDbSavedByObjectVersion
1070
     0
  0
VISUALSTYLE
  5
2E
102
{ACAD_REACTORS
330
2A
102
}
330
2A
100
AcDbVisualStyle
  2
GouraudWithEdges
 70
     3
 71
     2
 72
     2
 73
     1
 90
        2
 40
-0.6
 41
30.0
 62
     5
 63
     7
 74
     1
 91
        4
 64
     7
 65
   257
 75
     1
175
     1
 42
1.0
 92
        0
 66
   257
 43
1.0
 76
     1
 77
     6
 78
     2
 67
     7
 79
     5
170
     0
171
     0
290
     0
174
     0
 93
       13
 44
0.0
173
     0
291
     1
 45
0.0
1001
ACAD
1000
AcDbSavedByObjectVersion
1070
     0
  0
VISUALSTYLE
  5
38
102
{ACAD_REACTORS
330
2A
102
}
330
2A
100
AcDbVisualStyle
  2
Linepattern
 70
    14
 71
     2
 72
     2
 73
     0
 90
        0
 40
-0.6
 41
-30.0
 62
     5
 63
     7
 74
     1
 91
        4
 64
     7
 65
   257
 75
     7
175
     7
 42
1.0
 92
        8
 66
     7
 43
1.0
 76
     1
 77
     6
 78
     2
 67
     7
 79
     5
170
     0
171
     0
290
     0
174
     0
 93
        1
 44
0.0
173
     0
291
     1
 45
0.0
1001
ACAD
1000
AcDbSavedByObjectVersion
1070
     0
  0
VISUALSTYLE
  5
33
102
{ACAD_REACTORS
330
2A
102
}
330
2A
100
AcDbVisualStyle
  2
Realistic
 70
     8
 71
     2
 72
     2
 73
     0
 90
        0
 40
-0.6
 41
-30.0
 62
     5
 63
     7
 74
     1
 91
        0
 64
     7
 65
   257
 75
     1
175
     1
 42
1.0
 92
        8
 66
     8
 43
1.0
 76
     1
 77
     6
 78
     2
 67
     7
 79
     5
170
     0
171
     0
290
     0
174
     0
 93
       13
 44
0.0
173
     0
291
     0
 45
0.0
1001
ACAD
1000
AcDbSavedByObjectVersion
1070
     0
  0
VISUALSTYLE
  5
37
102
{ACAD_REACTORS
330
2A
102
}
330
2A
100
AcDbVisualStyle
  2
Thicken
 70
    13
 71
     2
 72
     2
 73
     0
 90
        0
 40
-0.6
 41
-30.0
 62
     5
 63
     7
 74
     1
 91
        4
 64
     7
 65
   257
 75
     1
175
     1
 42
1.0
 92
       12
 66
     7
 43
1.0
 76
     1
 77
     6
 78
     2
 67
     7
 79
     5
170
     0
171
     0
290
     0
174
     0
 93
        1
 44
0.0
173
     0
291
     1
 45
0.0
1001
ACAD
1000
AcDbSavedByObjectVersion
1070
     0
  0
ENDSEC
  0
EOF
